  0
SECTION
  2
HEADER
  9
$ACADVER
  1
AC1014
  9
$ACADMAINTVER
 70
     9
  9
$DWGCODEPAGE
  3
ANSI_1252
  9
$INSBASE
 10
0.0
 20
0.0
 30
0.0
  9
$EXTMIN
 10
1.000000000000000E+20
 20
1.000000000000000E+20
 30
1.000000000000000E+20
  9
$EXTMAX
 10
-1.000000000000000E+20
 20
-1.000000000000000E+20
 30
-1.000000000000000E+20
  9
$LIMMIN
 10
0.0
 20
0.0
  9
$LIMMAX
 10
12.0
 20
9.0
  9
$ORTHOMODE
 70
     0
  9
$REGENMODE
 70
     1
  9
$FILLMODE
 70
     1
  9
$QTEXTMODE
 70
     0
  9
$MIRRTEXT
 70
     1
  9
$DRAGMODE
 70
     2
  9
$LTSCALE
 40
12.7
  9
$OSMODE
 70
    23
  9
$ATTMODE
 70
     1
  9
$TEXTSIZE
 40
3.5
  9
$TRACEWID
 40
0.05
  9
$TEXTSTYLE
  7
ONSHAPE-STANDARD
  9
$CLAYER
  8
0
  9
$CELTYPE
  6
BYLAYER
  9
$CECOLOR
 62
   256
  9
$CELTSCALE
 40
1.0
  9
$DELOBJ
 70
     1
  9
$DISPSILH
 70
     0
  9
$DIMSCALE
 40
1.0
  9
$DIMASZ
 40
2.5
  9
$DIMEXO
 40
0.625
  9
$DIMDLI
 40
3.75
  9
$DIMRND
 40
0.0
  9
$DIMDLE
 40
0.0
  9
$DIMEXE
 40
1.25
  9
$DIMTP
 40
0.0
  9
$DIMTM
 40
0.0
  9
$DIMTXT
 40
3.5
  9
$DIMCEN
 40
2.5
  9
$DIMTSZ
 40
0.0
  9
$DIMTOL
 70
     0
  9
$DIMLIM
 70
     0
  9
$DIMTIH
 70
     0
  9
$DIMTOH
 70
     0
  9
$DIMSE1
 70
     0
  9
$DIMSE2
 70
     0
  9
$DIMTAD
 70
     1
  9
$DIMZIN
 70
     8
  9
$DIMBLK
  1

  9
$DIMASO
 70
     1
  9
$DIMSHO
 70
     1
  9
$DIMPOST
  1

  9
$DIMAPOST
  1

  9
$DIMALT
 70
     0
  9
$DIMALTD
 70
     3
  9
$DIMALTF
 40
0.03937
  9
$DIMLFAC
 40
1.0
  9
$DIMTOFL
 70
     1
  9
$DIMTVP
 40
0.0
  9
$DIMTIX
 70
     0
  9
$DIMSOXD
 70
     0
  9
$DIMSAH
 70
     0
  9
$DIMBLK1
  1

  9
$DIMBLK2
  1

  9
$DIMSTYLE
  2
ONSHAPE-ISO-25
  9
$DIMCLRD
 70
     0
  9
$DIMCLRE
 70
     0
  9
$DIMCLRT
 70
     0
  9
$DIMTFAC
 40
1.0
  9
$DIMGAP
 40
0.625
  9
$DIMJUST
 70
     0
  9
$DIMSD1
 70
     0
  9
$DIMSD2
 70
     0
  9
$DIMTOLJ
 70
     0
  9
$DIMTZIN
 70
     8
  9
$DIMALTZ
 70
     0
  9
$DIMALTTZ
 70
     0
  9
$DIMFIT
 70
     3
  9
$DIMUPT
 70
     1
  9
$DIMUNIT
 70
     2
  9
$DIMDEC
 70
     2
  9
$DIMTDEC
 70
     2
  9
$DIMALTU
 70
     2
  9
$DIMALTTD
 70
     3
  9
$DIMTXSTY
  7
ONSHAPE-STANDARD-DIMENSION
  9
$DIMAUNIT
 70
     0
  9
$LUNITS
 70
     2
  9
$LUPREC
 70
     4
  9
$SKETCHINC
 40
0.1
  9
$FILLETRAD
 40
0.5
  9
$AUNITS
 70
     0
  9
$AUPREC
 70
     0
  9
$MENU
  1
.
  9
$ELEVATION
 40
0.0
  9
$PELEVATION
 40
0.0
  9
$THICKNESS
 40
0.0
  9
$LIMCHECK
 70
     0
  9
$CHAMFERA
 40
0.0
  9
$CHAMFERB
 40
0.0
  9
$CHAMFERC
 40
0.0
  9
$CHAMFERD
 40
0.0
  9
$SKPOLY
 70
     0
  9
$TDCREATE
 40
2457909.708344907
  9
$TDUPDATE
 40
2457909.708344907
  9
$TDINDWG
 40
0.0
  9
$TDUSRTIMER
 40
0.0
  9
$USRTIMER
 70
     1
  9
$ANGBASE
 50
0.0
  9
$ANGDIR
 70
     0
  9
$PDMODE
 70
     0
  9
$PDSIZE
 40
0.0
  9
$PLINEWID
 40
0.0
  9
$COORDS
 70
     1
  9
$SPLFRAME
 70
     0
  9
$SPLINETYPE
 70
     6
  9
$SPLINESEGS
 70
     8
  9
$ATTDIA
 70
     0
  9
$ATTREQ
 70
     1
  9
$HANDLING
 70
     1
  9
$HANDSEED
  5
33C
  9
$SURFTAB1
 70
     6
  9
$SURFTAB2
 70
     6
  9
$SURFTYPE
 70
     6
  9
$SURFU
 70
     6
  9
$SURFV
 70
     6
  9
$UCSNAME
  2

  9
$UCSORG
 10
0.0
 20
0.0
 30
0.0
  9
$UCSXDIR
 10
1.0
 20
0.0
 30
0.0
  9
$UCSYDIR
 10
0.0
 20
1.0
 30
0.0
  9
$PUCSNAME
  2

  9
$PUCSORG
 10
0.0
 20
0.0
 30
0.0
  9
$PUCSXDIR
 10
1.0
 20
0.0
 30
0.0
  9
$PUCSYDIR
 10
0.0
 20
1.0
 30
0.0
  9
$USERI1
 70
     0
  9
$USERI2
 70
     0
  9
$USERI3
 70
     0
  9
$USERI4
 70
     0
  9
$USERI5
 70
     0
  9
$USERR1
 40
0.0
  9
$USERR2
 40
0.0
  9
$USERR3
 40
0.0
  9
$USERR4
 40
0.0
  9
$USERR5
 40
0.0
  9
$WORLDVIEW
 70
     1
  9
$SHADEDGE
 70
     3
  9
$SHADEDIF
 70
    70
  9
$TILEMODE
 70
     1
  9
$MAXACTVP
 70
    64
  9
$PINSBASE
 10
0.0
 20
0.0
 30
0.0
  9
$PLIMCHECK
 70
     0
  9
$PEXTMIN
 10
1.000000000000000E+20
 20
1.000000000000000E+20
 30
1.000000000000000E+20
  9
$PEXTMAX
 10
-1.000000000000000E+20
 20
-1.000000000000000E+20
 30
-1.000000000000000E+20
  9
$PLIMMIN
 10
0.0
 20
0.0
  9
$PLIMMAX
 10
12.0
 20
9.0
  9
$UNITMODE
 70
     0
  9
$VISRETAIN
 70
     1
  9
$PLINEGEN
 70
     0
  9
$PSLTSCALE
 70
     1
  9
$TREEDEPTH
 70
  3020
  9
$PICKSTYLE
 70
     1
  9
$CMLSTYLE
  2
STANDARD
  9
$CMLJUST
 70
     0
  9
$CMLSCALE
 40
1.0
  9
$PROXYGRAPHICS
 70
     1
  9
$MEASUREMENT
 70
     0
  0
ENDSEC
  0
SECTION
  2
CLASSES
  0
CLASS
  1
ACDBDICTIONARYWDFLT
  2
AcDbDictionaryWithDefault
  3
ObjectDBX Classes
 90
        0
280
     0
281
     0
  0
CLASS
  1
VISUALSTYLE
  2
AcDbVisualStyle
  3
ObjectDBX Classes
 90
     4095
280
     0
281
     0
  0
CLASS
  1
MATERIAL
  2
AcDbMaterial
  3
ObjectDBX Classes
 90
     1153
280
     0
281
     0
  0
CLASS
  1
SCALE
  2
AcDbScale
  3
ObjectDBX Classes
 90
     1153
280
     0
281
     0
  0
CLASS
  1
SUN
  2
AcDbSun
  3
SCENEOE
 90
     1153
280
     0
281
     0
  0
CLASS
  1
TABLESTYLE
  2
AcDbTableStyle
  3
ObjectDBX Classes
 90
     4095
280
     0
281
     0
  0
CLASS
  1
DICTIONARYVAR
  2
AcDbDictionaryVar
  3
ObjectDBX Classes
 90
        0
280
     0
281
     0
  0
CLASS
  1
FIELD
  2
AcDbField
  3
ObjectDBX Classes
 90
     1152
280
     0
281
     0
  0
CLASS
  1
DIMASSOC
  2
AcDbDimAssoc
  3
"AcDbDimAssoc|Product Desc:     AcDim ARX App For Dimension|Company:          Autodesk, Inc.|WEB Address:      www.autodesk.com"
 90
        0
280
     0
281
     0
  0
CLASS
  1
FIELDLIST
  2
AcDbFieldList
  3
ObjectDBX Classes
 90
     1152
280
     0
281
     0
  0
CLASS
  1
XRECORD
  2
AcDbXrecord
  3
ObjectDBX Classes
 90
        0
280
     0
281
     0
  0
CLASS
  1
LWPOLYLINE
  2
AcDbPolyline
  3
ObjectDBX Classes
 90
        0
280
     0
281
     1
  0
CLASS
  1
HATCH
  2
AcDbHatch
  3
ObjectDBX Classes
 90
        0
280
     0
281
     1
  0
CLASS
  1
ACDBPLACEHOLDER
  2
AcDbPlaceHolder
  3
ObjectDBX Classes
 90
        0
280
     0
281
     0
  0
CLASS
  1
LAYOUT
  2
AcDbLayout
  3
ObjectDBX Classes
 90
        0
280
     0
281
     0
  0
ENDSEC
  0
SECTION
  2
TABLES
  0
TABLE
  2
VPORT
  5
8
330
0
100
AcDbSymbolTable
 70
     1
  0
VPORT
  5
29
330
8
100
AcDbSymbolTableRecord
100
AcDbViewportTableRecord
  2
*ACTIVE
 70
     0
 10
0.0
 20
0.0
 11
1.0
 21
1.0
 12
159.194944
 22
105.0
 13
0.0
 23
0.0
 14
0.5
 24
0.5
 15
0.5
 25
0.5
 16
0.0
 26
0.0
 36
1.0
 17
0.0
 27
0.0
 37
0.0
 40
193.8
 41
1.465209936842105
 42
50.0
 43
0.0
 44
0.0
 50
0.0
 51
0.0
 71
     0
 72
   100
 73
     1
 74
     3
 75
     0
 76
     0
 77
     0
 78
     0
  0
ENDTAB
  0
TABLE
  2
LTYPE
  5
5
330
0
100
AcDbSymbolTable
 70
     2
  0
LTYPE
  5
14
330
5
100
AcDbSymbolTableRecord
100
AcDbLinetypeTableRecord
  2
BYBLOCK
 70
     0
  3

 72
    65
 73
     0
 40
0.0
  0
LTYPE
  5
15
330
5
100
AcDbSymbolTableRecord
100
AcDbLinetypeTableRecord
  2
BYLAYER
 70
     0
  3

 72
    65
 73
     0
 40
0.0
  0
LTYPE
  5
16
330
5
100
AcDbSymbolTableRecord
100
AcDbLinetypeTableRecord
  2
CONTINUOUS
 70
     0
  3
Solid line
 72
    65
 73
     0
 40
0.0
  0
LTYPE
  5
27D
330
5
100
AcDbSymbolTableRecord
100
AcDbLinetypeTableRecord
  2
HIDDEN
 70
     0
  3
Hidden line ____ ____ ____ ____ 
 72
    65
 73
     2
 40
0.15
 49
0.1
 74
     0
 49
-0.05
 74
     0
  0
ENDTAB
  0
TABLE
  2
LAYER
  5
2
330
0
100
AcDbSymbolTable
 70
     9
  0
LAYER
  5
10
330
2
100
AcDbSymbolTableRecord
100
AcDbLayerTableRecord
  2
0
 70
     0
 62
     7
  6
CONTINUOUS
  0
LAYER
  5
6E
330
2
100
AcDbSymbolTableRecord
100
AcDbLayerTableRecord
  2
DEFPOINTS
 70
     0
 62
     7
  6
CONTINUOUS
  0
LAYER
  5
73
330
2
100
AcDbSymbolTableRecord
100
AcDbLayerTableRecord
  2
BORDER_FRAME
 70
     0
 62
     7
  6
CONTINUOUS
  0
LAYER
  5
7A
330
2
100
AcDbSymbolTableRecord
100
AcDbLayerTableRecord
  2
TITLE_BLOCK
 70
     0
 62
     7
  6
CONTINUOUS
  0
LAYER
  5
F5
330
2
100
AcDbSymbolTableRecord
100
AcDbLayerTableRecord
  2
ANNOTATION_TEXT
 70
     0
 62
     7
  6
CONTINUOUS
  0
LAYER
  5
267
330
2
100
AcDbSymbolTableRecord
100
AcDbLayerTableRecord
  2
VISIBLE
 70
     0
 62
     7
  6
CONTINUOUS
  0
LAYER
  5
27C
330
2
100
AcDbSymbolTableRecord
100
AcDbLayerTableRecord
  2
HIDDEN
 70
     0
 62
     7
  6
HIDDEN
  0
LAYER
  5
27F
330
2
100
AcDbSymbolTableRecord
100
AcDbLayerTableRecord
  2
TANGENT_HIDDEN
 70
     0
 62
     7
  6
HIDDEN
  0
LAYER
  5
2A5
330
2
100
AcDbSymbolTableRecord
100
AcDbLayerTableRecord
  2
TANGENT_LINES
 70
     0
 62
     7
  6
CONTINUOUS
  0
ENDTAB
  0
TABLE
  2
STYLE
  5
3
330
0
100
AcDbSymbolTable
 70
     4
  0
STYLE
  5
11
330
3
100
AcDbSymbolTableRecord
100
AcDbTextStyleTableRecord
  2
STANDARD
 70
     0
 40
0.0
 41
1.0
 50
0.0
 71
     0
 42
3.5
  3
txt
  4

  0
STYLE
  5
6F
330
3
100
AcDbSymbolTableRecord
100
AcDbTextStyleTableRecord
  2
ONSHAPE-STANDARD
 70
     0
 40
0.0
 41
1.0
 50
0.0
 71
     0
 42
3.5
  3
NotoSans-Regular.ttf
  4

1001
ACAD
1000
Noto Sans
1071
        0
  0
STYLE
  5
71
330
3
100
AcDbSymbolTableRecord
100
AcDbTextStyleTableRecord
  2
ONSHAPE-STANDARD-DIMENSION
 70
     0
 40
0.0
 41
1.0
 50
0.0
 71
     0
 42
3.5
  3

  4

1001
ACAD
1000
Noto Sans
1071
        0
  0
STYLE
  5
B0
330
3
100
AcDbSymbolTableRecord
100
AcDbTextStyleTableRecord
  2
ONSHAPE-STANDARD-FIELDS
 70
     0
 40
0.0
 41
1.0
 50
0.0
 71
     0
 42
3.5
  3

  4

1001
ACAD
1000
Noto Sans
1071
        0
  0
ENDTAB
  0
TABLE
  2
VIEW
  5
6
330
0
100
AcDbSymbolTable
 70
     0
  0
ENDTAB
  0
TABLE
  2
UCS
  5
7
330
0
100
AcDbSymbolTable
 70
     0
  0
ENDTAB
  0
TABLE
  2
APPID
  5
9
330
0
100
AcDbSymbolTable
 70
     5
  0
APPID
  5
12
330
9
100
AcDbSymbolTableRecord
100
AcDbRegAppTableRecord
  2
ACAD
 70
     0
  0
APPID
  5
109
330
9
100
AcDbSymbolTableRecord
100
AcDbRegAppTableRecord
  2
ACAD_DIMASSOC_CALC_DIMLFAC
 70
     0
  0
APPID
  5
10A
330
9
100
AcDbSymbolTableRecord
100
AcDbRegAppTableRecord
  2
ACAD_DIMASSOC_DIMLFAC
 70
     0
  0
APPID
  5
10B
330
9
100
AcDbSymbolTableRecord
100
AcDbRegAppTableRecord
  2
ACAD_DIMASSOC_OVERRIDDEN_D
 70
     0
  0
APPID
  5
169
330
9
100
AcDbSymbolTableRecord
100
AcDbRegAppTableRecord
  2
ACAD_DSTYLE_DIMRADIAL_EXTE
 70
     0
  0
ENDTAB
  0
TABLE
  2
DIMSTYLE
  5
A
330
0
100
AcDbSymbolTable
 70
     5
  0
DIMSTYLE
105
27
330
A
100
AcDbSymbolTableRecord
100
AcDbDimStyleTableRecord
  2
STANDARD
 70
     0
  3

  4

  5

  6

  7

 40
1.0
 41
0.18
 42
0.0625
 43
0.38
 44
0.18
 45
0.0
 46
0.0
 47
0.0
 48
0.0
140
0.18
141
0.09
142
0.0
143
25.4
144
1.0
145
0.0
146
1.0
147
0.09
 71
     0
 72
     0
 73
     1
 74
     1
 75
     0
 76
     0
 77
     0
 78
     0
170
     0
171
     2
172
     0
173
     0
174
     0
175
     0
176
     0
177
     0
178
     0
270
     2
271
     4
272
     4
273
     2
274
     2
340
11
275
     0
280
     0
281
     0
282
     0
283
     1
284
     0
285
     0
286
     0
287
     3
288
     0
  0
DIMSTYLE
105
70
330
A
100
AcDbSymbolTableRecord
100
AcDbDimStyleTableRecord
  2
ONSHAPE-ISO-25
 70
     0
  3

  4

  5

  6

  7

 40
1.0
 41
2.5
 42
0.625
 43
3.75
 44
1.25
 45
0.0
 46
0.0
 47
0.0
 48
0.0
140
3.5
141
2.5
142
0.0
143
0.03937
144
1.0
145
0.0
146
1.0
147
0.625
 71
     0
 72
     0
 73
     0
 74
     0
 75
     0
 76
     0
 77
     1
 78
     8
170
     0
171
     3
172
     1
173
     0
174
     0
175
     0
176
     0
177
     0
178
     0
179
     1
270
     2
271
     2
272
     2
273
     2
274
     3
340
71
275
     0
280
     0
281
     0
282
     0
283
     0
284
     8
285
     0
286
     0
287
     3
288
     1
  0
DIMSTYLE
105
FB
102
{ACAD_REACTORS
330
F8
330
10C
330
11D
330
12C
330
13B
330
14A
330
1CC
330
1DB
330
1EC
330
1FC
330
20D
330
247
330
256
102
}
330
A
100
AcDbSymbolTableRecord
100
AcDbDimStyleTableRecord
  2
ONSHAPE-ISO-25$0
 70
     0
  3

  4

  5

  6

  7

 40
1.0
 41
2.5
 42
0.625
 43
3.75
 44
1.25
 45
0.0
 46
0.0
 47
0.0
 48
0.0
140
3.5
141
2.5
142
0.0
143
0.03937
144
1.0
145
0.0
146
1.0
147
0.625
 71
     0
 72
     0
 73
     0
 74
     0
 75
     0
 76
     0
 77
     1
 78
     8
170
     0
171
     3
172
     1
173
     0
174
     0
175
     0
176
     0
177
     0
178
     0
179
     1
270
     2
271
     2
272
     2
273
     2
274
     3
340
71
275
     0
280
     0
281
     0
282
     0
283
     0
284
     8
285
     0
286
     0
287
     3
288
     1
  0
DIMSTYLE
105
15C
102
{ACAD_REACTORS
330
159
330
16A
330
178
330
186
330
194
330
1A2
330
1B0
330
1BE
330
21C
330
22B
102
}
330
A
100
AcDbSymbolTableRecord
100
AcDbDimStyleTableRecord
  2
ONSHAPE-ISO-25$3
 70
     0
  3

  4

  5

  6

  7

 40
1.0
 41
2.5
 42
0.625
 43
3.75
 44
1.25
 45
0.0
 46
0.0
 47
0.0
 48
0.0
140
3.5
141
0.0
142
0.0
143
0.03937
144
1.0
145
0.0
146
1.0
147
0.625
 71
     0
 72
     0
 73
     0
 74
     0
 75
     0
 76
     0
 77
     1
 78
     8
170
     0
171
     3
172
     1
173
     0
174
     0
175
     0
176
     0
177
     0
178
     0
179
     1
270
     2
271
     2
272
     2
273
     2
274
     3
340
71
275
     0
280
     0
281
     0
282
     0
283
     0
284
     8
285
     0
286
     0
287
     3
288
     1
  0
DIMSTYLE
105
23D
102
{ACAD_REACTORS
330
23A
102
}
330
A
100
AcDbSymbolTableRecord
100
AcDbDimStyleTableRecord
  2
ONSHAPE-ISO-25$4
 70
     0
  3

  4

  5

  6

  7

 40
1.0
 41
2.5
 42
0.625
 43
3.75
 44
1.25
 45
0.0
 46
0.0
 47
0.0
 48
0.0
140
3.5
141
0.0
142
0.0
143
0.03937
144
1.0
145
0.0
146
1.0
147
0.625
 71
     0
 72
     0
 73
     0
 74
     0
 75
     0
 76
     0
 77
     1
 78
     8
170
     0
171
     3
172
     1
173
     0
174
     0
175
     0
176
     0
177
     0
178
     0
179
     1
270
     2
271
     2
272
     2
273
     2
274
     3
340
71
275
     0
280
     0
281
     0
282
     0
283
     0
284
     8
285
     0
286
     0
287
     3
288
     1
  0
ENDTAB
  0
TABLE
  2
BLOCK_RECORD
  5
1
330
0
100
AcDbSymbolTable
 70
    25
  0
BLOCK_RECORD
  5
1F
330
1
100
AcDbSymbolTableRecord
100
AcDbBlockTableRecord
  2
*MODEL_SPACE
  0
BLOCK_RECORD
  5
1B
330
1
100
AcDbSymbolTableRecord
100
AcDbBlockTableRecord
  2
*PAPER_SPACE
  0
BLOCK_RECORD
  5
FD
330
1
100
AcDbSymbolTableRecord
100
AcDbBlockTableRecord
  2
*D1
  0
BLOCK_RECORD
  5
10F
330
1
100
AcDbSymbolTableRecord
100
AcDbBlockTableRecord
  2
*D2
  0
BLOCK_RECORD
  5
120
330
1
100
AcDbSymbolTableRecord
100
AcDbBlockTableRecord
  2
*D3
  0
BLOCK_RECORD
  5
12F
330
1
100
AcDbSymbolTableRecord
100
AcDbBlockTableRecord
  2
*D4
  0
BLOCK_RECORD
  5
13E
330
1
100
AcDbSymbolTableRecord
100
AcDbBlockTableRecord
  2
*D5
  0
BLOCK_RECORD
  5
14D
330
1
100
AcDbSymbolTableRecord
100
AcDbBlockTableRecord
  2
*D6
  0
BLOCK_RECORD
  5
15D
330
1
100
AcDbSymbolTableRecord
100
AcDbBlockTableRecord
  2
*D7
  0
BLOCK_RECORD
  5
16D
330
1
100
AcDbSymbolTableRecord
100
AcDbBlockTableRecord
  2
*D8
  0
BLOCK_RECORD
  5
17B
330
1
100
AcDbSymbolTableRecord
100
AcDbBlockTableRecord
  2
*D9
  0
BLOCK_RECORD
  5
189
330
1
100
AcDbSymbolTableRecord
100
AcDbBlockTableRecord
  2
*D10
  0
BLOCK_RECORD
  5
197
330
1
100
AcDbSymbolTableRecord
100
AcDbBlockTableRecord
  2
*D11
  0
BLOCK_RECORD
  5
1A5
330
1
100
AcDbSymbolTableRecord
100
AcDbBlockTableRecord
  2
*D12
  0
BLOCK_RECORD
  5
1B3
330
1
100
AcDbSymbolTableRecord
100
AcDbBlockTableRecord
  2
*D13
  0
BLOCK_RECORD
  5
1C1
330
1
100
AcDbSymbolTableRecord
100
AcDbBlockTableRecord
  2
*D14
  0
BLOCK_RECORD
  5
1CF
330
1
100
AcDbSymbolTableRecord
100
AcDbBlockTableRecord
  2
*D15
  0
BLOCK_RECORD
  5
1DE
330
1
100
AcDbSymbolTableRecord
100
AcDbBlockTableRecord
  2
*D16
  0
BLOCK_RECORD
  5
1EF
330
1
100
AcDbSymbolTableRecord
100
AcDbBlockTableRecord
  2
*D17
  0
BLOCK_RECORD
  5
1FF
330
1
100
AcDbSymbolTableRecord
100
AcDbBlockTableRecord
  2
*D18
  0
BLOCK_RECORD
  5
210
330
1
100
AcDbSymbolTableRecord
100
AcDbBlockTableRecord
  2
*D19
  0
BLOCK_RECORD
  5
21F
330
1
100
AcDbSymbolTableRecord
100
AcDbBlockTableRecord
  2
*D20
  0
BLOCK_RECORD
  5
22E
330
1
100
AcDbSymbolTableRecord
100
AcDbBlockTableRecord
  2
*D21
  0
BLOCK_RECORD
  5
23E
330
1
100
AcDbSymbolTableRecord
100
AcDbBlockTableRecord
  2
*D22
  0
BLOCK_RECORD
  5
24A
330
1
100
AcDbSymbolTableRecord
100
AcDbBlockTableRecord
  2
*D23
  0
BLOCK_RECORD
  5
25A
330
1
100
AcDbSymbolTableRecord
100
AcDbBlockTableRecord
  2
*D24
  0
ENDTAB
  0
ENDSEC
  0
SECTION
  2
BLOCKS
  0
BLOCK
  5
20
330
1F
100
AcDbEntity
  8
0
100
AcDbBlockBegin
  2
*MODEL_SPACE
 70
     0
 10
0.0
 20
0.0
 30
0.0
  3
*MODEL_SPACE
  1

  0
ENDBLK
  5
21
330
1F
100
AcDbEntity
  8
0
100
AcDbBlockEnd
  0
BLOCK
  5
1C
330
1B
100
AcDbEntity
 67
     1
  8
0
100
AcDbBlockBegin
  2
*PAPER_SPACE
 70
     0
 10
0.0
 20
0.0
 30
0.0
  3
*PAPER_SPACE
  1

  0
ENDBLK
  5
1D
330
1B
100
AcDbEntity
 67
     1
  8
0
100
AcDbBlockEnd
  0
BLOCK
  5
FE
330
FD
100
AcDbEntity
  8
0
100
AcDbBlockBegin
  2
*D1
 70
     1
 10
0.0
 20
0.0
 30
0.0
  3
*D1
  1
*D1
  0
LINE
  5
FF
330
FD
100
AcDbEntity
  8
ANNOTATION_TEXT
 62
     0
100
AcDbLine
 10
91.0741107958226
 20
141.8974105192709
 30
0.0
 11
91.0741107958226
 21
96.53822733423547
 31
0.0
  0
LINE
  5
100
330
FD
100
AcDbEntity
  8
ANNOTATION_TEXT
 62
     0
100
AcDbLine
 10
116.0741107958226
 20
141.8974105192709
 30
0.0
 11
116.0741107958226
 21
96.53822733423547
 31
0.0
  0
LINE
  5
101
330
FD
100
AcDbEntity
  8
ANNOTATION_TEXT
 62
     0
100
AcDbLine
 10
93.5741107958226
 20
97.78822733423547
 30
0.0
 11
113.5741107958226
 21
97.78822733423547
 31
0.0
  0
SOLID
  5
102
330
FD
100
AcDbEntity
  8
ANNOTATION_TEXT
 62
     0
100
AcDbTrace
 10
93.5741107958226
 20
98.20489400090214
 30
0.0
 11
93.5741107958226
 21
97.3715606675688
 31
0.0
 12
91.0741107958226
 22
97.78822733423547
 32
0.0
 13
91.0741107958226
 23
97.78822733423547
 33
0.0
  0
SOLID
  5
103
330
FD
100
AcDbEntity
  8
ANNOTATION_TEXT
 62
     0
100
AcDbTrace
 10
113.5741107958226
 20
97.3715606675688
 30
0.0
 11
113.5741107958226
 21
98.20489400090214
 31
0.0
 12
116.0741107958226
 22
97.78822733423547
 32
0.0
 13
116.0741107958226
 23
97.78822733423547
 33
0.0
  0
MTEXT
  5
104
330
FD
100
AcDbEntity
  8
ANNOTATION_TEXT
 62
     0
100
AcDbMText
 10
104.1232254614344
 20
100.204950767478
 30
0.0
 40
3.5
 41
0.0
 71
     5
 72
     1
  1
25
  7
ONSHAPE-STANDARD-DIMENSION
  0
POINT
  5
105
330
FD
100
AcDbEntity
  8
DEFPOINTS
 62
     0
100
AcDbPoint
 10
91.0741107958226
 20
142.5224105192709
 30
0.0
  0
POINT
  5
106
330
FD
100
AcDbEntity
  8
DEFPOINTS
 62
     0
100
AcDbPoint
 10
116.0741107958226
 20
142.5224105192709
 30
0.0
  0
POINT
  5
107
330
FD
100
AcDbEntity
  8
DEFPOINTS
 62
     0
100
AcDbPoint
 10
116.0741107958226
 20
97.78822733423547
 30
0.0
  0
ENDBLK
  5
108
330
FD
100
AcDbEntity
  8
0
100
AcDbBlockEnd
  0
BLOCK
  5
110
330
10F
100
AcDbEntity
  8
0
100
AcDbBlockBegin
  2
*D2
 70
     1
 10
0.0
 20
0.0
 30
0.0
  3
*D2
  1
*D2
  0
LINE
  5
111
330
10F
100
AcDbEntity
  8
ANNOTATION_TEXT
 62
     0
100
AcDbLine
 10
116.0741107958226
 20
141.8974105192709
 30
0.0
 11
116.0741107958226
 21
96.27598105548041
 31
0.0
  0
LINE
  5
112
330
10F
100
AcDbEntity
  8
ANNOTATION_TEXT
 62
     0
100
AcDbLine
 10
146.0741107958226
 20
141.8974105192709
 30
0.0
 11
146.0741107958226
 21
96.27598105548041
 31
0.0
  0
LINE
  5
113
330
10F
100
AcDbEntity
  8
ANNOTATION_TEXT
 62
     0
100
AcDbLine
 10
116.0741107958226
 20
97.52598105548041
 30
0.0
 11
146.0741107958226
 21
97.52598105548041
 31
0.0
  0
LINE
  5
114
330
10F
100
AcDbEntity
  8
ANNOTATION_TEXT
 62
     0
100
AcDbLine
 10
113.5741107958226
 20
97.52598105548041
 30
0.0
 11
111.0741107958226
 21
97.52598105548041
 31
0.0
  0
LINE
  5
115
330
10F
100
AcDbEntity
  8
ANNOTATION_TEXT
 62
     0
100
AcDbLine
 10
148.5741107958226
 20
97.52598105548041
 30
0.0
 11
151.0741107958226
 21
97.52598105548041
 31
0.0
  0
SOLID
  5
116
330
10F
100
AcDbEntity
  8
ANNOTATION_TEXT
 62
     0
100
AcDbTrace
 10
113.5741107958226
 20
97.10931438881374
 30
0.0
 11
113.5741107958226
 21
97.94264772214709
 31
0.0
 12
116.0741107958226
 22
97.52598105548041
 32
0.0
 13
116.0741107958226
 23
97.52598105548041
 33
0.0
  0
SOLID
  5
117
330
10F
100
AcDbEntity
  8
ANNOTATION_TEXT
 62
     0
100
AcDbTrace
 10
148.5741107958226
 20
97.94264772214709
 30
0.0
 11
148.5741107958226
 21
97.10931438881374
 31
0.0
 12
146.0741107958226
 22
97.52598105548041
 32
0.0
 13
146.0741107958226
 23
97.52598105548041
 33
0.0
  0
MTEXT
  5
118
330
10F
100
AcDbEntity
  8
ANNOTATION_TEXT
 62
     0
100
AcDbMText
 10
128.5121293856563
 20
99.94508868490821
 30
0.0
 40
3.5
 41
0.0
 71
     5
 72
     1
  1
30
  7
ONSHAPE-STANDARD-DIMENSION
  0
POINT
  5
119
330
10F
100
AcDbEntity
  8
DEFPOINTS
 62
     0
100
AcDbPoint
 10
116.0741107958226
 20
142.5224105192709
 30
0.0
  0
POINT
  5
11A
330
10F
100
AcDbEntity
  8
DEFPOINTS
 62
     0
100
AcDbPoint
 10
146.0741107958226
 20
142.5224105192709
 30
0.0
  0
POINT
  5
11B
330
10F
100
AcDbEntity
  8
DEFPOINTS
 62
     0
100
AcDbPoint
 10
146.0741107958226
 20
97.52598105548041
 30
0.0
  0
ENDBLK
  5
11C
330
10F
100
AcDbEntity
  8
0
100
AcDbBlockEnd
  0
BLOCK
  5
121
330
120
100
AcDbEntity
  8
0
100
AcDbBlockBegin
  2
*D3
 70
     1
 10
0.0
 20
0.0
 30
0.0
  3
*D3
  1
*D3
  0
LINE
  5
122
330
120
100
AcDbEntity
  8
ANNOTATION_TEXT
 62
     0
100
AcDbLine
 10
51.07411079582258
 20
114.3974105192709
 30
0.0
 11
51.07411079582258
 21
96.2759810554804
 31
0.0
  0
LINE
  5
123
330
120
100
AcDbEntity
  8
ANNOTATION_TEXT
 62
     0
100
AcDbLine
 10
91.0741107958226
 20
141.8974105192709
 30
0.0
 11
91.0741107958226
 21
96.2759810554804
 31
0.0
  0
LINE
  5
124
330
120
100
AcDbEntity
  8
ANNOTATION_TEXT
 62
     0
100
AcDbLine
 10
53.57411079582258
 20
97.5259810554804
 30
0.0
 11
88.5741107958226
 21
97.5259810554804
 31
0.0
  0
SOLID
  5
125
330
120
100
AcDbEntity
  8
ANNOTATION_TEXT
 62
     0
100
AcDbTrace
 10
53.57411079582258
 20
97.94264772214707
 30
0.0
 11
53.57411079582258
 21
97.10931438881373
 31
0.0
 12
51.07411079582258
 22
97.5259810554804
 32
0.0
 13
51.07411079582258
 23
97.5259810554804
 33
0.0
  0
SOLID
  5
126
330
120
100
AcDbEntity
  8
ANNOTATION_TEXT
 62
     0
100
AcDbTrace
 10
88.5741107958226
 20
97.10931438881373
 30
0.0
 11
88.5741107958226
 21
97.94264772214707
 31
0.0
 12
91.0741107958226
 22
97.5259810554804
 32
0.0
 13
91.0741107958226
 23
97.5259810554804
 33
0.0
  0
MTEXT
  5
127
330
120
100
AcDbEntity
  8
ANNOTATION_TEXT
 62
     0
100
AcDbMText
 10
70.81794805953993
 20
99.9450886849082
 30
0.0
 40
3.5
 41
0.0
 71
     5
 72
     1
  1
40
  7
ONSHAPE-STANDARD-DIMENSION
  0
POINT
  5
128
330
120
100
AcDbEntity
  8
DEFPOINTS
 62
     0
100
AcDbPoint
 10
51.07411079582258
 20
115.0224105192709
 30
0.0
  0
POINT
  5
129
330
120
100
AcDbEntity
  8
DEFPOINTS
 62
     0
100
AcDbPoint
 10
91.0741107958226
 20
142.5224105192709
 30
0.0
  0
POINT
  5
12A
330
120
100
AcDbEntity
  8
DEFPOINTS
 62
     0
100
AcDbPoint
 10
91.0741107958226
 20
97.5259810554804
 30
0.0
  0
ENDBLK
  5
12B
330
120
100
AcDbEntity
  8
0
100
AcDbBlockEnd
  0
BLOCK
  5
130
330
12F
100
AcDbEntity
  8
0
100
AcDbBlockBegin
  2
*D4
 70
     1
 10
0.0
 20
0.0
 30
0.0
  3
*D4
  1
*D4
  0
LINE
  5
131
330
12F
100
AcDbEntity
  8
ANNOTATION_TEXT
 62
     0
100
AcDbLine
 10
66.07411079582258
 20
170.6474105192709
 30
0.0
 11
66.07411079582258
 21
183.5819471405023
 31
0.0
  0
LINE
  5
132
330
12F
100
AcDbEntity
  8
ANNOTATION_TEXT
 62
     0
100
AcDbLine
 10
91.0741107958226
 20
143.1474105192709
 30
0.0
 11
91.0741107958226
 21
183.5819471405023
 31
0.0
  0
LINE
  5
133
330
12F
100
AcDbEntity
  8
ANNOTATION_TEXT
 62
     0
100
AcDbLine
 10
68.57411079582258
 20
182.3319471405023
 30
0.0
 11
88.5741107958226
 21
182.3319471405023
 31
0.0
  0
SOLID
  5
134
330
12F
100
AcDbEntity
  8
ANNOTATION_TEXT
 62
     0
100
AcDbTrace
 10
68.57411079582258
 20
182.7486138071689
 30
0.0
 11
68.57411079582258
 21
181.9152804738356
 31
0.0
 12
66.07411079582258
 22
182.3319471405023
 32
0.0
 13
66.07411079582258
 23
182.3319471405023
 33
0.0
  0
SOLID
  5
135
330
12F
100
AcDbEntity
  8
ANNOTATION_TEXT
 62
     0
100
AcDbTrace
 10
88.5741107958226
 20
181.9152804738356
 30
0.0
 11
88.5741107958226
 21
182.7486138071689
 31
0.0
 12
91.0741107958226
 22
182.3319471405023
 32
0.0
 13
91.0741107958226
 23
182.3319471405023
 33
0.0
  0
MTEXT
  5
136
330
12F
100
AcDbEntity
  8
ANNOTATION_TEXT
 62
     0
100
AcDbMText
 10
78.57411079582259
 20
184.7486705737448
 30
0.0
 40
3.5
 41
0.0
 71
     5
 72
     1
  1
25
  7
ONSHAPE-STANDARD-DIMENSION
  0
POINT
  5
137
330
12F
100
AcDbEntity
  8
DEFPOINTS
 62
     0
100
AcDbPoint
 10
66.07411079582258
 20
170.0224105192709
 30
0.0
  0
POINT
  5
138
330
12F
100
AcDbEntity
  8
DEFPOINTS
 62
     0
100
AcDbPoint
 10
91.0741107958226
 20
142.5224105192709
 30
0.0
  0
POINT
  5
139
330
12F
100
AcDbEntity
  8
DEFPOINTS
 62
     0
100
AcDbPoint
 10
91.0741107958226
 20
182.3319471405023
 30
0.0
  0
ENDBLK
  5
13A
330
12F
100
AcDbEntity
  8
0
100
AcDbBlockEnd
  0
BLOCK
  5
13F
330
13E
100
AcDbEntity
  8
0
100
AcDbBlockBegin
  2
*D5
 70
     1
 10
0.0
 20
0.0
 30
0.0
  3
*D5
  1
*D5
  0
LINE
  5
140
330
13E
100
AcDbEntity
  8
ANNOTATION_TEXT
 62
     0
100
AcDbLine
 10
65.44911079582258
 20
170.0224105192709
 30
0.0
 11
33.61200168109106
 21
170.0224105192709
 31
0.0
  0
LINE
  5
141
330
13E
100
AcDbEntity
  8
ANNOTATION_TEXT
 62
     0
100
AcDbLine
 10
50.44911079582258
 20
115.0224105192709
 30
0.0
 11
33.61200168109106
 21
115.0224105192709
 31
0.0
  0
LINE
  5
142
330
13E
100
AcDbEntity
  8
ANNOTATION_TEXT
 62
     0
100
AcDbLine
 10
34.86200168109106
 20
167.5224105192709
 30
0.0
 11
34.86200168109106
 21
117.5224105192709
 31
0.0
  0
SOLID
  5
143
330
13E
100
AcDbEntity
  8
ANNOTATION_TEXT
 62
     0
100
AcDbTrace
 10
35.27866834775772
 20
167.5224105192709
 30
0.0
 11
34.44533501442439
 21
167.5224105192709
 31
0.0
 12
34.86200168109106
 22
170.0224105192709
 32
0.0
 13
34.86200168109106
 23
170.0224105192709
 33
0.0
  0
SOLID
  5
144
330
13E
100
AcDbEntity
  8
ANNOTATION_TEXT
 62
     0
100
AcDbTrace
 10
34.44533501442439
 20
117.5224105192709
 30
0.0
 11
35.27866834775772
 21
117.5224105192709
 31
0.0
 12
34.86200168109106
 22
115.0224105192709
 32
0.0
 13
34.86200168109106
 23
115.0224105192709
 33
0.0
  0
MTEXT
  5
145
330
13E
100
AcDbEntity
  8
ANNOTATION_TEXT
 62
     0
100
AcDbMText
 10
32.46315971923819
 20
146.00106717956
 30
0.0
 40
3.5
 41
0.0
 71
     5
 72
     1
  1
55
  7
ONSHAPE-STANDARD-DIMENSION
 11
0.0
 21
1.0
 31
0.0
  0
POINT
  5
146
330
13E
100
AcDbEntity
  8
DEFPOINTS
 62
     0
100
AcDbPoint
 10
66.07411079582258
 20
170.0224105192709
 30
0.0
  0
POINT
  5
147
330
13E
100
AcDbEntity
  8
DEFPOINTS
 62
     0
100
AcDbPoint
 10
51.07411079582258
 20
115.0224105192709
 30
0.0
  0
POINT
  5
148
330
13E
100
AcDbEntity
  8
DEFPOINTS
 62
     0
100
AcDbPoint
 10
34.86200168109106
 20
115.0224105192709
 30
0.0
  0
ENDBLK
  5
149
330
13E
100
AcDbEntity
  8
0
100
AcDbBlockEnd
  0
BLOCK
  5
14E
330
14D
100
AcDbEntity
  8
0
100
AcDbBlockBegin
  2
*D6
 70
     1
 10
0.0
 20
0.0
 30
0.0
  3
*D6
  1
*D6
  0
LINE
  5
14F
330
14D
100
AcDbEntity
  8
ANNOTATION_TEXT
 62
     0
100
AcDbLine
 10
66.07411079582258
 20
170.6474105192709
 30
0.0
 11
66.07411079582258
 21
183.5819471405023
 31
0.0
  0
LINE
  5
150
330
14D
100
AcDbEntity
  8
ANNOTATION_TEXT
 62
     0
100
AcDbLine
 10
146.0741107958226
 20
143.1474105192709
 30
0.0
 11
146.0741107958226
 21
183.5819471405023
 31
0.0
  0
LINE
  5
151
330
14D
100
AcDbEntity
  8
ANNOTATION_TEXT
 62
     0
100
AcDbLine
 10
68.57411079582258
 20
182.3319471405023
 30
0.0
 11
143.5741107958226
 21
182.3319471405023
 31
0.0
  0
SOLID
  5
152
330
14D
100
AcDbEntity
  8
ANNOTATION_TEXT
 62
     0
100
AcDbTrace
 10
68.57411079582258
 20
182.7486138071689
 30
0.0
 11
68.57411079582258
 21
181.9152804738356
 31
0.0
 12
66.07411079582258
 22
182.3319471405023
 32
0.0
 13
66.07411079582258
 23
182.3319471405023
 33
0.0
  0
SOLID
  5
153
330
14D
100
AcDbEntity
  8
ANNOTATION_TEXT
 62
     0
100
AcDbTrace
 10
143.5741107958226
 20
181.9152804738356
 30
0.0
 11
143.5741107958226
 21
182.7486138071689
 31
0.0
 12
146.0741107958226
 22
182.3319471405023
 32
0.0
 13
146.0741107958226
 23
182.3319471405023
 33
0.0
  0
MTEXT
  5
154
330
14D
100
AcDbEntity
  8
ANNOTATION_TEXT
 62
     0
100
AcDbMText
 10
114.2434699852982
 20
184.7510547699301
 30
0.0
 40
3.5
 41
0.0
 71
     5
 72
     1
  1
80
  7
ONSHAPE-STANDARD-DIMENSION
  0
POINT
  5
155
330
14D
100
AcDbEntity
  8
DEFPOINTS
 62
     0
100
AcDbPoint
 10
66.07411079582258
 20
170.0224105192709
 30
0.0
  0
POINT
  5
156
330
14D
100
AcDbEntity
  8
DEFPOINTS
 62
     0
100
AcDbPoint
 10
146.0741107958226
 20
142.5224105192709
 30
0.0
  0
POINT
  5
157
330
14D
100
AcDbEntity
  8
DEFPOINTS
 62
     0
100
AcDbPoint
 10
146.0741107958226
 20
182.3319471405023
 30
0.0
  0
ENDBLK
  5
158
330
14D
100
AcDbEntity
  8
0
100
AcDbBlockEnd
  0
BLOCK
  5
15E
330
15D
100
AcDbEntity
  8
0
100
AcDbBlockBegin
  2
*D7
 70
     1
 10
0.0
 20
0.0
 30
0.0
  3
*D7
  1
*D7
  0
LINE
  5
15F
330
15D
100
AcDbEntity
  8
ANNOTATION_TEXT
 62
     0
100
AcDbLine
 10
162.5738415259421
 20
142.6166752186517
 30
0.0
 11
183.1299652374466
 21
142.7341145183466
 31
0.0
  0
LINE
  5
160
330
15D
100
AcDbEntity
  8
ANNOTATION_TEXT
 62
     0
100
AcDbLine
 10
129.5743800657031
 20
142.4281458198901
 30
0.0
 11
127.0744208641698
 21
142.4138632896808
 31
0.0
  0
MTEXT
  5
161
330
15D
100
AcDbEntity
  8
ANNOTATION_TEXT
 62
     0
100
AcDbMText
 10
178.0110382220548
 20
145.7999473069194
 30
0.0
 40
3.5
 41
0.0
 71
     5
 72
     1
  1
%%c28
  7
ONSHAPE-STANDARD-DIMENSION
 11
0.9999836806133047
 21
0.005713012083684741
 31
0.0
  0
LINE
  5
162
330
15D
100
AcDbEntity
  8
ANNOTATION_TEXT
 62
     0
100
AcDbLine
 10
132.0743392672363
 20
142.4424283500993
 30
0.0
 11
160.0738823244088
 21
142.6023926884424
 31
0.0
  0
SOLID
  5
163
330
15D
100
AcDbEntity
  8
ANNOTATION_TEXT
 62
     0
100
AcDbTrace
 10
129.5767604874046
 20
142.0114859529679
 30
0.0
 11
129.5719996440015
 21
142.8448056868123
 31
0.0
 12
132.0743392672363
 22
142.4424283500993
 32
0.0
 13
132.0743392672363
 23
142.4424283500993
 33
0.0
  0
SOLID
  5
164
330
15D
100
AcDbEntity
  8
ANNOTATION_TEXT
 62
     0
100
AcDbTrace
 10
162.5714611042406
 20
143.0333350855739
 30
0.0
 11
162.5762219476436
 21
142.2000153517295
 31
0.0
 12
160.0738823244088
 22
142.6023926884424
 32
0.0
 13
160.0738823244088
 23
142.6023926884424
 33
0.0
  0
ARC
  5
165
330
15D
100
AcDbEntity
  8
ANNOTATION_TEXT
 62
     0
100
AcDbCircle
 10
146.0741107958226
 20
142.5224105192709
 30
0.0
 40
13.99999999999999
100
AcDbArc
 50
355.2099378860044
 51
118.4446593802733
  0
POINT
  5
166
330
15D
100
AcDbEntity
  8
DEFPOINTS
 62
     0
100
AcDbPoint
 10
160.0738823244088
 20
142.6023926884424
 30
0.0
  0
POINT
  5
167
330
15D
100
AcDbEntity
  8
DEFPOINTS
 62
     0
100
AcDbPoint
 10
132.0743392672363
 20
142.4424283500993
 30
0.0
  0
ENDBLK
  5
168
330
15D
100
AcDbEntity
  8
0
100
AcDbBlockEnd
  0
BLOCK
  5
16E
330
16D
100
AcDbEntity
  8
0
100
AcDbBlockBegin
  2
*D8
 70
     1
 10
0.0
 20
0.0
 30
0.0
  3
*D8
  1
*D8
  0
LINE
  5
16F
330
16D
100
AcDbEntity
  8
ANNOTATION_TEXT
 62
     0
100
AcDbLine
 10
116.0040943793071
 20
149.0220334084405
 30
0.0
 11
115.8191516850632
 21
166.1902609258662
 31
0.0
  0
LINE
  5
170
330
16D
100
AcDbEntity
  8
ANNOTATION_TEXT
 62
     0
100
AcDbLine
 10
116.1441272123381
 20
136.0227876301012
 30
0.0
 11
116.1710566033056
 21
133.5229326727282
 31
0.0
  0
MTEXT
  5
171
330
16D
100
AcDbEntity
  8
ANNOTATION_TEXT
 62
     0
100
AcDbMText
 10
118.9539128351972
 20
162.5184333093078
 30
0.0
 40
3.5
 41
0.0
 71
     5
 72
     1
  1
%%c8
  7
ONSHAPE-STANDARD-DIMENSION
 11
0.01077175638699756
 21
-0.9999419829491807
 31
0.0
  0
LINE
  5
172
330
16D
100
AcDbEntity
  8
ANNOTATION_TEXT
 62
     0
100
AcDbLine
 10
116.1171978213706
 20
138.5226425874741
 30
0.0
 11
116.0310237702746
 21
146.5221784510676
 31
0.0
  0
SOLID
  5
173
330
16D
100
AcDbEntity
  8
ANNOTATION_TEXT
 62
     0
100
AcDbTrace
 10
116.5607697052336
 20
136.0272758619291
 30
0.0
 11
115.7274847194426
 21
136.0182993982733
 31
0.0
 12
116.1171978213706
 22
138.5226425874741
 32
0.0
 13
116.1171978213706
 23
138.5226425874741
 33
0.0
  0
SOLID
  5
174
330
16D
100
AcDbEntity
  8
ANNOTATION_TEXT
 62
     0
100
AcDbTrace
 10
115.5874518864116
 20
149.0175451766126
 30
0.0
 11
116.4207368722026
 21
149.0265216402684
 31
0.0
 12
116.0310237702746
 22
146.5221784510676
 32
0.0
 13
116.0310237702746
 23
146.5221784510676
 33
0.0
  0
POINT
  5
175
330
16D
100
AcDbEntity
  8
DEFPOINTS
 62
     0
100
AcDbPoint
 10
116.0310237702746
 20
146.5221784510676
 30
0.0
  0
POINT
  5
176
330
16D
100
AcDbEntity
  8
DEFPOINTS
 62
     0
100
AcDbPoint
 10
116.1171978213706
 20
138.5226425874741
 30
0.0
  0
ENDBLK
  5
177
330
16D
100
AcDbEntity
  8
0
100
AcDbBlockEnd
  0
BLOCK
  5
17C
330
17B
100
AcDbEntity
  8
0
100
AcDbBlockBegin
  2
*D9
 70
     1
 10
0.0
 20
0.0
 30
0.0
  3
*D9
  1
*D9
  0
LINE
  5
17D
330
17B
100
AcDbEntity
  8
ANNOTATION_TEXT
 62
     0
100
AcDbLine
 10
95.22043350557125
 20
147.5282079569048
 30
0.0
 11
109.5503830777333
 21
164.8285557279786
 31
0.0
  0
LINE
  5
17E
330
17B
100
AcDbEntity
  8
ANNOTATION_TEXT
 62
     0
100
AcDbLine
 10
86.92778808607396
 20
137.5166130816369
 30
0.0
 11
85.33304858232448
 21
135.5913063748546
 31
0.0
  0
MTEXT
  5
17F
330
17B
100
AcDbEntity
  8
ANNOTATION_TEXT
 62
     0
100
AcDbMText
 10
104.803185106913
 20
163.9492622957561
 30
0.0
 40
3.5
 41
0.0
 71
     5
 72
     1
  1
%%c8
  7
ONSHAPE-STANDARD-DIMENSION
 11
0.6378958014997913
 21
0.7701226827129162
 31
0.0
  0
LINE
  5
180
330
17B
100
AcDbEntity
  8
ANNOTATION_TEXT
 62
     0
100
AcDbLine
 10
88.52252758982344
 20
139.4419197884192
 30
0.0
 11
93.62569400182177
 21
145.6029012501225
 31
0.0
  0
SOLID
  5
181
330
17B
100
AcDbEntity
  8
ANNOTATION_TEXT
 62
     0
100
AcDbTrace
 10
87.24867253720434
 20
137.2508231643453
 30
0.0
 11
86.60690363494358
 21
137.7824029989285
 31
0.0
 12
88.52252758982344
 22
139.4419197884192
 32
0.0
 13
88.52252758982344
 23
139.4419197884192
 33
0.0
  0
SOLID
  5
182
330
17B
100
AcDbEntity
  8
ANNOTATION_TEXT
 62
     0
100
AcDbTrace
 10
94.89954905444087
 20
147.7939978741964
 30
0.0
 11
95.54131795670163
 21
147.2624180396132
 31
0.0
 12
93.62569400182177
 22
145.6029012501225
 32
0.0
 13
93.62569400182177
 23
145.6029012501225
 33
0.0
  0
POINT
  5
183
330
17B
100
AcDbEntity
  8
DEFPOINTS
 62
     0
100
AcDbPoint
 10
93.62569400182177
 20
145.6029012501225
 30
0.0
  0
POINT
  5
184
330
17B
100
AcDbEntity
  8
DEFPOINTS
 62
     0
100
AcDbPoint
 10
88.52252758982344
 20
139.4419197884192
 30
0.0
  0
ENDBLK
  5
185
330
17B
100
AcDbEntity
  8
0
100
AcDbBlockEnd
  0
BLOCK
  5
18A
330
189
100
AcDbEntity
  8
0
100
AcDbBlockBegin
  2
*D10
 70
     1
 10
0.0
 20
0.0
 30
0.0
  3
*D10
  1
*D10
  0
LINE
  5
18B
330
189
100
AcDbEntity
  8
ANNOTATION_TEXT
 62
     0
100
AcDbLine
 10
61.43872804660642
 20
174.5790789039868
 30
0.0
 11
49.10307481866899
 21
186.7052579294547
 31
0.0
  0
LINE
  5
18C
330
189
100
AcDbEntity
  8
ANNOTATION_TEXT
 62
     0
100
AcDbLine
 10
70.70949354503874
 20
165.465742134555
 30
0.0
 11
72.49233306396803
 21
163.7131773712027
 31
0.0
  0
MTEXT
  5
18D
330
189
100
AcDbEntity
  8
ANNOTATION_TEXT
 62
     0
100
AcDbMText
 10
53.91520930518313
 20
186.3148642847682
 30
0.0
 40
3.5
 41
0.0
 71
     5
 72
     1
  1
%%c8
  7
ONSHAPE-STANDARD-DIMENSION
 11
0.7131358075717161
 21
-0.7010259053409055
 31
0.0
  0
LINE
  5
18E
330
189
100
AcDbEntity
  8
ANNOTATION_TEXT
 62
     0
100
AcDbLine
 10
68.92665402610945
 20
167.2183068979072
 30
0.0
 11
63.22156756553571
 21
172.8265141406345
 31
0.0
  0
SOLID
  5
18F
330
189
100
AcDbEntity
  8
ANNOTATION_TEXT
 62
     0
100
AcDbTrace
 10
71.00158767226412
 20
165.7628820543765
 30
0.0
 11
70.41739941781336
 21
165.1686022147334
 31
0.0
 12
68.92665402610945
 22
167.2183068979072
 32
0.0
 13
68.92665402610945
 23
167.2183068979072
 33
0.0
  0
SOLID
  5
190
330
189
100
AcDbEntity
  8
ANNOTATION_TEXT
 62
     0
100
AcDbTrace
 10
61.14663391938105
 20
174.2819389841652
 30
0.0
 11
61.7308221738318
 21
174.8762188238083
 31
0.0
 12
63.22156756553571
 22
172.8265141406345
 32
0.0
 13
63.22156756553571
 23
172.8265141406345
 33
0.0
  0
POINT
  5
191
330
189
100
AcDbEntity
  8
DEFPOINTS
 62
     0
100
AcDbPoint
 10
63.22156756553571
 20
172.8265141406345
 30
0.0
  0
POINT
  5
192
330
189
100
AcDbEntity
  8
DEFPOINTS
 62
     0
100
AcDbPoint
 10
68.92665402610945
 20
167.2183068979072
 30
0.0
  0
ENDBLK
  5
193
330
189
100
AcDbEntity
  8
0
100
AcDbBlockEnd
  0
BLOCK
  5
198
330
197
100
AcDbEntity
  8
0
100
AcDbBlockBegin
  2
*D11
 70
     1
 10
0.0
 20
0.0
 30
0.0
  3
*D11
  1
*D11
  0
LINE
  5
199
330
197
100
AcDbEntity
  8
ANNOTATION_TEXT
 62
     0
100
AcDbLine
 10
46.77150190277356
 20
110.1502901683912
 30
0.0
 11
35.25044992228741
 21
97.10426316176483
 31
0.0
  0
LINE
  5
19A
330
197
100
AcDbEntity
  8
ANNOTATION_TEXT
 62
     0
100
AcDbLine
 10
55.37671968887161
 20
119.8945308701505
 30
0.0
 11
57.03156926312123
 21
121.7684233127965
 31
0.0
  0
MTEXT
  5
19B
330
197
100
AcDbEntity
  8
ANNOTATION_TEXT
 62
     0
100
AcDbMText
 10
35.38329023454045
 20
101.9303795057365
 30
0.0
 40
3.5
 41
0.0
 71
     5
 72
     1
  1
%%c8
  7
ONSHAPE-STANDARD-DIMENSION
 11
0.6619398296998504
 21
0.7495569770584041
 31
0.0
  0
LINE
  5
19C
330
197
100
AcDbEntity
  8
ANNOTATION_TEXT
 62
     0
100
AcDbLine
 10
53.72187011462199
 20
118.0206384275045
 30
0.0
 11
48.42635147702318
 21
112.0241826110372
 31
0.0
  0
SOLID
  5
19D
330
197
100
AcDbEntity
  8
ANNOTATION_TEXT
 62
     0
100
AcDbTrace
 10
55.06440428176394
 20
120.1703391325254
 30
0.0
 11
55.68903509597928
 21
119.6187226077756
 31
0.0
 12
53.72187011462199
 22
118.0206384275045
 32
0.0
 13
53.72187011462199
 23
118.0206384275045
 33
0.0
  0
SOLID
  5
19E
330
197
100
AcDbEntity
  8
ANNOTATION_TEXT
 62
     0
100
AcDbTrace
 10
47.08381730988123
 20
109.8744819060163
 30
0.0
 11
46.45918649566589
 21
110.4260984307662
 31
0.0
 12
48.42635147702318
 22
112.0241826110372
 32
0.0
 13
48.42635147702318
 23
112.0241826110372
 33
0.0
  0
POINT
  5
19F
330
197
100
AcDbEntity
  8
DEFPOINTS
 62
     0
100
AcDbPoint
 10
48.42635147702318
 20
112.0241826110372
 30
0.0
  0
POINT
  5
1A0
330
197
100
AcDbEntity
  8
DEFPOINTS
 62
     0
100
AcDbPoint
 10
53.72187011462199
 20
118.0206384275045
 30
0.0
  0
ENDBLK
  5
1A1
330
197
100
AcDbEntity
  8
0
100
AcDbBlockEnd
  0
BLOCK
  5
1A6
330
1A5
100
AcDbEntity
  8
0
100
AcDbBlockBegin
  2
*D12
 70
     1
 10
0.0
 20
0.0
 30
0.0
  3
*D12
  1
*D12
  0
LINE
  5
1A7
330
1A5
100
AcDbEntity
  8
ANNOTATION_TEXT
 62
     0
100
AcDbLine
 10
165.3689681540537
 20
135.5972044194127
 30
0.0
 11
181.8430437037745
 21
129.684418107065
 31
0.0
  0
LINE
  5
1A8
330
1A5
100
AcDbEntity
  8
ANNOTATION_TEXT
 62
     0
100
AcDbLine
 10
126.7792534375914
 20
149.447616619129
 30
0.0
 11
124.4262220524413
 21
150.29215394838
 31
0.0
  0
MTEXT
  5
1A9
330
1A5
100
AcDbEntity
  8
ANNOTATION_TEXT
 62
     0
100
AcDbMText
 10
178.080423742021
 20
134.3232177432544
 30
0.0
 40
3.5
 41
0.0
 71
     5
 72
     1
  1
%%c36
  7
ONSHAPE-STANDARD-DIMENSION
 11
0.9412125540600569
 21
-0.3378149317003978
 31
0.0
  0
LINE
  5
1AA
330
1A5
100
AcDbEntity
  8
ANNOTATION_TEXT
 62
     0
100
AcDbLine
 10
129.1322848227416
 20
148.603079289878
 30
0.0
 11
163.0159367689036
 21
136.4417417486637
 31
0.0
  0
SOLID
  5
1AB
330
1A5
100
AcDbEntity
  8
ANNOTATION_TEXT
 62
     0
100
AcDbTrace
 10
126.6384972160496
 20
149.055444721604
 30
0.0
 11
126.9200096591332
 21
149.839788516654
 31
0.0
 12
129.1322848227416
 22
148.603079289878
 32
0.0
 13
129.1322848227416
 23
148.603079289878
 33
0.0
  0
SOLID
  5
1AC
330
1A5
100
AcDbEntity
  8
ANNOTATION_TEXT
 62
     0
100
AcDbTrace
 10
165.5097243755956
 20
135.9893763169378
 30
0.0
 11
165.2282119325119
 21
135.2050325218877
 31
0.0
 12
163.0159367689036
 22
136.4417417486637
 32
0.0
 13
163.0159367689036
 23
136.4417417486637
 33
0.0
  0
POINT
  5
1AD
330
1A5
100
AcDbEntity
  8
DEFPOINTS
 62
     0
100
AcDbPoint
 10
163.0159367689036
 20
136.4417417486637
 30
0.0
  0
POINT
  5
1AE
330
1A5
100
AcDbEntity
  8
DEFPOINTS
 62
     0
100
AcDbPoint
 10
129.1322848227416
 20
148.603079289878
 30
0.0
  0
ENDBLK
  5
1AF
330
1A5
100
AcDbEntity
  8
0
100
AcDbBlockEnd
  0
BLOCK
  5
1B4
330
1B3
100
AcDbEntity
  8
0
100
AcDbBlockBegin
  2
*D13
 70
     1
 10
0.0
 20
0.0
 30
0.0
  3
*D13
  1
*D13
  0
LINE
  5
1B5
330
1B3
100
AcDbEntity
  8
ANNOTATION_TEXT
 62
     0
100
AcDbLine
 10
50.90591726211893
 20
105.5238995341101
 30
0.0
 11
50.53338026546615
 21
84.48535734306559
 31
0.0
  0
LINE
  5
1B6
330
1B3
100
AcDbEntity
  8
ANNOTATION_TEXT
 62
     0
100
AcDbLine
 10
51.24230432952624
 20
124.5209215044317
 30
0.0
 11
51.28656578576405
 21
127.0205296584213
 31
0.0
  0
MTEXT
  5
1B7
330
1B3
100
AcDbEntity
  8
ANNOTATION_TEXT
 62
     0
100
AcDbMText
 10
47.53044245707435
 20
89.71338885806425
 30
0.0
 40
3.5
 41
0.0
 71
     5
 72
     1
  1
%%c14
  7
ONSHAPE-STANDARD-DIMENSION
 11
0.01770458249512177
 21
0.999843261595873
 31
0.0
  0
LINE
  5
1B8
330
1B3
100
AcDbEntity
  8
ANNOTATION_TEXT
 62
     0
100
AcDbLine
 10
51.19804287328844
 20
122.021313350442
 30
0.0
 11
50.95017871835673
 21
108.0235076880998
 31
0.0
  0
SOLID
  5
1B9
330
1B3
100
AcDbEntity
  8
ANNOTATION_TEXT
 62
     0
100
AcDbTrace
 10
50.82570297052796
 20
124.5282984138046
 30
0.0
 11
51.65890568852452
 21
124.5135445950587
 31
0.0
 12
51.19804287328844
 22
122.021313350442
 32
0.0
 13
51.19804287328844
 23
122.021313350442
 33
0.0
  0
SOLID
  5
1BA
330
1B3
100
AcDbEntity
  8
ANNOTATION_TEXT
 62
     0
100
AcDbTrace
 10
51.3225186211172
 20
105.5165226247371
 30
0.0
 11
50.48931590312065
 21
105.531276443483
 31
0.0
 12
50.95017871835673
 22
108.0235076880998
 32
0.0
 13
50.95017871835673
 23
108.0235076880998
 33
0.0
  0
POINT
  5
1BB
330
1B3
100
AcDbEntity
  8
DEFPOINTS
 62
     0
100
AcDbPoint
 10
50.95017871835673
 20
108.0235076880998
 30
0.0
  0
POINT
  5
1BC
330
1B3
100
AcDbEntity
  8
DEFPOINTS
 62
     0
100
AcDbPoint
 10
51.19804287328844
 20
122.021313350442
 30
0.0
  0
ENDBLK
  5
1BD
330
1B3
100
AcDbEntity
  8
0
100
AcDbBlockEnd
  0
BLOCK
  5
1C2
330
1C1
100
AcDbEntity
  8
0
100
AcDbBlockBegin
  2
*D14
 70
     1
 10
0.0
 20
0.0
 30
0.0
  3
*D14
  1
*D14
  0
LINE
  5
1C3
330
1C1
100
AcDbEntity
  8
ANNOTATION_TEXT
 62
     0
100
AcDbLine
 10
66.09832774170135
 20
179.5223796528803
 30
0.0
 11
66.14221780372016
 21
196.7398370704247
 31
0.0
  0
LINE
  5
1C4
330
1C1
100
AcDbEntity
  8
ANNOTATION_TEXT
 62
     0
100
AcDbLine
 10
66.04989384994381
 20
160.5224413856614
 30
0.0
 11
66.0435209694494
 21
158.0224495083958
 31
0.0
  0
MTEXT
  5
1C5
330
1C1
100
AcDbEntity
  8
ANNOTATION_TEXT
 62
     0
100
AcDbMText
 10
63.03401118024554
 20
191.5736972553716
 30
0.0
 40
3.5
 41
0.0
 71
     5
 72
     1
  1
%%c14
  7
ONSHAPE-STANDARD-DIMENSION
 11
0.002549152197765634
 21
0.9999967509062582
 31
0.0
  0
LINE
  5
1C6
330
1C1
100
AcDbEntity
  8
ANNOTATION_TEXT
 62
     0
100
AcDbLine
 10
66.05626673043822
 20
163.0224332629271
 30
0.0
 11
66.09195486120694
 21
177.0223877756147
 31
0.0
  0
SOLID
  5
1C7
330
1C1
100
AcDbEntity
  8
ANNOTATION_TEXT
 62
     0
100
AcDbTrace
 10
66.46655916282143
 20
160.5213792389123
 30
0.0
 11
65.6332285370662
 21
160.5235035324105
 31
0.0
 12
66.05626673043822
 22
163.0224332629271
 32
0.0
 13
66.05626673043822
 23
163.0224332629271
 33
0.0
  0
SOLID
  5
1C8
330
1C1
100
AcDbEntity
  8
ANNOTATION_TEXT
 62
     0
100
AcDbTrace
 10
65.68166242882374
 20
179.5234417996294
 30
0.0
 11
66.51499305457897
 21
179.5213175061313
 31
0.0
 12
66.09195486120694
 22
177.0223877756147
 32
0.0
 13
66.09195486120694
 23
177.0223877756147
 33
0.0
  0
POINT
  5
1C9
330
1C1
100
AcDbEntity
  8
DEFPOINTS
 62
     0
100
AcDbPoint
 10
66.09195486120694
 20
177.0223877756147
 30
0.0
  0
POINT
  5
1CA
330
1C1
100
AcDbEntity
  8
DEFPOINTS
 62
     0
100
AcDbPoint
 10
66.05626673043822
 20
163.0224332629271
 30
0.0
  0
ENDBLK
  5
1CB
330
1C1
100
AcDbEntity
  8
0
100
AcDbBlockEnd
  0
BLOCK
  5
1D0
330
1CF
100
AcDbEntity
  8
0
100
AcDbBlockBegin
  2
*D15
 70
     1
 10
0.0
 20
0.0
 30
0.0
  3
*D15
  1
*D15
  0
LINE
  5
1D1
330
1CF
100
AcDbEntity
  8
ANNOTATION_TEXT
 62
     0
100
AcDbLine
 10
212.4039088173207
 20
177.0224105192709
 30
0.0
 11
201.6810020549973
 21
177.0224105192709
 31
0.0
  0
LINE
  5
1D2
330
1CF
100
AcDbEntity
  8
ANNOTATION_TEXT
 62
     0
100
AcDbLine
 10
212.4039088173207
 20
108.0224105192709
 30
0.0
 11
201.6810020549973
 21
108.0224105192709
 31
0.0
  0
LINE
  5
1D3
330
1CF
100
AcDbEntity
  8
ANNOTATION_TEXT
 62
     0
100
AcDbLine
 10
202.9310020549973
 20
174.5224105192709
 30
0.0
 11
202.9310020549973
 21
110.5224105192709
 31
0.0
  0
SOLID
  5
1D4
330
1CF
100
AcDbEntity
  8
ANNOTATION_TEXT
 62
     0
100
AcDbTrace
 10
203.347668721664
 20
174.5224105192709
 30
0.0
 11
202.5143353883306
 21
174.5224105192709
 31
0.0
 12
202.9310020549973
 22
177.0224105192709
 32
0.0
 13
202.9310020549973
 23
177.0224105192709
 33
0.0
  0
SOLID
  5
1D5
330
1CF
100
AcDbEntity
  8
ANNOTATION_TEXT
 62
     0
100
AcDbTrace
 10
202.5143353883306
 20
110.5224105192709
 30
0.0
 11
203.347668721664
 21
110.5224105192709
 31
0.0
 12
202.9310020549973
 22
108.0224105192709
 32
0.0
 13
202.9310020549973
 23
108.0224105192709
 33
0.0
  0
MTEXT
  5
1D6
330
1CF
100
AcDbEntity
  8
ANNOTATION_TEXT
 62
     0
100
AcDbMText
 10
200.5142786217548
 20
142.5224105192709
 30
0.0
 40
3.5
 41
0.0
 71
     5
 72
     1
  1
69
  7
ONSHAPE-STANDARD-DIMENSION
 11
0.0
 21
1.0
 31
0.0
  0
POINT
  5
1D7
330
1CF
100
AcDbEntity
  8
DEFPOINTS
 62
     0
100
AcDbPoint
 10
213.0289088173207
 20
177.0224105192709
 30
0.0
  0
POINT
  5
1D8
330
1CF
100
AcDbEntity
  8
DEFPOINTS
 62
     0
100
AcDbPoint
 10
213.0289088173207
 20
108.0224105192709
 30
0.0
  0
POINT
  5
1D9
330
1CF
100
AcDbEntity
  8
DEFPOINTS
 62
     0
100
AcDbPoint
 10
202.9310020549973
 20
108.0224105192709
 30
0.0
  0
ENDBLK
  5
1DA
330
1CF
100
AcDbEntity
  8
0
100
AcDbBlockEnd
  0
BLOCK
  5
1DF
330
1DE
100
AcDbEntity
  8
0
100
AcDbBlockBegin
  2
*D16
 70
     1
 10
0.0
 20
0.0
 30
0.0
  3
*D16
  1
*D16
  0
LINE
  5
1E0
330
1DE
100
AcDbEntity
  8
ANNOTATION_TEXT
 62
     0
100
AcDbLine
 10
213.0289088173207
 20
177.6474105192709
 30
0.0
 11
213.0289088173207
 21
190.8881881409172
 31
0.0
  0
LINE
  5
1E1
330
1DE
100
AcDbEntity
  8
ANNOTATION_TEXT
 62
     0
100
AcDbLine
 10
216.0289088173207
 20
177.6474105192709
 30
0.0
 11
216.0289088173207
 21
190.8881881409172
 31
0.0
  0
LINE
  5
1E2
330
1DE
100
AcDbEntity
  8
ANNOTATION_TEXT
 62
     0
100
AcDbLine
 10
213.0289088173207
 20
189.6381881409172
 30
0.0
 11
216.0289088173207
 21
189.6381881409172
 31
0.0
  0
LINE
  5
1E3
330
1DE
100
AcDbEntity
  8
ANNOTATION_TEXT
 62
     0
100
AcDbLine
 10
210.5289088173207
 20
189.6381881409172
 30
0.0
 11
208.0289088173207
 21
189.6381881409172
 31
0.0
  0
LINE
  5
1E4
330
1DE
100
AcDbEntity
  8
ANNOTATION_TEXT
 62
     0
100
AcDbLine
 10
218.5289088173207
 20
189.6381881409172
 30
0.0
 11
221.0289088173207
 21
189.6381881409172
 31
0.0
  0
SOLID
  5
1E5
330
1DE
100
AcDbEntity
  8
ANNOTATION_TEXT
 62
     0
100
AcDbTrace
 10
210.5289088173207
 20
189.2215214742505
 30
0.0
 11
210.5289088173207
 21
190.0548548075838
 31
0.0
 12
213.0289088173207
 22
189.6381881409172
 32
0.0
 13
213.0289088173207
 23
189.6381881409172
 33
0.0
  0
SOLID
  5
1E6
330
1DE
100
AcDbEntity
  8
ANNOTATION_TEXT
 62
     0
100
AcDbTrace
 10
218.5289088173207
 20
190.0548548075838
 30
0.0
 11
218.5289088173207
 21
189.2215214742505
 31
0.0
 12
216.0289088173207
 22
189.6381881409172
 32
0.0
 13
216.0289088173207
 23
189.6381881409172
 33
0.0
  0
MTEXT
  5
1E7
330
1DE
100
AcDbEntity
  8
ANNOTATION_TEXT
 62
     0
100
AcDbMText
 10
214.5289088173207
 20
192.0549115741597
 30
0.0
 40
3.5
 41
0.0
 71
     5
 72
     1
  1
3
  7
ONSHAPE-STANDARD-DIMENSION
  0
POINT
  5
1E8
330
1DE
100
AcDbEntity
  8
DEFPOINTS
 62
     0
100
AcDbPoint
 10
213.0289088173207
 20
177.0224105192709
 30
0.0
  0
POINT
  5
1E9
330
1DE
100
AcDbEntity
  8
DEFPOINTS
 62
     0
100
AcDbPoint
 10
216.0289088173207
 20
177.0224105192709
 30
0.0
  0
POINT
  5
1EA
330
1DE
100
AcDbEntity
  8
DEFPOINTS
 62
     0
100
AcDbPoint
 10
216.0289088173207
 20
189.6381881409172
 30
0.0
  0
ENDBLK
  5
1EB
330
1DE
100
AcDbEntity
  8
0
100
AcDbBlockEnd
  0
BLOCK
  5
1F0
330
1EF
100
AcDbEntity
  8
0
100
AcDbBlockBegin
  2
*D17
 70
     1
 10
0.0
 20
0.0
 30
0.0
  3
*D17
  1
*D17
  0
LINE
  5
1F1
330
1EF
100
AcDbEntity
  8
ANNOTATION_TEXT
 62
     0
100
AcDbLine
 10
66.07411079582258
 20
169.3974105192709
 30
0.0
 11
66.07411079582258
 21
151.4114628364517
 31
0.0
  0
LINE
  5
1F2
330
1EF
100
AcDbEntity
  8
ANNOTATION_TEXT
 62
     0
100
AcDbLine
 10
51.07411079582258
 20
115.6474105192709
 30
0.0
 11
51.07411079582258
 21
153.9114628364517
 31
0.0
  0
LINE
  5
1F3
330
1EF
100
AcDbEntity
  8
ANNOTATION_TEXT
 62
     0
100
AcDbLine
 10
51.07411079582258
 20
152.6614628364517
 30
0.0
 11
40.40040507375174
 21
152.6614628364517
 31
0.0
  0
LINE
  5
1F4
330
1EF
100
AcDbEntity
  8
ANNOTATION_TEXT
 62
     0
100
AcDbLine
 10
63.57411079582258
 20
152.6614628364517
 30
0.0
 11
53.57411079582258
 21
152.6614628364517
 31
0.0
  0
SOLID
  5
1F5
330
1EF
100
AcDbEntity
  8
ANNOTATION_TEXT
 62
     0
100
AcDbTrace
 10
63.57411079582258
 20
152.244796169785
 30
0.0
 11
63.57411079582258
 21
153.0781295031184
 31
0.0
 12
66.07411079582258
 22
152.6614628364517
 32
0.0
 13
66.07411079582258
 23
152.6614628364517
 33
0.0
  0
SOLID
  5
1F6
330
1EF
100
AcDbEntity
  8
ANNOTATION_TEXT
 62
     0
100
AcDbTrace
 10
53.57411079582258
 20
153.0781295031184
 30
0.0
 11
53.57411079582258
 21
152.244796169785
 31
0.0
 12
51.07411079582258
 22
152.6614628364517
 32
0.0
 13
51.07411079582258
 23
152.6614628364517
 33
0.0
  0
MTEXT
  5
1F7
330
1EF
100
AcDbEntity
  8
ANNOTATION_TEXT
 62
     0
100
AcDbMText
 10
43.46205357511414
 20
155.0603047983046
 30
0.0
 40
3.5
 41
0.0
 71
     5
 72
     1
  1
15
  7
ONSHAPE-STANDARD-DIMENSION
  0
POINT
  5
1F8
330
1EF
100
AcDbEntity
  8
DEFPOINTS
 62
     0
100
AcDbPoint
 10
66.07411079582258
 20
170.0224105192709
 30
0.0
  0
POINT
  5
1F9
330
1EF
100
AcDbEntity
  8
DEFPOINTS
 62
     0
100
AcDbPoint
 10
51.07411079582258
 20
115.0224105192709
 30
0.0
  0
POINT
  5
1FA
330
1EF
100
AcDbEntity
  8
DEFPOINTS
 62
     0
100
AcDbPoint
 10
51.07411079582258
 20
152.6614628364517
 30
0.0
  0
ENDBLK
  5
1FB
330
1EF
100
AcDbEntity
  8
0
100
AcDbBlockEnd
  0
BLOCK
  5
200
330
1FF
100
AcDbEntity
  8
0
100
AcDbBlockBegin
  2
*D18
 70
     1
 10
0.0
 20
0.0
 30
0.0
  3
*D18
  1
*D18
  0
LINE
  5
201
330
1FF
100
AcDbEntity
  8
ANNOTATION_TEXT
 62
     0
100
AcDbLine
 10
66.69911079582258
 20
170.0224105192709
 30
0.0
 11
79.67697671260943
 21
170.0224105192709
 31
0.0
  0
LINE
  5
202
330
1FF
100
AcDbEntity
  8
ANNOTATION_TEXT
 62
     0
100
AcDbLine
 10
90.4491107958226
 20
142.5224105192709
 30
0.0
 11
77.17697671260943
 21
142.5224105192709
 31
0.0
  0
LINE
  5
203
330
1FF
100
AcDbEntity
  8
ANNOTATION_TEXT
 62
     0
100
AcDbLine
 10
78.42697671260943
 20
170.0224105192709
 30
0.0
 11
78.42697671260943
 21
142.5224105192709
 31
0.0
  0
LINE
  5
204
330
1FF
100
AcDbEntity
  8
ANNOTATION_TEXT
 62
     0
100
AcDbLine
 10
78.42697671260943
 20
172.5224105192709
 30
0.0
 11
78.42697671260943
 21
175.0224105192709
 31
0.0
  0
LINE
  5
205
330
1FF
100
AcDbEntity
  8
ANNOTATION_TEXT
 62
     0
100
AcDbLine
 10
78.42697671260943
 20
140.0224105192709
 30
0.0
 11
78.42697671260943
 21
137.5224105192709
 31
0.0
  0
SOLID
  5
206
330
1FF
100
AcDbEntity
  8
ANNOTATION_TEXT
 62
     0
100
AcDbTrace
 10
78.01031004594276
 20
172.5224105192709
 30
0.0
 11
78.8436433792761
 21
172.5224105192709
 31
0.0
 12
78.42697671260943
 22
170.0224105192709
 32
0.0
 13
78.42697671260943
 23
170.0224105192709
 33
0.0
  0
SOLID
  5
207
330
1FF
100
AcDbEntity
  8
ANNOTATION_TEXT
 62
     0
100
AcDbTrace
 10
78.8436433792761
 20
140.0224105192709
 30
0.0
 11
78.01031004594276
 21
140.0224105192709
 31
0.0
 12
78.42697671260943
 22
142.5224105192709
 32
0.0
 13
78.42697671260943
 23
142.5224105192709
 33
0.0
  0
MTEXT
  5
208
330
1FF
100
AcDbEntity
  8
ANNOTATION_TEXT
 62
     0
100
AcDbMText
 10
75.71938134476203
 20
156.4960319726407
 30
0.0
 40
3.5
 41
0.0
 71
     5
 72
     1
  1
27,5
  7
ONSHAPE-STANDARD-DIMENSION
 11
0.0
 21
1.0
 31
0.0
  0
POINT
  5
209
330
1FF
100
AcDbEntity
  8
DEFPOINTS
 62
     0
100
AcDbPoint
 10
66.07411079582258
 20
170.0224105192709
 30
0.0
  0
POINT
  5
20A
330
1FF
100
AcDbEntity
  8
DEFPOINTS
 62
     0
100
AcDbPoint
 10
91.0741107958226
 20
142.5224105192709
 30
0.0
  0
POINT
  5
20B
330
1FF
100
AcDbEntity
  8
DEFPOINTS
 62
     0
100
AcDbPoint
 10
78.42697671260943
 20
142.5224105192709
 30
0.0
  0
ENDBLK
  5
20C
330
1FF
100
AcDbEntity
  8
0
100
AcDbBlockEnd
  0
BLOCK
  5
211
330
210
100
AcDbEntity
  8
0
100
AcDbBlockBegin
  2
*D19
 70
     1
 10
0.0
 20
0.0
 30
0.0
  3
*D19
  1
*D19
  0
LINE
  5
212
330
210
100
AcDbEntity
  8
ANNOTATION_TEXT
 62
     0
100
AcDbLine
 10
51.69911079582258
 20
115.0224105192709
 30
0.0
 11
79.67697671260942
 21
115.0224105192709
 31
0.0
  0
LINE
  5
213
330
210
100
AcDbEntity
  8
ANNOTATION_TEXT
 62
     0
100
AcDbLine
 10
90.4491107958226
 20
142.5224105192709
 30
0.0
 11
77.17697671260942
 21
142.5224105192709
 31
0.0
  0
LINE
  5
214
330
210
100
AcDbEntity
  8
ANNOTATION_TEXT
 62
     0
100
AcDbLine
 10
78.42697671260942
 20
117.5224105192709
 30
0.0
 11
78.42697671260942
 21
140.0224105192709
 31
0.0
  0
SOLID
  5
215
330
210
100
AcDbEntity
  8
ANNOTATION_TEXT
 62
     0
100
AcDbTrace
 10
78.01031004594275
 20
117.5224105192709
 30
0.0
 11
78.84364337927609
 21
117.5224105192709
 31
0.0
 12
78.42697671260942
 22
115.0224105192709
 32
0.0
 13
78.42697671260942
 23
115.0224105192709
 33
0.0
  0
SOLID
  5
216
330
210
100
AcDbEntity
  8
ANNOTATION_TEXT
 62
     0
100
AcDbTrace
 10
78.84364337927609
 20
140.0224105192709
 30
0.0
 11
78.01031004594275
 21
140.0224105192709
 31
0.0
 12
78.42697671260942
 22
142.5224105192709
 32
0.0
 13
78.42697671260942
 23
142.5224105192709
 33
0.0
  0
MTEXT
  5
217
330
210
100
AcDbEntity
  8
ANNOTATION_TEXT
 62
     0
100
AcDbMText
 10
75.71938134476201
 20
130.3532084386168
 30
0.0
 40
3.5
 41
0.0
 71
     5
 72
     1
  1
27,5
  7
ONSHAPE-STANDARD-DIMENSION
 11
0.0
 21
1.0
 31
0.0
  0
POINT
  5
218
330
210
100
AcDbEntity
  8
DEFPOINTS
 62
     0
100
AcDbPoint
 10
51.07411079582258
 20
115.0224105192709
 30
0.0
  0
POINT
  5
219
330
210
100
AcDbEntity
  8
DEFPOINTS
 62
     0
100
AcDbPoint
 10
91.0741107958226
 20
142.5224105192709
 30
0.0
  0
POINT
  5
21A
330
210
100
AcDbEntity
  8
DEFPOINTS
 62
     0
100
AcDbPoint
 10
78.42697671260942
 20
142.5224105192709
 30
0.0
  0
ENDBLK
  5
21B
330
210
100
AcDbEntity
  8
0
100
AcDbBlockEnd
  0
BLOCK
  5
220
330
21F
100
AcDbEntity
  8
0
100
AcDbBlockBegin
  2
*D20
 70
     1
 10
0.0
 20
0.0
 30
0.0
  3
*D20
  1
*D20
  0
LINE
  5
221
330
21F
100
AcDbEntity
  8
ANNOTATION_TEXT
 62
     0
100
AcDbLine
 10
151.7648809311313
 20
182.2637451331817
 30
0.0
 11
169.4722599601467
 21
182.2233661056436
 31
0.0
  0
LINE
  5
222
330
21F
100
AcDbEntity
  8
ANNOTATION_TEXT
 62
     0
100
AcDbLine
 10
86.76504993039448
 20
182.4119675189819
 30
0.0
 11
84.26505643036614
 21
182.4176683799742
 31
0.0
  0
MTEXT
  5
223
330
21F
100
AcDbEntity
  8
ANNOTATION_TEXT
 62
     0
100
AcDbMText
 10
164.3756184237247
 20
185.3300235288449
 30
0.0
 40
3.5
 41
0.0
 71
     5
 72
     1
  1
%%c60
  7
ONSHAPE-STANDARD-DIMENSION
 11
0.9999974000113357
 21
-0.002280344396926163
 31
0.0
  0
LINE
  5
224
330
21F
100
AcDbEntity
  8
ANNOTATION_TEXT
 62
     0
100
AcDbLine
 10
89.26504343042282
 20
182.4062666579896
 30
0.0
 11
149.2648874311029
 21
182.269445994174
 31
0.0
  0
SOLID
  5
225
330
21F
100
AcDbEntity
  8
ANNOTATION_TEXT
 62
     0
100
AcDbTrace
 10
86.76409978689577
 20
181.9953019356439
 30
0.0
 11
86.7660000738932
 21
182.8286331023199
 31
0.0
 12
89.26504343042282
 22
182.4062666579896
 32
0.0
 13
89.26504343042282
 23
182.4062666579896
 33
0.0
  0
SOLID
  5
226
330
21F
100
AcDbEntity
  8
ANNOTATION_TEXT
 62
     0
100
AcDbTrace
 10
151.76583107463
 20
182.6804107165198
 30
0.0
 11
151.7639307876326
 21
181.8470795498437
 31
0.0
 12
149.2648874311029
 22
182.269445994174
 32
0.0
 13
149.2648874311029
 23
182.269445994174
 33
0.0
  0
ARC
  5
227
330
21F
100
AcDbEntity
  8
ANNOTATION_TEXT
 62
     0
100
AcDbCircle
 10
119.2649654307629
 20
182.3378563260818
 30
0.0
 40
29.99999999999999
100
AcDbArc
 50
305.1474579606609
 51
2.256842651268893
  0
POINT
  5
228
330
21F
100
AcDbEntity
  8
DEFPOINTS
 62
     0
100
AcDbPoint
 10
149.2648874311029
 20
182.269445994174
 30
0.0
  0
POINT
  5
229
330
21F
100
AcDbEntity
  8
DEFPOINTS
 62
     0
100
AcDbPoint
 10
89.26504343042282
 20
182.4062666579896
 30
0.0
  0
ENDBLK
  5
22A
330
21F
100
AcDbEntity
  8
0
100
AcDbBlockEnd
  0
BLOCK
  5
22F
330
22E
100
AcDbEntity
  8
0
100
AcDbBlockBegin
  2
*D21
 70
     1
 10
0.0
 20
0.0
 30
0.0
  3
*D21
  1
*D21
  0
LINE
  5
230
330
22E
100
AcDbEntity
  8
ANNOTATION_TEXT
 62
     0
100
AcDbLine
 10
151.192150363148
 20
103.1676687709393
 30
0.0
 11
168.8995355111542
 21
103.2052688141595
 31
0.0
  0
LINE
  5
231
330
22E
100
AcDbEntity
  8
ANNOTATION_TEXT
 62
     0
100
AcDbLine
 10
86.1922969009636
 20
103.0296474154959
 30
0.0
 11
83.69230253703343
 21
103.024338901825
 31
0.0
  0
MTEXT
  5
232
330
22E
100
AcDbEntity
  8
ANNOTATION_TEXT
 62
     0
100
AcDbMText
 10
163.7892624852633
 20
106.2894518334963
 30
0.0
 40
3.5
 41
0.0
 71
     5
 72
     1
  1
%%c60
  7
ONSHAPE-STANDARD-DIMENSION
 11
0.9999977455720673
 21
0.002123405468360318
 31
0.0
  0
LINE
  5
233
330
22E
100
AcDbEntity
  8
ANNOTATION_TEXT
 62
     0
100
AcDbLine
 10
88.69229126489377
 20
103.0349559291668
 30
0.0
 11
148.6921559992178
 21
103.1623602572684
 31
0.0
  0
SOLID
  5
234
330
22E
100
AcDbEntity
  8
ANNOTATION_TEXT
 62
     0
100
AcDbTrace
 10
86.19318165324208
 20
102.6129816881742
 30
0.0
 11
86.19141214868512
 21
103.4463131428176
 31
0.0
 12
88.69229126489377
 22
103.0349559291668
 32
0.0
 13
88.69229126489377
 23
103.0349559291668
 33
0.0
  0
SOLID
  5
235
330
22E
100
AcDbEntity
  8
ANNOTATION_TEXT
 62
     0
100
AcDbTrace
 10
151.1912656108695
 20
103.584334498261
 30
0.0
 11
151.1930351154265
 21
102.7510030436176
 31
0.0
 12
148.6921559992178
 22
103.1623602572684
 32
0.0
 13
148.6921559992178
 23
103.1623602572684
 33
0.0
  0
ARC
  5
236
330
22E
100
AcDbEntity
  8
ANNOTATION_TEXT
 62
     0
100
AcDbCircle
 10
118.6922236320558
 20
103.0986580932176
 30
0.0
 40
30.0
100
AcDbArc
 50
357.7341653886762
 51
54.02428741055571
  0
POINT
  5
237
330
22E
100
AcDbEntity
  8
DEFPOINTS
 62
     0
100
AcDbPoint
 10
148.6921559992178
 20
103.1623602572684
 30
0.0
  0
POINT
  5
238
330
22E
100
AcDbEntity
  8
DEFPOINTS
 62
     0
100
AcDbPoint
 10
88.69229126489377
 20
103.0349559291668
 30
0.0
  0
ENDBLK
  5
239
330
22E
100
AcDbEntity
  8
0
100
AcDbBlockEnd
  0
BLOCK
  5
23F
330
23E
100
AcDbEntity
  8
0
100
AcDbBlockBegin
  2
*D22
 70
     1
 10
0.0
 20
0.0
 30
0.0
  3
*D22
  1
*D22
  0
LINE
  5
240
330
23E
100
AcDbEntity
  8
ANNOTATION_TEXT
 62
     0
100
AcDbLine
 10
42.7643575718639
 20
182.1304947378119
 30
0.0
 11
26.12754876567007
 21
151.3373689993268
 31
0.0
  0
MTEXT
  5
241
330
23E
100
AcDbEntity
  8
ANNOTATION_TEXT
 62
     0
100
AcDbMText
 10
39.87196568729399
 20
182.4731115794505
 30
0.0
 40
3.5
 41
0.0
 71
     5
 72
     1
  1
R37,5
  7
ONSHAPE-STANDARD-DIMENSION
 11
0.4753373944626809
 21
0.8798035925281448
 31
0.0
  0
SOLID
  5
242
330
23E
100
AcDbEntity
  8
ANNOTATION_TEXT
 62
     0
100
AcDbTrace
 10
43.13094240208397
 20
181.9324374901191
 30
0.0
 11
42.39777274164384
 21
182.3285519855046
 31
0.0
 12
43.95270105802061
 22
184.3300037191322
 32
0.0
 13
43.95270105802061
 23
184.3300037191322
 33
0.0
  0
ARC
  5
243
330
23E
100
AcDbEntity
  8
ANNOTATION_TEXT
 62
     0
100
AcDbCircle
 10
26.12754876567007
 20
151.3373689993268
 30
0.0
 40
37.50000000000001
100
AcDbArc
 50
29.30720695502404
 51
63.52862772841328
  0
POINT
  5
244
330
23E
100
AcDbEntity
  8
DEFPOINTS
 62
     0
100
AcDbPoint
 10
43.95270105802061
 20
184.3300037191322
 30
0.0
  0
POINT
  5
245
330
23E
100
AcDbEntity
  8
DEFPOINTS
 62
     0
100
AcDbPoint
 10
26.12754876567007
 20
151.3373689993268
 30
0.0
  0
ENDBLK
  5
246
330
23E
100
AcDbEntity
  8
0
100
AcDbBlockEnd
  0
BLOCK
  5
24B
330
24A
100
AcDbEntity
  8
0
100
AcDbBlockBegin
  2
*D23
 70
     1
 10
0.0
 20
0.0
 30
0.0
  3
*D23
  1
*D23
  0
LINE
  5
24C
330
24A
100
AcDbEntity
  8
ANNOTATION_TEXT
 62
     0
100
AcDbLine
 10
44.07411079582258
 20
59.47324086603519
 30
0.0
 11
44.07411079582258
 21
51.56320508415718
 31
0.0
  0
LINE
  5
24D
330
24A
100
AcDbEntity
  8
ANNOTATION_TEXT
 62
     0
100
AcDbLine
 10
164.0741107958226
 20
59.47324086603518
 30
0.0
 11
164.0741107958226
 21
51.56320508415718
 31
0.0
  0
LINE
  5
24E
330
24A
100
AcDbEntity
  8
ANNOTATION_TEXT
 62
     0
100
AcDbLine
 10
46.57411079582258
 20
52.81320508415718
 30
0.0
 11
161.5741107958226
 21
52.81320508415718
 31
0.0
  0
SOLID
  5
24F
330
24A
100
AcDbEntity
  8
ANNOTATION_TEXT
 62
     0
100
AcDbTrace
 10
46.57411079582258
 20
53.22987175082384
 30
0.0
 11
46.57411079582258
 21
52.39653841749051
 31
0.0
 12
44.07411079582258
 22
52.81320508415718
 32
0.0
 13
44.07411079582258
 23
52.81320508415718
 33
0.0
  0
SOLID
  5
250
330
24A
100
AcDbEntity
  8
ANNOTATION_TEXT
 62
     0
100
AcDbTrace
 10
161.5741107958226
 20
52.39653841749051
 30
0.0
 11
161.5741107958226
 21
53.22987175082384
 31
0.0
 12
164.0741107958226
 22
52.81320508415718
 32
0.0
 13
164.0741107958226
 23
52.81320508415718
 33
0.0
  0
MTEXT
  5
251
330
24A
100
AcDbEntity
  8
ANNOTATION_TEXT
 62
     0
100
AcDbMText
 10
107.9928192904583
 20
55.23231271358497
 30
0.0
 40
3.5
 41
0.0
 71
     5
 72
     1
  1
120
  7
ONSHAPE-STANDARD-DIMENSION
  0
POINT
  5
252
330
24A
100
AcDbEntity
  8
DEFPOINTS
 62
     0
100
AcDbPoint
 10
44.07411079582258
 20
60.09824086603519
 30
0.0
  0
POINT
  5
253
330
24A
100
AcDbEntity
  8
DEFPOINTS
 62
     0
100
AcDbPoint
 10
164.0741107958226
 20
60.09824086603518
 30
0.0
  0
POINT
  5
254
330
24A
100
AcDbEntity
  8
DEFPOINTS
 62
     0
100
AcDbPoint
 10
164.0741107958226
 20
52.81320508415718
 30
0.0
  0
ENDBLK
  5
255
330
24A
100
AcDbEntity
  8
0
100
AcDbBlockEnd
  0
BLOCK
  5
25B
330
25A
100
AcDbEntity
  8
0
100
AcDbBlockBegin
  2
*D24
 70
     1
 10
0.0
 20
0.0
 30
0.0
  3
*D24
  1
*D24
  0
LINE
  5
25C
330
25A
100
AcDbEntity
  8
ANNOTATION_TEXT
 62
     0
100
AcDbLine
 10
153.9102133467506
 20
154.5224105192709
 30
0.0
 11
190.6032660568336
 21
154.5224105192709
 31
0.0
  0
LINE
  5
25D
330
25A
100
AcDbEntity
  8
ANNOTATION_TEXT
 62
     0
100
AcDbLine
 10
153.9102133467506
 20
130.5224105192709
 30
0.0
 11
190.6032660568336
 21
130.5224105192709
 31
0.0
  0
LINE
  5
25E
330
25A
100
AcDbEntity
  8
ANNOTATION_TEXT
 62
     0
100
AcDbLine
 10
189.3532660568336
 20
152.0224105192709
 30
0.0
 11
189.3532660568336
 21
133.0224105192709
 31
0.0
  0
SOLID
  5
25F
330
25A
100
AcDbEntity
  8
ANNOTATION_TEXT
 62
     0
100
AcDbTrace
 10
189.7699327235002
 20
152.0224105192709
 30
0.0
 11
188.9365993901669
 21
152.0224105192709
 31
0.0
 12
189.3532660568336
 22
154.5224105192709
 32
0.0
 13
189.3532660568336
 23
154.5224105192709
 33
0.0
  0
SOLID
  5
260
330
25A
100
AcDbEntity
  8
ANNOTATION_TEXT
 62
     0
100
AcDbTrace
 10
188.9365993901669
 20
133.0224105192709
 30
0.0
 11
189.7699327235002
 21
133.0224105192709
 31
0.0
 12
189.3532660568336
 22
130.5224105192709
 32
0.0
 13
189.3532660568336
 23
130.5224105192709
 33
0.0
  0
MTEXT
  5
261
330
25A
100
AcDbEntity
  8
ANNOTATION_TEXT
 62
     0
100
AcDbMText
 10
186.9603845854439
 20
142.5224105192709
 30
0.0
 40
3.5
 41
0.0
 71
     5
 72
     1
  1
24
  7
ONSHAPE-STANDARD-DIMENSION
 11
0.0
 21
1.0
 31
0.0
  0
POINT
  5
262
330
25A
100
AcDbEntity
  8
DEFPOINTS
 62
     0
100
AcDbPoint
 10
153.2852133467506
 20
154.5224105192709
 30
0.0
  0
POINT
  5
263
330
25A
100
AcDbEntity
  8
DEFPOINTS
 62
     0
100
AcDbPoint
 10
153.2852133467506
 20
130.5224105192709
 30
0.0
  0
POINT
  5
264
330
25A
100
AcDbEntity
  8
DEFPOINTS
 62
     0
100
AcDbPoint
 10
189.3532660568336
 20
130.5224105192709
 30
0.0
  0
ENDBLK
  5
265
330
25A
100
AcDbEntity
  8
0
100
AcDbBlockEnd
  0
ENDSEC
  0
SECTION
  2
ENTITIES
  0
LINE
  5
72
330
1F
100
AcDbEntity
  8
BORDER_FRAME
100
AcDbLine
 10
20.0
 20
10.0
 30
0.0
 11
20.0
 21
200.0
 31
0.0
  0
LINE
  5
76
330
1F
100
AcDbEntity
  8
BORDER_FRAME
100
AcDbLine
 10
20.0
 20
200.0
 30
0.0
 11
297.0
 21
200.0
 31
0.0
  0
LINE
  5
77
330
1F
100
AcDbEntity
  8
BORDER_FRAME
100
AcDbLine
 10
297.0
 20
200.0
 30
0.0
 11
297.0
 21
10.0
 31
0.0
  0
LINE
  5
78
330
1F
100
AcDbEntity
  8
BORDER_FRAME
100
AcDbLine
 10
297.0
 20
10.0
 30
0.0
 11
20.0
 21
10.0
 31
0.0
  0
LINE
  5
79
330
1F
100
AcDbEntity
  8
TITLE_BLOCK
100
AcDbLine
 10
135.075
 20
10.0
 30
0.0
 11
135.075
 21
48.09999999999999
 31
0.0
  0
LINE
  5
7B
330
1F
100
AcDbEntity
  8
TITLE_BLOCK
100
AcDbLine
 10
135.075
 20
10.0
 30
0.0
 11
165.555
 21
10.0
 31
0.0
  0
LINE
  5
7C
330
1F
100
AcDbEntity
  8
TITLE_BLOCK
100
AcDbLine
 10
135.075
 20
17.62
 30
0.0
 11
165.555
 21
17.62
 31
0.0
  0
LINE
  5
7D
330
1F
100
AcDbEntity
  8
TITLE_BLOCK
100
AcDbLine
 10
135.075
 20
20.668
 30
0.0
 11
165.555
 21
20.668
 31
0.0
  0
LINE
  5
7E
330
1F
100
AcDbEntity
  8
TITLE_BLOCK
100
AcDbLine
 10
135.075
 20
25.8496
 30
0.0
 11
165.555
 21
25.8496
 31
0.0
  0
LINE
  5
7F
330
1F
100
AcDbEntity
  8
TITLE_BLOCK
100
AcDbLine
 10
135.075
 20
30.2692
 30
0.0
 11
165.555
 21
30.2692
 31
0.0
  0
LINE
  5
80
330
1F
100
AcDbEntity
  8
TITLE_BLOCK
100
AcDbLine
 10
135.075
 20
48.09999999999999
 30
0.0
 11
165.555
 21
48.09999999999999
 31
0.0
  0
MTEXT
  5
81
330
1F
100
AcDbEntity
  8
TITLE_BLOCK
100
AcDbMText
 10
135.74556
 20
47.00272
 30
0.0
 40
1.2192
 41
30.47999999999999
 71
     1
 72
     1
  1
UNLESS OTHERWISE SPECIFIED, DIMENSIONS ARE IN MILLIMETERS
  7
ONSHAPE-STANDARD
  0
MTEXT
  5
83
330
1F
100
AcDbEntity
  8
TITLE_BLOCK
100
AcDbMText
 10
150.918504
 20
42.540448
 30
0.0
 40
1.09728
 41
15.23999999999998
 71
     1
 72
     1
  1
^JANGULAR = ± °^J
  7
ONSHAPE-STANDARD
  0
MTEXT
  5
84
330
1F
100
AcDbEntity
  8
TITLE_BLOCK
100
AcDbMText
 10
135.74556
 20
35.11552
 30
0.0
 40
1.2192
 41
15.24000000000001
 71
     1
 72
     1
  1
SURFACE FINISH
  7
ONSHAPE-STANDARD
  0
LINE
  5
85
330
1F
100
AcDbEntity
  8
TITLE_BLOCK
100
AcDbLine
 10
148.791
 20
33.3172
 30
0.0
 11
149.553
 21
31.99737728463252
 31
0.0
  0
LINE
  5
86
330
1F
100
AcDbEntity
  8
TITLE_BLOCK
100
AcDbLine
 10
149.553
 20
31.99737728463252
 30
0.0
 11
151.1532
 21
34.76900498690424
 31
0.0
  0
LINE
  5
87
330
1F
100
AcDbEntity
  8
TITLE_BLOCK
100
AcDbLine
 10
151.1532
 20
34.76900498690424
 30
0.0
 11
152.8296
 21
34.76900498690424
 31
0.0
  0
MTEXT
  5
88
330
1F
100
AcDbEntity
  8
TITLE_BLOCK
100
AcDbMText
 10
150.315
 20
28.842736
 30
0.0
 40
1.58496
 41
30.47999999999999
 71
     2
 72
     1
  1
DO NOT SCALE DRAWING
  7
ONSHAPE-STANDARD
  0
MTEXT
  5
89
330
1F
100
AcDbEntity
  8
TITLE_BLOCK
100
AcDbMText
 10
150.315
 20
24.75232
 30
0.0
 40
1.2192
 41
30.47999999999999
 71
     2
 72
     1
  1
BREAK ALL SHARP EDGES AND REMOVE BURRS
  7
ONSHAPE-STANDARD
  0
CIRCLE
  5
8A
330
1F
100
AcDbEntity
  8
TITLE_BLOCK
100
AcDbCircle
 10
153.744
 20
13.77952
 30
0.0
 40
1.3716
  0
CIRCLE
  5
8B
330
1F
100
AcDbEntity
  8
TITLE_BLOCK
100
AcDbCircle
 10
153.744
 20
13.77952
 30
0.0
 40
2.743199999999999
  0
LINE
  5
8C
330
1F
100
AcDbEntity
  8
TITLE_BLOCK
100
AcDbLine
 10
154.4298
 20
13.77952
 30
0.0
 11
153.0582
 21
13.77952
 31
0.0
  0
LINE
  5
8D
330
1F
100
AcDbEntity
  8
TITLE_BLOCK
100
AcDbLine
 10
153.744
 20
14.46532
 30
0.0
 11
153.744
 21
13.09372
 31
0.0
  0
LINE
  5
8E
330
1F
100
AcDbEntity
  8
TITLE_BLOCK
100
AcDbLine
 10
155.1156
 20
13.77952
 30
0.0
 11
157.173
 21
13.77952
 31
0.0
  0
LINE
  5
8F
330
1F
100
AcDbEntity
  8
TITLE_BLOCK
100
AcDbLine
 10
153.744
 20
15.15112
 30
0.0
 11
153.744
 21
17.20852
 31
0.0
  0
LINE
  5
90
330
1F
100
AcDbEntity
  8
TITLE_BLOCK
100
AcDbLine
 10
152.3724
 20
13.77952
 30
0.0
 11
150.315
 21
13.77952
 31
0.0
  0
LINE
  5
91
330
1F
100
AcDbEntity
  8
TITLE_BLOCK
100
AcDbLine
 10
153.744
 20
12.40792
 30
0.0
 11
153.744
 21
10.35052
 31
0.0
  0
LINE
  5
92
330
1F
100
AcDbEntity
  8
TITLE_BLOCK
100
AcDbLine
 10
149.6292
 20
11.03632
 30
0.0
 11
149.6292
 21
16.52272
 31
0.0
  0
LINE
  5
93
330
1F
100
AcDbEntity
  8
TITLE_BLOCK
100
AcDbLine
 10
149.6292
 20
16.52272
 30
0.0
 11
144.1428
 21
15.15112
 31
0.0
  0
LINE
  5
94
330
1F
100
AcDbEntity
  8
TITLE_BLOCK
100
AcDbLine
 10
144.1428
 20
15.15112
 30
0.0
 11
144.1428
 21
12.40792
 31
0.0
  0
LINE
  5
95
330
1F
100
AcDbEntity
  8
TITLE_BLOCK
100
AcDbLine
 10
144.1428
 20
12.40792
 30
0.0
 11
149.6292
 21
11.03632
 31
0.0
  0
LINE
  5
96
330
1F
100
AcDbEntity
  8
TITLE_BLOCK
100
AcDbLine
 10
147.5718
 20
13.77952
 30
0.0
 11
149.9721
 21
13.77952
 31
0.0
  0
LINE
  5
97
330
1F
100
AcDbEntity
  8
TITLE_BLOCK
100
AcDbLine
 10
147.16032
 20
13.77952
 30
0.0
 11
146.61168
 21
13.77952
 31
0.0
  0
LINE
  5
98
330
1F
100
AcDbEntity
  8
TITLE_BLOCK
100
AcDbLine
 10
146.2002
 20
13.77952
 30
0.0
 11
143.7999
 21
13.77952
 31
0.0
  0
MTEXT
  5
99
330
1F
100
AcDbEntity
  8
TITLE_BLOCK
100
AcDbMText
 10
150.315
 20
19.57072
 30
0.0
 40
1.2192
 41
30.47999999999999
 71
     2
 72
     1
  1
FIRST ANGLE PROJECTION
  7
ONSHAPE-STANDARD
  0
LINE
  5
9A
330
1F
100
AcDbEntity
  8
TITLE_BLOCK
100
AcDbLine
 10
165.555
 20
10.0
 30
0.0
 11
165.555
 21
48.09999999999999
 31
0.0
  0
LINE
  5
9B
330
1F
100
AcDbEntity
  8
TITLE_BLOCK
100
AcDbLine
 10
178.89
 20
20.668
 30
0.0
 11
178.89
 21
48.09999999999999
 31
0.0
  0
LINE
  5
9C
330
1F
100
AcDbEntity
  8
TITLE_BLOCK
100
AcDbLine
 10
194.13
 20
20.668
 30
0.0
 11
194.13
 21
48.09999999999999
 31
0.0
  0
LINE
  5
9D
330
1F
100
AcDbEntity
  8
TITLE_BLOCK
100
AcDbLine
 10
192.225
 20
10.0
 30
0.0
 11
192.225
 21
20.668
 31
0.0
  0
MTEXT
  5
9E
330
1F
100
AcDbEntity
  8
TITLE_BLOCK
100
AcDbMText
 10
201.75
 20
47.00272
 30
0.0
 40
1.2192
 41
15.24000000000001
 71
     2
 72
     1
  1
SIGNATURE
  7
ONSHAPE-STANDARD
  0
LINE
  5
9F
330
1F
100
AcDbEntity
  8
TITLE_BLOCK
100
AcDbLine
 10
209.37
 20
20.668
 30
0.0
 11
209.37
 21
48.09999999999999
 31
0.0
  0
LINE
  5
A0
330
1F
100
AcDbEntity
  8
TITLE_BLOCK
100
AcDbLine
 10
165.555
 20
48.09999999999999
 30
0.0
 11
218.895
 21
48.09999999999999
 31
0.0
  0
LINE
  5
A1
330
1F
100
AcDbEntity
  8
TITLE_BLOCK
100
AcDbLine
 10
165.555
 20
43.528
 30
0.0
 11
218.895
 21
43.528
 31
0.0
  0
LINE
  5
A2
330
1F
100
AcDbEntity
  8
TITLE_BLOCK
100
AcDbLine
 10
165.555
 20
38.956
 30
0.0
 11
218.895
 21
38.956
 31
0.0
  0
LINE
  5
A3
330
1F
100
AcDbEntity
  8
TITLE_BLOCK
100
AcDbLine
 10
165.555
 20
34.384
 30
0.0
 11
218.895
 21
34.384
 31
0.0
  0
LINE
  5
A4
330
1F
100
AcDbEntity
  8
TITLE_BLOCK
100
AcDbLine
 10
165.555
 20
29.812
 30
0.0
 11
218.895
 21
29.812
 31
0.0
  0
LINE
  5
A5
330
1F
100
AcDbEntity
  8
TITLE_BLOCK
100
AcDbLine
 10
165.555
 20
25.24
 30
0.0
 11
218.895
 21
25.24
 31
0.0
  0
LINE
  5
A6
330
1F
100
AcDbEntity
  8
TITLE_BLOCK
100
AcDbLine
 10
165.555
 20
20.668
 30
0.0
 11
218.895
 21
20.668
 31
0.0
  0
MTEXT
  5
A7
330
1F
100
AcDbEntity
  8
TITLE_BLOCK
100
AcDbMText
 10
179.56056
 20
47.00272
 30
0.0
 40
1.2192
 41
15.23999999999998
 71
     1
 72
     1
  1
NAME
  7
ONSHAPE-STANDARD
  0
MTEXT
  5
A8
330
1F
100
AcDbEntity
  8
TITLE_BLOCK
100
AcDbMText
 10
214.1325
 20
47.00272
 30
0.0
 40
1.2192
 41
9.525000000000006
 71
     2
 72
     1
  1
DATE
  7
ONSHAPE-STANDARD
  0
MTEXT
  5
A9
330
1F
100
AcDbEntity
  8
TITLE_BLOCK
100
AcDbMText
 10
166.22556
 20
42.43072
 30
0.0
 40
1.2192
 41
13.33500000000001
 71
     1
 72
     1
  1
DRAWN
  7
ONSHAPE-STANDARD
  0
MTEXT
  5
AA
102
{ACAD_XDICTIONARY
360
AB
102
}
330
1F
100
AcDbEntity
  8
TITLE_BLOCK
100
AcDbMText
 10
186.51
 20
41.242
 30
0.0
 40
1.024128
 41
15.23999999999998
 71
     5
 72
     1
  1
VINCENT SERES
  7
ONSHAPE-STANDARD-FIELDS
1001
ACAD
1000
ACAD_MTEXT_DEFINED_HEIGHT_BEGIN
1070
    46
1040
4.572000000000003
1000
ACAD_MTEXT_DEFINED_HEIGHT_END
  0
MTEXT
  5
B1
102
{ACAD_XDICTIONARY
360
B2
102
}
330
1F
100
AcDbEntity
  8
TITLE_BLOCK
100
AcDbMText
 10
214.1325
 20
41.242
 30
0.0
 40
1.024128
 41
9.525000000000006
 71
     5
 72
     1
  1
2017-06-03
  7
ONSHAPE-STANDARD-FIELDS
1001
ACAD
1000
ACAD_MTEXT_DEFINED_HEIGHT_BEGIN
1070
    46
1040
4.572000000000003
1000
ACAD_MTEXT_DEFINED_HEIGHT_END
  0
MTEXT
  5
B7
330
1F
100
AcDbEntity
  8
TITLE_BLOCK
100
AcDbMText
 10
166.22556
 20
37.85872
 30
0.0
 40
1.2192
 41
13.33500000000001
 71
     1
 72
     1
  1
CHECKED
  7
ONSHAPE-STANDARD
  0
MTEXT
  5
B8
330
1F
100
AcDbEntity
  8
TITLE_BLOCK
100
AcDbMText
 10
186.51
 20
36.67
 30
0.0
 40
1.024128
 41
15.23999999999998
 71
     5
 72
     1
  1
 
  7
ONSHAPE-STANDARD-FIELDS
1001
ACAD
1000
ACAD_MTEXT_DEFINED_HEIGHT_BEGIN
1070
    46
1040
4.571999999999996
1000
ACAD_MTEXT_DEFINED_HEIGHT_END
  0
MTEXT
  5
B9
330
1F
100
AcDbEntity
  8
TITLE_BLOCK
100
AcDbMText
 10
214.1325
 20
36.67
 30
0.0
 40
1.024128
 41
9.525000000000006
 71
     5
 72
     1
  1
 
  7
ONSHAPE-STANDARD-FIELDS
1001
ACAD
1000
ACAD_MTEXT_DEFINED_HEIGHT_BEGIN
1070
    46
1040
4.571999999999996
1000
ACAD_MTEXT_DEFINED_HEIGHT_END
  0
MTEXT
  5
BA
330
1F
100
AcDbEntity
  8
TITLE_BLOCK
100
AcDbMText
 10
166.22556
 20
33.28672
 30
0.0
 40
1.2192
 41
13.33500000000001
 71
     1
 72
     1
  1
APPROVED
  7
ONSHAPE-STANDARD
  0
MTEXT
  5
BB
330
1F
100
AcDbEntity
  8
TITLE_BLOCK
100
AcDbMText
 10
186.51
 20
32.098
 30
0.0
 40
1.024128
 41
15.23999999999998
 71
     5
 72
     1
  1
 
  7
ONSHAPE-STANDARD-FIELDS
1001
ACAD
1000
ACAD_MTEXT_DEFINED_HEIGHT_BEGIN
1070
    46
1040
4.572000000000003
1000
ACAD_MTEXT_DEFINED_HEIGHT_END
  0
MTEXT
  5
BC
330
1F
100
AcDbEntity
  8
TITLE_BLOCK
100
AcDbMText
 10
214.1325
 20
32.098
 30
0.0
 40
1.024128
 41
9.525000000000006
 71
     5
 72
     1
  1
 
  7
ONSHAPE-STANDARD-FIELDS
1001
ACAD
1000
ACAD_MTEXT_DEFINED_HEIGHT_BEGIN
1070
    46
1040
4.572000000000003
1000
ACAD_MTEXT_DEFINED_HEIGHT_END
  0
MTEXT
  5
BD
330
1F
100
AcDbEntity
  8
TITLE_BLOCK
100
AcDbMText
 10
172.2225
 20
27.526
 30
0.0
 40
1.8288
 41
13.33500000000001
 71
     5
 72
     1
  1
 
  7
ONSHAPE-STANDARD-FIELDS
1001
ACAD
1000
ACAD_MTEXT_DEFINED_HEIGHT_BEGIN
1070
    46
1040
4.571999999999999
1000
ACAD_MTEXT_DEFINED_HEIGHT_END
  0
MTEXT
  5
BE
330
1F
100
AcDbEntity
  8
TITLE_BLOCK
100
AcDbMText
 10
186.51
 20
27.526
 30
0.0
 40
1.024128
 41
15.23999999999998
 71
     5
 72
     1
  1
 
  7
ONSHAPE-STANDARD-FIELDS
1001
ACAD
1000
ACAD_MTEXT_DEFINED_HEIGHT_BEGIN
1070
    46
1040
4.571999999999999
1000
ACAD_MTEXT_DEFINED_HEIGHT_END
  0
MTEXT
  5
BF
330
1F
100
AcDbEntity
  8
TITLE_BLOCK
100
AcDbMText
 10
214.1325
 20
27.526
 30
0.0
 40
1.024128
 41
9.525000000000006
 71
     5
 72
     1
  1
 
  7
ONSHAPE-STANDARD-FIELDS
1001
ACAD
1000
ACAD_MTEXT_DEFINED_HEIGHT_BEGIN
1070
    46
1040
4.571999999999999
1000
ACAD_MTEXT_DEFINED_HEIGHT_END
  0
MTEXT
  5
C0
330
1F
100
AcDbEntity
  8
TITLE_BLOCK
100
AcDbMText
 10
172.2225
 20
22.954
 30
0.0
 40
1.8288
 41
13.33500000000001
 71
     5
 72
     1
  1
 
  7
ONSHAPE-STANDARD-FIELDS
1001
ACAD
1000
ACAD_MTEXT_DEFINED_HEIGHT_BEGIN
1070
    46
1040
4.571999999999999
1000
ACAD_MTEXT_DEFINED_HEIGHT_END
  0
MTEXT
  5
C1
330
1F
100
AcDbEntity
  8
TITLE_BLOCK
100
AcDbMText
 10
186.51
 20
22.954
 30
0.0
 40
1.024128
 41
15.23999999999998
 71
     5
 72
     1
  1
 
  7
ONSHAPE-STANDARD-FIELDS
1001
ACAD
1000
ACAD_MTEXT_DEFINED_HEIGHT_BEGIN
1070
    46
1040
4.571999999999999
1000
ACAD_MTEXT_DEFINED_HEIGHT_END
  0
MTEXT
  5
C2
330
1F
100
AcDbEntity
  8
TITLE_BLOCK
100
AcDbMText
 10
214.1325
 20
22.954
 30
0.0
 40
1.024128
 41
9.525000000000006
 71
     5
 72
     1
  1
 
  7
ONSHAPE-STANDARD-FIELDS
1001
ACAD
1000
ACAD_MTEXT_DEFINED_HEIGHT_BEGIN
1070
    46
1040
4.571999999999999
1000
ACAD_MTEXT_DEFINED_HEIGHT_END
  0
MTEXT
  5
C3
102
{ACAD_XDICTIONARY
360
32B
102
}
330
1F
100
AcDbEntity
  8
TITLE_BLOCK
100
AcDbMText
 10
166.22556
 20
19.57072
 30
0.0
 40
1.2192
 41
26.67000000000002
 71
     1
 72
     1
  1
MATERIAL}
  7
ONSHAPE-STANDARD
1001
ACAD
1000
ACAD_MTEXT_DEFINED_HEIGHT_BEGIN
1070
    46
1040
1.2192
1000
ACAD_MTEXT_DEFINED_HEIGHT_END
  0
MTEXT
  5
C4
102
{ACAD_XDICTIONARY
360
32D
102
}
330
1F
100
AcDbEntity
  8
TITLE_BLOCK
100
AcDbMText
 10
178.89
 20
15.334
 30
0.0
 40
1.8288
 41
26.67000000000002
 71
     5
 72
     1
  1
Acier Inoxydable }
  7
ONSHAPE-STANDARD-FIELDS
1001
ACAD
1000
ACAD_MTEXT_DEFINED_HEIGHT_BEGIN
1070
    46
1040
1.85371553133515
1000
ACAD_MTEXT_DEFINED_HEIGHT_END
  0
MTEXT
  5
C5
330
1F
100
AcDbEntity
  8
TITLE_BLOCK
100
AcDbMText
 10
192.89556
 20
19.57072
 30
0.0
 40
1.2192
 41
26.66999999999999
 71
     1
 72
     1
  1
FINISH
  7
ONSHAPE-STANDARD
  0
MTEXT
  5
C6
330
1F
100
AcDbEntity
  8
TITLE_BLOCK
100
AcDbMText
 10
205.56
 20
15.334
 30
0.0
 40
1.8288
 41
26.66999999999999
 71
     5
 72
     1
  1
 
  7
ONSHAPE-STANDARD-FIELDS
1001
ACAD
1000
ACAD_MTEXT_DEFINED_HEIGHT_BEGIN
1070
    46
1040
10.668
1000
ACAD_MTEXT_DEFINED_HEIGHT_END
  0
LINE
  5
C7
330
1F
100
AcDbEntity
  8
TITLE_BLOCK
100
AcDbLine
 10
218.895
 20
10.0
 30
0.0
 11
218.895
 21
48.09999999999999
 31
0.0
  0
LINE
  5
C8
330
1F
100
AcDbEntity
  8
TITLE_BLOCK
100
AcDbLine
 10
228.42
 20
14.953
 30
0.0
 11
228.42
 21
22.573
 31
0.0
  0
LINE
  5
C9
330
1F
100
AcDbEntity
  8
TITLE_BLOCK
100
AcDbLine
 10
235.659
 20
10.0
 30
0.0
 11
235.659
 21
14.953
 31
0.0
  0
LINE
  5
CA
330
1F
100
AcDbEntity
  8
TITLE_BLOCK
100
AcDbLine
 10
270.33
 20
10.0
 30
0.0
 11
270.33
 21
14.953
 31
0.0
  0
LINE
  5
CB
330
1F
100
AcDbEntity
  8
TITLE_BLOCK
100
AcDbLine
 10
289.38
 20
14.953
 30
0.0
 11
289.38
 21
22.573
 31
0.0
  0
LINE
  5
CC
330
1F
100
AcDbEntity
  8
TITLE_BLOCK
100
AcDbLine
 10
218.895
 20
14.953
 30
0.0
 11
297.0
 21
14.953
 31
0.0
  0
LINE
  5
CD
330
1F
100
AcDbEntity
  8
TITLE_BLOCK
100
AcDbLine
 10
218.895
 20
22.573
 30
0.0
 11
297.0
 21
22.573
 31
0.0
  0
LINE
  5
CE
330
1F
100
AcDbEntity
  8
TITLE_BLOCK
100
AcDbLine
 10
218.895
 20
38.575
 30
0.0
 11
297.0
 21
38.575
 31
0.0
  0
LINE
  5
CF
330
1F
100
AcDbEntity
  8
TITLE_BLOCK
100
AcDbLine
 10
218.895
 20
48.09999999999999
 30
0.0
 11
297.0
 21
48.09999999999999
 31
0.0
  0
MTEXT
  5
D0
330
1F
100
AcDbEntity
  8
TITLE_BLOCK
100
AcDbMText
 10
219.56556
 20
37.47772
 30
0.0
 40
1.2192
 41
9.525000000000006
 71
     1
 72
     1
  1
TITLE
  7
ONSHAPE-STANDARD
  0
MTEXT
  5
D1
102
{ACAD_XDICTIONARY
360
D2
102
}
330
1F
100
AcDbEntity
  8
TITLE_BLOCK
100
AcDbMText
 10
257.9475
 20
35.52699999999999
 30
0.0
 40
2.92608
 41
70.48500000000001
 71
     5
 72
     1
  1
Platine support moteur}
  7
ONSHAPE-STANDARD-FIELDS
1001
ACAD
1000
ACAD_MTEXT_DEFINED_HEIGHT_BEGIN
1070
    46
1040
2.96594485013624
1000
ACAD_MTEXT_DEFINED_HEIGHT_END
  0
MTEXT
  5
D3
102
{ACAD_XDICTIONARY
360
D4
102
}
330
1F
100
AcDbEntity
  8
TITLE_BLOCK
100
AcDbMText
 10
257.9475
 20
30.7264
 30
0.0
 40
2.92608
 41
70.48500000000001
 71
     5
 72
     1
  1
Épaisseur 3 mm}
  7
ONSHAPE-STANDARD-FIELDS
1001
ACAD
1000
ACAD_MTEXT_DEFINED_HEIGHT_BEGIN
1070
    46
1040
2.96594485013624
1000
ACAD_MTEXT_DEFINED_HEIGHT_END
  0
MTEXT
  5
D5
102
{ACAD_XDICTIONARY
360
D6
102
}
330
1F
100
AcDbEntity
  8
TITLE_BLOCK
100
AcDbMText
 10
257.9475
 20
25.9258
 30
0.0
 40
2.92608
 41
70.48500000000001
 71
     5
 72
     1
  1
Quantité 2}
  7
ONSHAPE-STANDARD-FIELDS
1001
ACAD
1000
ACAD_MTEXT_DEFINED_HEIGHT_BEGIN
1070
    46
1040
2.96594485013624
1000
ACAD_MTEXT_DEFINED_HEIGHT_END
  0
MTEXT
  5
D7
330
1F
100
AcDbEntity
  8
TITLE_BLOCK
100
AcDbMText
 10
219.431448
 20
21.695176
 30
0.0
 40
0.9753599999999999
 41
9.525000000000006
 71
     1
 72
     1
  1
SIZE
  7
ONSHAPE-STANDARD
  0
MTEXT
  5
D8
102
{ACAD_XDICTIONARY
360
D9
102
}
330
1F
100
AcDbEntity
  8
TITLE_BLOCK
100
AcDbMText
 10
223.6575
 20
18.763
 30
0.0
 40
3.6576
 41
9.525000000000006
 71
     5
 72
     1
  1
A4
  7
ONSHAPE-STANDARD-FIELDS
1001
ACAD
1000
ACAD_MTEXT_DEFINED_HEIGHT_BEGIN
1070
    46
1040
7.620000000000001
1000
ACAD_MTEXT_DEFINED_HEIGHT_END
  0
MTEXT
  5
DE
330
1F
100
AcDbEntity
  8
TITLE_BLOCK
100
AcDbMText
 10
228.956448
 20
21.695176
 30
0.0
 40
0.9753599999999999
 41
60.95999999999998
 71
     1
 72
     1
  1
DWG NO.
  7
ONSHAPE-STANDARD
  0
MTEXT
  5
DF
102
{ACAD_XDICTIONARY
360
E0
102
}
330
1F
100
AcDbEntity
  8
TITLE_BLOCK
100
AcDbMText
 10
258.9
 20
18.763
 30
0.0
 40
3.6576
 41
60.95999999999998
 71
     5
 72
     1
  1
----
  7
ONSHAPE-STANDARD-FIELDS
1001
ACAD
1000
ACAD_MTEXT_DEFINED_HEIGHT_BEGIN
1070
    46
1040
7.620000000000001
1000
ACAD_MTEXT_DEFINED_HEIGHT_END
  0
MTEXT
  5
E5
330
1F
100
AcDbEntity
  8
TITLE_BLOCK
100
AcDbMText
 10
289.916448
 20
21.695176
 30
0.0
 40
0.9753599999999999
 41
7.620000000000005
 71
     1
 72
     1
  1
REV.
  7
ONSHAPE-STANDARD
  0
MTEXT
  5
E6
102
{ACAD_XDICTIONARY
360
E7
102
}
330
1F
100
AcDbEntity
  8
TITLE_BLOCK
100
AcDbMText
 10
293.571
 20
18.763
 30
0.0
 40
3.6576
 41
6.857999999999947
 71
     5
 72
     1
  1
1}
  7
ONSHAPE-STANDARD-FIELDS
1001
ACAD
1000
ACAD_MTEXT_DEFINED_HEIGHT_BEGIN
1070
    46
1040
3.6576
1000
ACAD_MTEXT_DEFINED_HEIGHT_END
  0
MTEXT
  5
E8
330
1F
100
AcDbEntity
  8
TITLE_BLOCK
100
AcDbMText
 10
219.431448
 20
14.075176
 30
0.0
 40
0.9753599999999999
 41
16.76399999999998
 71
     1
 72
     1
  1
SCALE
  7
ONSHAPE-STANDARD
  0
MTEXT
  5
E9
102
{ACAD_XDICTIONARY
360
EA
102
}
330
1F
100
AcDbEntity
  8
TITLE_BLOCK
100
AcDbMText
 10
228.039
 20
12.4765
 30
0.0
 40
2.19456
 41
15.24000000000001
 71
     5
 72
     1
  1
1:1}
  7
ONSHAPE-STANDARD-FIELDS
1001
ACAD
1000
ACAD_MTEXT_DEFINED_HEIGHT_BEGIN
1070
    46
1040
2.23791302452316
1000
ACAD_MTEXT_DEFINED_HEIGHT_END
  0
MTEXT
  5
EB
330
1F
100
AcDbEntity
  8
TITLE_BLOCK
100
AcDbMText
 10
236.195448
 20
14.075176
 30
0.0
 40
0.9753599999999999
 41
34.67099999999999
 71
     1
 72
     1
  1
WEIGHT
  7
ONSHAPE-STANDARD
  0
MTEXT
  5
EC
330
1F
100
AcDbEntity
  8
TITLE_BLOCK
100
AcDbMText
 10
252.9945
 20
12.4765
 30
0.0
 40
2.19456
 41
34.67099999999999
 71
     5
 72
     1
  1
 
  7
ONSHAPE-STANDARD-FIELDS
1001
ACAD
1000
ACAD_MTEXT_DEFINED_HEIGHT_BEGIN
1070
    46
1040
4.952999999999999
1000
ACAD_MTEXT_DEFINED_HEIGHT_END
  0
MTEXT
  5
ED
330
1F
100
AcDbEntity
  8
TITLE_BLOCK
100
AcDbMText
 10
270.866448
 20
14.075176
 30
0.0
 40
0.9753599999999999
 41
26.67000000000002
 71
     1
 72
     1
  1
SHEET
  7
ONSHAPE-STANDARD
  0
MTEXT
  5
EE
102
{ACAD_XDICTIONARY
360
EF
102
}
330
1F
100
AcDbEntity
  8
TITLE_BLOCK
100
AcDbMText
 10
284.427
 20
12.4765
 30
0.0
 40
2.19456
 41
25.14600000000002
 71
     5
 72
     1
  1
1 of 1
  7
ONSHAPE-STANDARD-FIELDS
1001
ACAD
1000
ACAD_MTEXT_DEFINED_HEIGHT_BEGIN
1070
    46
1040
4.952999999999999
1000
ACAD_MTEXT_DEFINED_HEIGHT_END
  0
MTEXT
  5
F4
330
1F
100
AcDbEntity
  8
ANNOTATION_TEXT
100
AcDbMText
 10
63.16369131003096
 20
81.65292472766053
 30
0.0
 40
3.5
 41
0.0
 71
     2
 72
     1
  1
 1:1
  7
ONSHAPE-STANDARD
1001
ACAD
1000
ACAD_MTEXT_DEFINED_HEIGHT_BEGIN
1070
    46
1040
3.5
1000
ACAD_MTEXT_DEFINED_HEIGHT_END
  0
MTEXT
  5
F6
330
1F
100
AcDbEntity
  8
ANNOTATION_TEXT
100
AcDbMText
 10
66.17341605494866
 20
42.29472097444673
 30
0.0
 40
3.5
 41
10.56534841018225
 71
     2
 72
     1
  1
 1:1
  7
ONSHAPE-STANDARD
1001
ACAD
1000
ACAD_MTEXT_DEFINED_HEIGHT_BEGIN
1070
    46
1040
3.5
1000
ACAD_MTEXT_DEFINED_HEIGHT_END
  0
MTEXT
  5
F7
330
1F
100
AcDbEntity
  8
ANNOTATION_TEXT
 60
     1
100
AcDbMText
 10
253.0981461180559
 20
48.03025631187261
 30
0.0
 40
3.5
 41
0.0
 71
     2
 72
     1
  1

  7
ONSHAPE-STANDARD
1001
ACAD
1000
ACAD_MTEXT_DEFINED_HEIGHT_BEGIN
1070
    46
1040
3.5
1000
ACAD_MTEXT_DEFINED_HEIGHT_END
  0
DIMENSION
  5
F8
102
{ACAD_REACTORS
102
}
102
{ACAD_XDICTIONARY
360
F9
102
}
330
1F
100
AcDbEntity
  8
ANNOTATION_TEXT
100
AcDbDimension
  2
*D1
 10
116.0741107958226
 20
97.78822733423547
 30
0.0
 11
104.1232254614344
 21
97.78822733423547
 31
0.0
 70
   160
  3
ONSHAPE-ISO-25$0
100
AcDbAlignedDimension
 13
91.0741107958226
 23
142.5224105192709
 33
0.7499999999999996
 14
116.0741107958226
 24
142.5224105192709
 34
0.7499999999999996
100
AcDbRotatedDimension
1001
ACAD
1000
DSTYLE
1002
{
1070
   144
1040
1.0
1070
   288
1070
     1
1002
}
1001
ACAD_DIMASSOC_CALC_DIMLFAC
1040
-1.0
1001
ACAD_DIMASSOC_DIMLFAC
1040
-1.0
1001
ACAD_DIMASSOC_OVERRIDDEN_D
1040
0.0
  0
DIMENSION
  5
10C
102
{ACAD_REACTORS
102
}
102
{ACAD_XDICTIONARY
360
10D
102
}
330
1F
100
AcDbEntity
  8
ANNOTATION_TEXT
100
AcDbDimension
  2
*D2
 10
146.0741107958226
 20
97.52598105548041
 30
0.0
 11
128.5121293856563
 21
97.52598105548041
 31
0.0
 70
   160
  3
ONSHAPE-ISO-25$0
100
AcDbAlignedDimension
 13
116.0741107958226
 23
142.5224105192709
 33
0.7499999999999996
 14
146.0741107958226
 24
142.5224105192709
 34
0.7499999999999996
100
AcDbRotatedDimension
1001
ACAD
1000
DSTYLE
1002
{
1070
   144
1040
1.0
1070
   288
1070
     1
1002
}
1001
ACAD_DIMASSOC_CALC_DIMLFAC
1040
-1.0
1001
ACAD_DIMASSOC_DIMLFAC
1040
-1.0
1001
ACAD_DIMASSOC_OVERRIDDEN_D
1040
0.0
  0
DIMENSION
  5
11D
102
{ACAD_REACTORS
102
}
102
{ACAD_XDICTIONARY
360
11E
102
}
330
1F
100
AcDbEntity
  8
ANNOTATION_TEXT
100
AcDbDimension
  2
*D3
 10
91.0741107958226
 20
97.5259810554804
 30
0.0
 11
70.81794805953993
 21
97.5259810554804
 31
0.0
 70
   160
  3
ONSHAPE-ISO-25$0
100
AcDbAlignedDimension
 13
51.07411079582258
 23
115.0224105192709
 33
0.7499999999999978
 14
91.0741107958226
 24
142.5224105192709
 34
0.7499999999999996
100
AcDbRotatedDimension
1001
ACAD
1000
DSTYLE
1002
{
1070
   144
1040
1.0
1070
   288
1070
     1
1002
}
1001
ACAD_DIMASSOC_CALC_DIMLFAC
1040
-1.0
1001
ACAD_DIMASSOC_DIMLFAC
1040
-1.0
1001
ACAD_DIMASSOC_OVERRIDDEN_D
1040
0.0
  0
DIMENSION
  5
12C
102
{ACAD_REACTORS
102
}
102
{ACAD_XDICTIONARY
360
12D
102
}
330
1F
100
AcDbEntity
  8
ANNOTATION_TEXT
100
AcDbDimension
  2
*D4
 10
91.0741107958226
 20
182.3319471405023
 30
0.0
 11
78.57411079582259
 21
182.3319471405023
 31
0.0
 70
   160
  3
ONSHAPE-ISO-25$0
100
AcDbAlignedDimension
 13
66.07411079582258
 23
170.0224105192709
 33
0.7500000000000013
 14
91.0741107958226
 24
142.5224105192709
 34
0.7499999999999996
100
AcDbRotatedDimension
1001
ACAD
1000
DSTYLE
1002
{
1070
   144
1040
1.0
1070
   288
1070
     1
1002
}
1001
ACAD_DIMASSOC_CALC_DIMLFAC
1040
-1.0
1001
ACAD_DIMASSOC_DIMLFAC
1040
-1.0
1001
ACAD_DIMASSOC_OVERRIDDEN_D
1040
0.0
  0
DIMENSION
  5
13B
102
{ACAD_REACTORS
102
}
102
{ACAD_XDICTIONARY
360
13C
102
}
330
1F
100
AcDbEntity
  8
ANNOTATION_TEXT
100
AcDbDimension
  2
*D5
 10
34.86200168109106
 20
115.0224105192709
 30
0.0
 11
34.86200168109106
 21
146.00106717956
 31
0.0
 70
   160
  3
ONSHAPE-ISO-25$0
100
AcDbAlignedDimension
 13
66.07411079582258
 23
170.0224105192709
 33
0.7500000000000013
 14
51.07411079582258
 24
115.0224105192709
 34
0.7499999999999978
 50
90.0
100
AcDbRotatedDimension
1001
ACAD
1000
DSTYLE
1002
{
1070
   144
1040
1.0
1070
   288
1070
     1
1002
}
1001
ACAD_DIMASSOC_CALC_DIMLFAC
1040
-1.0
1001
ACAD_DIMASSOC_DIMLFAC
1040
-1.0
1001
ACAD_DIMASSOC_OVERRIDDEN_D
1040
0.0
  0
DIMENSION
  5
14A
102
{ACAD_REACTORS
102
}
102
{ACAD_XDICTIONARY
360
14B
102
}
330
1F
100
AcDbEntity
  8
ANNOTATION_TEXT
100
AcDbDimension
  2
*D6
 10
146.0741107958226
 20
182.3319471405023
 30
0.0
 11
114.2434699852982
 21
182.3319471405023
 31
0.0
 70
   160
  3
ONSHAPE-ISO-25$0
100
AcDbAlignedDimension
 13
66.07411079582258
 23
170.0224105192709
 33
0.7500000000000013
 14
146.0741107958226
 24
142.5224105192709
 34
0.7499999999999996
100
AcDbRotatedDimension
1001
ACAD
1000
DSTYLE
1002
{
1070
   144
1040
1.0
1070
   288
1070
     1
1002
}
1001
ACAD_DIMASSOC_CALC_DIMLFAC
1040
-1.0
1001
ACAD_DIMASSOC_DIMLFAC
1040
-1.0
1001
ACAD_DIMASSOC_OVERRIDDEN_D
1040
0.0
  0
DIMENSION
  5
159
102
{ACAD_REACTORS
102
}
102
{ACAD_XDICTIONARY
360
15A
102
}
330
1F
100
AcDbEntity
  8
ANNOTATION_TEXT
100
AcDbDimension
  2
*D7
 10
132.0743392672363
 20
142.4424283500993
 30
0.7499999999999996
 11
178.0287201501217
 21
142.7049705679094
 31
0.0
 70
   163
  1
<>
  3
ONSHAPE-ISO-25$3
100
AcDbDiametricDimension
 15
160.0738823244088
 25
142.6023926884424
 35
0.7499999999999996
 40
0.0
1001
ACAD
1000
DSTYLE
1002
{
1070
   144
1040
1.0
1070
   288
1070
     1
1002
}
1001
ACAD_DSTYLE_DIMRADIAL_EXTE
1070
   387
1070
     1
1070
   388
1040
2.111895852752042
1070
   390
1040
4.171289454427546
1001
ACAD_DIMASSOC_CALC_DIMLFAC
1040
-1.0
1001
ACAD_DIMASSOC_DIMLFAC
1040
-1.0
1001
ACAD_DIMASSOC_OVERRIDDEN_D
1040
0.0
  0
DIMENSION
  5
16A
102
{ACAD_REACTORS
102
}
102
{ACAD_XDICTIONARY
360
16B
102
}
330
1F
100
AcDbEntity
  8
ANNOTATION_TEXT
100
AcDbDimension
  2
*D8
 10
116.1171978213706
 20
138.5226425874741
 30
0.0
 11
115.8590651515939
 21
162.4850944297817
 31
0.0
 70
   163
  1
<>
  3
ONSHAPE-ISO-25$3
100
AcDbDiametricDimension
 15
116.0310237702746
 25
146.5221784510676
 35
0.0
 40
0.0
1001
ACAD
1000
DSTYLE
1002
{
1070
   144
1040
1.0
1070
    44
1040
1.047196
1070
   288
1070
     1
1002
}
1001
ACAD_DSTYLE_DIMRADIAL_EXTE
1070
   387
1070
     1
1070
   388
1040
0.0
1070
   390
1040
6.283185307179586
1001
ACAD_DIMASSOC_CALC_DIMLFAC
1040
-1.0
1001
ACAD_DIMASSOC_DIMLFAC
1040
-1.0
1001
ACAD_DIMASSOC_OVERRIDDEN_D
1040
0.0
  0
DIMENSION
  5
178
102
{ACAD_REACTORS
102
}
102
{ACAD_XDICTIONARY
360
179
102
}
330
1F
100
AcDbEntity
  8
ANNOTATION_TEXT
100
AcDbDimension
  2
*D9
 10
88.52252758982344
 20
139.4419197884192
 30
0.0
 11
107.1867357941787
 21
161.9749574087573
 31
0.0
 70
   163
  1
<>
  3
ONSHAPE-ISO-25$3
100
AcDbDiametricDimension
 15
93.62569400182177
 25
145.6029012501225
 35
0.0
 40
0.0
1001
ACAD
1000
DSTYLE
1002
{
1070
   144
1040
1.0
1070
    44
1040
1.047196
1070
   288
1070
     1
1002
}
1001
ACAD_DSTYLE_DIMRADIAL_EXTE
1070
   387
1070
     1
1070
   388
1040
0.0
1070
   390
1040
6.283185307179586
1001
ACAD_DIMASSOC_CALC_DIMLFAC
1040
-1.0
1001
ACAD_DIMASSOC_DIMLFAC
1040
-1.0
1001
ACAD_DIMASSOC_OVERRIDDEN_D
1040
0.0
  0
DIMENSION
  5
186
102
{ACAD_REACTORS
102
}
102
{ACAD_XDICTIONARY
360
187
102
}
330
1F
100
AcDbEntity
  8
ANNOTATION_TEXT
100
AcDbDimension
  2
*D10
 10
68.92665402610945
 20
167.2183068979072
 30
0.7500000000000011
 11
51.74551502662972
 21
184.1076895288404
 31
0.0000000000000004
 70
   163
  1
<>
  3
ONSHAPE-ISO-25$3
100
AcDbDiametricDimension
 15
63.22156756553571
 25
172.8265141406345
 35
0.7500000000000016
 40
0.0
1001
ACAD
1000
DSTYLE
1002
{
1070
   144
1040
1.0
1070
    44
1040
1.047196
1070
   288
1070
     1
1002
}
1001
ACAD_DSTYLE_DIMRADIAL_EXTE
1070
   387
1070
     1
1070
   388
1040
0.0
1070
   390
1040
6.283185307179586
1001
ACAD_DIMASSOC_CALC_DIMLFAC
1040
-1.0
1001
ACAD_DIMASSOC_DIMLFAC
1040
-1.0
1001
ACAD_DIMASSOC_OVERRIDDEN_D
1040
0.0
  0
DIMENSION
  5
194
102
{ACAD_REACTORS
102
}
102
{ACAD_XDICTIONARY
360
195
102
}
330
1F
100
AcDbEntity
  8
ANNOTATION_TEXT
100
AcDbDimension
  2
*D11
 10
53.72187011462199
 20
118.0206384275045
 30
0.749999999999998
 11
37.70318950243205
 21
99.88165769630787
 31
-0.0000000000000004
 70
   163
  1
<>
  3
ONSHAPE-ISO-25$3
100
AcDbDiametricDimension
 15
48.42635147702318
 25
112.0241826110372
 35
0.7499999999999976
 40
0.0
1001
ACAD
1000
DSTYLE
1002
{
1070
   144
1040
1.0
1070
    44
1040
1.047196
1070
   288
1070
     1
1002
}
1001
ACAD_DSTYLE_DIMRADIAL_EXTE
1070
   387
1070
     1
1070
   388
1040
0.0
1070
   390
1040
6.283185307179586
1001
ACAD_DIMASSOC_CALC_DIMLFAC
1040
-1.0
1001
ACAD_DIMASSOC_DIMLFAC
1040
-1.0
1001
ACAD_DIMASSOC_OVERRIDDEN_D
1040
0.0
  0
DIMENSION
  5
1A2
102
{ACAD_REACTORS
102
}
102
{ACAD_XDICTIONARY
360
1A3
102
}
330
1F
100
AcDbEntity
  8
ANNOTATION_TEXT
100
AcDbDimension
  2
*D12
 10
129.1322848227416
 20
148.603079289878
 30
0.0
 11
177.0348773236417
 21
131.4101392423199
 31
0.0
 70
   163
  1
<>
  3
ONSHAPE-ISO-25$3
100
AcDbDiametricDimension
 15
163.0159367689036
 25
136.4417417486637
 35
0.0
 40
0.0
1001
ACAD
1000
DSTYLE
1002
{
1070
   144
1040
1.0
1070
   288
1070
     1
1002
}
1001
ACAD_DSTYLE_DIMRADIAL_EXTE
1070
   387
1070
     1
1070
   388
1040
4.105328055059665
1070
   390
1040
2.163401481802766
1001
ACAD_DIMASSOC_CALC_DIMLFAC
1040
-1.0
1001
ACAD_DIMASSOC_DIMLFAC
1040
-1.0
1001
ACAD_DIMASSOC_OVERRIDDEN_D
1040
0.0
  0
DIMENSION
  5
1B0
102
{ACAD_REACTORS
102
}
102
{ACAD_XDICTIONARY
360
1B1
102
}
330
1F
100
AcDbEntity
  8
ANNOTATION_TEXT
100
AcDbDimension
  2
*D13
 10
51.19804287328844
 20
122.021313350442
 30
0.0
 11
50.62498459539918
 21
89.65859269282815
 31
0.0
 70
   163
  1
<>
  3
ONSHAPE-ISO-25$3
100
AcDbDiametricDimension
 15
50.95017871835673
 25
108.0235076880998
 35
0.0
 40
0.0
1001
ACAD
1000
DSTYLE
1002
{
1070
   144
1040
1.0
1070
   288
1070
     1
1002
}
1001
ACAD_DSTYLE_DIMRADIAL_EXTE
1070
   387
1070
     1
1070
   388
1040
2.501070537006901
1070
   390
1040
4.9652830299519
1001
ACAD_DIMASSOC_CALC_DIMLFAC
1040
-1.0
1001
ACAD_DIMASSOC_DIMLFAC
1040
-1.0
1001
ACAD_DIMASSOC_OVERRIDDEN_D
1040
0.0
  0
DIMENSION
  5
1BE
102
{ACAD_REACTORS
102
}
102
{ACAD_XDICTIONARY
360
1BF
102
}
330
1F
100
AcDbEntity
  8
ANNOTATION_TEXT
100
AcDbDimension
  2
*D14
 10
66.05626673043822
 20
163.0224332629271
 30
0.7500000000000009
 11
66.12902837216829
 21
191.5658075598604
 31
0.0000000000000004
 70
   163
  1
<>
  3
ONSHAPE-ISO-25$3
100
AcDbDiametricDimension
 15
66.09195486120694
 25
177.0223877756147
 35
0.7500000000000018
 40
0.0
1001
ACAD
1000
DSTYLE
1002
{
1070
   144
1040
1.0
1070
   288
1070
     1
1002
}
1001
ACAD_DSTYLE_DIMRADIAL_EXTE
1070
   387
1070
     1
1070
   388
1040
1.346181084939351
1070
   390
1040
3.267153970480255
1001
ACAD_DIMASSOC_CALC_DIMLFAC
1040
-1.0
1001
ACAD_DIMASSOC_DIMLFAC
1040
-1.0
1001
ACAD_DIMASSOC_OVERRIDDEN_D
1040
0.0
  0
DIMENSION
  5
1CC
102
{ACAD_REACTORS
102
}
102
{ACAD_XDICTIONARY
360
1CD
102
}
330
1F
100
AcDbEntity
  8
ANNOTATION_TEXT
100
AcDbDimension
  2
*D15
 10
202.9310020549973
 20
108.0224105192709
 30
0.0
 11
202.9310020549973
 21
142.5224105192709
 31
0.0
 70
   160
  3
ONSHAPE-ISO-25$0
100
AcDbAlignedDimension
 13
213.0289088173207
 23
177.0224105192709
 33
18.67282764251617
 14
213.0289088173207
 24
108.0224105192709
 34
33.67282764251617
 50
90.0
100
AcDbRotatedDimension
1001
ACAD
1000
DSTYLE
1002
{
1070
   144
1040
1.0
1070
   288
1070
     1
1002
}
1001
ACAD_DIMASSOC_CALC_DIMLFAC
1040
-1.0
1001
ACAD_DIMASSOC_DIMLFAC
1040
-1.0
1001
ACAD_DIMASSOC_OVERRIDDEN_D
1040
0.0
  0
DIMENSION
  5
1DB
102
{ACAD_REACTORS
102
}
102
{ACAD_XDICTIONARY
360
1DC
102
}
330
1F
100
AcDbEntity
  8
ANNOTATION_TEXT
100
AcDbDimension
  2
*D16
 10
216.0289088173207
 20
189.6381881409172
 30
0.0
 11
214.5289088173207
 21
189.6381881409172
 31
0.0
 70
   160
  3
ONSHAPE-ISO-25$0
100
AcDbAlignedDimension
 13
213.0289088173207
 23
177.0224105192709
 33
18.67282764251617
 14
216.0289088173207
 24
177.0224105192709
 34
18.67282764251617
100
AcDbRotatedDimension
1001
ACAD
1000
DSTYLE
1002
{
1070
   144
1040
1.0
1070
   288
1070
     1
1002
}
1001
ACAD_DIMASSOC_CALC_DIMLFAC
1040
-1.0
1001
ACAD_DIMASSOC_DIMLFAC
1040
-1.0
1001
ACAD_DIMASSOC_OVERRIDDEN_D
1040
0.0
  0
DIMENSION
  5
1EC
102
{ACAD_REACTORS
102
}
102
{ACAD_XDICTIONARY
360
1ED
102
}
330
1F
100
AcDbEntity
  8
ANNOTATION_TEXT
100
AcDbDimension
  2
*D17
 10
51.07411079582258
 20
152.6614628364517
 30
0.0
 11
43.46205357511414
 21
152.6614628364517
 31
0.0
 70
   160
  3
ONSHAPE-ISO-25$0
100
AcDbAlignedDimension
 13
66.07411079582258
 23
170.0224105192709
 33
0.7500000000000013
 14
51.07411079582258
 24
115.0224105192709
 34
0.7499999999999978
100
AcDbRotatedDimension
1001
ACAD
1000
DSTYLE
1002
{
1070
   144
1040
1.0
1070
   288
1070
     1
1002
}
1001
ACAD_DIMASSOC_CALC_DIMLFAC
1040
-1.0
1001
ACAD_DIMASSOC_DIMLFAC
1040
-1.0
1001
ACAD_DIMASSOC_OVERRIDDEN_D
1040
0.0
  0
DIMENSION
  5
1FC
102
{ACAD_REACTORS
102
}
102
{ACAD_XDICTIONARY
360
1FD
102
}
330
1F
100
AcDbEntity
  8
ANNOTATION_TEXT
100
AcDbDimension
  2
*D18
 10
78.42697671260943
 20
142.5224105192709
 30
0.0
 11
78.42697671260943
 21
156.4960319726407
 31
0.0
 70
   160
  3
ONSHAPE-ISO-25$0
100
AcDbAlignedDimension
 13
66.07411079582258
 23
170.0224105192709
 33
0.7500000000000013
 14
91.0741107958226
 24
142.5224105192709
 34
0.7499999999999996
 50
90.0
100
AcDbRotatedDimension
1001
ACAD
1000
DSTYLE
1002
{
1070
   144
1040
1.0
1070
   288
1070
     1
1002
}
1001
ACAD_DIMASSOC_CALC_DIMLFAC
1040
-1.0
1001
ACAD_DIMASSOC_DIMLFAC
1040
-1.0
1001
ACAD_DIMASSOC_OVERRIDDEN_D
1040
0.0
  0
DIMENSION
  5
20D
102
{ACAD_REACTORS
102
}
102
{ACAD_XDICTIONARY
360
20E
102
}
330
1F
100
AcDbEntity
  8
ANNOTATION_TEXT
100
AcDbDimension
  2
*D19
 10
78.42697671260942
 20
142.5224105192709
 30
0.0
 11
78.42697671260942
 21
130.3532084386168
 31
0.0
 70
   160
  3
ONSHAPE-ISO-25$0
100
AcDbAlignedDimension
 13
51.07411079582258
 23
115.0224105192709
 33
0.7499999999999978
 14
91.0741107958226
 24
142.5224105192709
 34
0.7499999999999996
 50
90.0
100
AcDbRotatedDimension
1001
ACAD
1000
DSTYLE
1002
{
1070
   144
1040
1.0
1070
   288
1070
     1
1002
}
1001
ACAD_DIMASSOC_CALC_DIMLFAC
1040
-1.0
1001
ACAD_DIMASSOC_DIMLFAC
1040
-1.0
1001
ACAD_DIMASSOC_OVERRIDDEN_D
1040
0.0
  0
DIMENSION
  5
21C
102
{ACAD_REACTORS
102
}
102
{ACAD_XDICTIONARY
360
21D
102
}
330
1F
100
AcDbEntity
  8
ANNOTATION_TEXT
100
AcDbDimension
  2
*D20
 10
89.26504343042282
 20
182.4062666579896
 30
0.7500000000000022
 11
164.3685606956815
 21
182.2350043279242
 31
0.0
 70
   163
  1
<>
  3
ONSHAPE-ISO-25$3
100
AcDbDiametricDimension
 15
149.2648874311029
 25
182.269445994174
 35
0.7500000000000022
 40
0.0
1001
ACAD
1000
DSTYLE
1002
{
1070
   144
1040
1.0
1070
   288
1070
     1
1002
}
1001
ACAD_DSTYLE_DIMRADIAL_EXTE
1070
   387
1070
     1
1070
   388
1040
3.490651095834677
1070
   390
1040
5.304994135392562
1001
ACAD_DIMASSOC_CALC_DIMLFAC
1040
-1.0
1001
ACAD_DIMASSOC_DIMLFAC
1040
-1.0
1001
ACAD_DIMASSOC_OVERRIDDEN_D
1040
0.0
  0
DIMENSION
  5
22B
102
{ACAD_REACTORS
102
}
102
{ACAD_XDICTIONARY
360
22C
102
}
330
1F
100
AcDbEntity
  8
ANNOTATION_TEXT
100
AcDbDimension
  2
*D21
 10
88.69229126489377
 20
103.0349559291668
 30
0.0
 11
163.7958344830463
 21
103.1944315630558
 31
0.0
 70
   163
  1
<>
  3
ONSHAPE-ISO-25$3
100
AcDbDiametricDimension
 15
148.6921559992178
 25
103.1623602572684
 35
0.0
 40
0.0
1001
ACAD
1000
DSTYLE
1002
{
1070
   144
1040
1.0
1070
   288
1070
     1
1002
}
1001
ACAD_DSTYLE_DIMRADIAL_EXTE
1070
   387
1070
     1
1070
   388
1040
0.9637354014698711
1070
   390
1040
2.740420136236913
1001
ACAD_DIMASSOC_CALC_DIMLFAC
1040
-1.0
1001
ACAD_DIMASSOC_DIMLFAC
1040
-1.0
1001
ACAD_DIMASSOC_OVERRIDDEN_D
1040
0.0
  0
DIMENSION
  5
23A
102
{ACAD_REACTORS
102
}
102
{ACAD_XDICTIONARY
360
23B
102
}
330
1F
100
AcDbEntity
  8
ANNOTATION_TEXT
100
AcDbDimension
  2
*D22
 10
26.12754876567007
 20
151.3373689993268
 30
0.75
 11
42.2541178190387
 21
181.1860902520387
 31
0.0
 70
   164
  1
<>
  3
ONSHAPE-ISO-25$4
100
AcDbRadialDimension
 15
43.95270105802061
 25
184.3300037191322
 35
0.750000000000002
 40
0.0
1001
ACAD
1000
DSTYLE
1002
{
1070
   287
1070
     0
1070
    44
1040
1.25
1070
   144
1040
1.0
1070
   172
1070
     0
1070
   289
1070
     0
1070
   288
1070
     1
1002
}
1001
ACAD_DSTYLE_DIMRADIAL_EXTE
1070
   387
1070
     1
1070
   388
1040
5.254067954269678
1070
   390
1040
0.49484039635462
1001
ACAD_DIMASSOC_CALC_DIMLFAC
1040
-1.0
1001
ACAD_DIMASSOC_DIMLFAC
1040
-1.0
1001
ACAD_DIMASSOC_OVERRIDDEN_D
1040
0.0
  0
DIMENSION
  5
247
102
{ACAD_REACTORS
102
}
102
{ACAD_XDICTIONARY
360
248
102
}
330
1F
100
AcDbEntity
  8
ANNOTATION_TEXT
100
AcDbDimension
  2
*D23
 10
164.0741107958226
 20
52.81320508415718
 30
0.0
 11
107.9928192904583
 21
52.81320508415718
 31
0.0
 70
   160
  3
ONSHAPE-ISO-25$0
100
AcDbAlignedDimension
 13
44.07411079582258
 23
60.09824086603519
 33
-29.25
 14
164.0741107958226
 24
60.09824086603518
 34
-1.750000000000003
100
AcDbRotatedDimension
1001
ACAD
1000
DSTYLE
1002
{
1070
   144
1040
1.0
1070
   288
1070
     1
1002
}
1001
ACAD_DIMASSOC_CALC_DIMLFAC
1040
-1.0
1001
ACAD_DIMASSOC_DIMLFAC
1040
-1.0
1001
ACAD_DIMASSOC_OVERRIDDEN_D
1040
0.0
  0
DIMENSION
  5
256
102
{ACAD_REACTORS
102
}
102
{ACAD_XDICTIONARY
360
257
102
}
330
1F
100
AcDbEntity
  8
ANNOTATION_TEXT
100
AcDbDimension
  2
*D24
 10
189.3532660568336
 20
130.5224105192709
 30
0.0
 11
189.3532660568336
 21
142.5224105192709
 31
0.0
 70
   160
  3
ONSHAPE-ISO-25$0
100
AcDbAlignedDimension
 13
153.2852133467506
 23
154.5224105192709
 33
0.7500000000000004
 14
153.2852133467506
 24
130.5224105192709
 34
0.7499999999999987
 50
90.0
100
AcDbRotatedDimension
1001
ACAD
1000
DSTYLE
1002
{
1070
   144
1040
1.0
1070
   288
1070
     1
1002
}
1001
ACAD_DIMASSOC_CALC_DIMLFAC
1040
-1.0
1001
ACAD_DIMASSOC_DIMLFAC
1040
-1.0
1001
ACAD_DIMASSOC_OVERRIDDEN_D
1040
0.0
  0
LINE
  5
268
330
1F
100
AcDbEntity
  8
VISIBLE
100
AcDbLine
 10
138.8630082448946
 20
154.5224105192709
 30
0.0
 11
153.2852133467506
 21
154.5224105192709
 31
0.0
  0
ARC
  5
269
330
1F
100
AcDbEntity
  8
VISIBLE
100
AcDbCircle
 10
146.0741107958226
 20
142.5224105192709
 30
0.0
 40
14.0
100
AcDbArc
 50
121.0027191338739
 51
238.9972808661259
  0
LINE
  5
26A
330
1F
100
AcDbEntity
  8
VISIBLE
100
AcDbLine
 10
138.8630082448946
 20
130.5224105192709
 30
0.0
 11
153.2852133467506
 21
130.5224105192709
 31
0.0
  0
ARC
  5
26B
330
1F
100
AcDbEntity
  8
VISIBLE
100
AcDbCircle
 10
146.0741107958226
 20
142.5224105192709
 30
0.0
 40
14.0
100
AcDbArc
 50
301.0027191338741
 51
58.99728086612597
  0
CIRCLE
  5
26C
330
1F
100
AcDbEntity
  8
VISIBLE
100
AcDbCircle
 10
66.07411079582258
 20
170.0224105192709
 30
0.0
 40
4.0
  0
CIRCLE
  5
26D
330
1F
100
AcDbEntity
  8
VISIBLE
100
AcDbCircle
 10
51.07411079582258
 20
115.0224105192709
 30
0.0
 40
4.0
  0
CIRCLE
  5
26E
330
1F
100
AcDbEntity
  8
VISIBLE
100
AcDbCircle
 10
91.0741107958226
 20
142.5224105192709
 30
0.0
 40
4.0
  0
CIRCLE
  5
26F
330
1F
100
AcDbEntity
  8
VISIBLE
100
AcDbCircle
 10
116.0741107958226
 20
142.5224105192709
 30
0.0
 40
4.0
  0
ARC
  5
270
330
1F
100
AcDbEntity
  8
VISIBLE
100
AcDbCircle
 10
32.89435222997938
 20
149.5259810372281
 30
0.0000000000000005
 40
47.0
100
AcDbArc
 50
331.5216129561886
 51
6.002285115366707
  0
ARC
  5
271
330
1F
100
AcDbEntity
  8
VISIBLE
100
AcDbCircle
 10
75.65861443468734
 20
154.0224105192709
 30
-0.0000000000000001
 40
4.0
100
AcDbArc
 50
6.002285115366629
 51
186.002285115367
  0
ARC
  5
272
330
1F
100
AcDbEntity
  8
VISIBLE
100
AcDbCircle
 10
32.89435222997938
 20
149.5259810372281
 30
0.0000000000000004
 40
39.0
100
AcDbArc
 50
331.5216129561886
 51
6.002285115366681
  0
ARC
  5
273
330
1F
100
AcDbEntity
  8
VISIBLE
100
AcDbCircle
 10
70.69122506378868
 20
129.0224105192709
 30
0.0000000000000001
 40
4.0
100
AcDbArc
 50
151.5216129561889
 51
331.5216129561882
  0
ARC
  5
274
330
1F
100
AcDbEntity
  8
VISIBLE
100
AcDbCircle
 10
146.0741107958226
 20
142.5224105192709
 30
0.0
 40
18.0
100
AcDbArc
 50
235.2179710715697
 51
123.9537742996469
  0
ARC
  5
275
330
1F
100
AcDbEntity
  8
VISIBLE
100
AcDbCircle
 10
118.6922236320558
 20
103.0986580932176
 30
-0.0000000000000013
 40
30.0
100
AcDbArc
 50
55.21797107156959
 51
157.0145078990412
  0
LINE
  5
276
330
1F
100
AcDbEntity
  8
VISIBLE
100
AcDbLine
 10
52.82555979475109
 20
108.2450639585472
 30
0.0
 11
91.07411079582258
 21
114.8135991244431
 31
0.0
  0
ARC
  5
277
330
1F
100
AcDbEntity
  8
VISIBLE
100
AcDbCircle
 10
51.07411079582258
 20
115.0224105192709
 30
0.0000000000000001
 40
7.0
100
AcDbArc
 50
143.3007860350138
 51
284.4897617041734
  0
ARC
  5
278
330
1F
100
AcDbEntity
  8
VISIBLE
100
AcDbCircle
 10
26.12754876567007
 20
151.3373689993268
 30
0.0000000000000004
 40
37.5
100
AcDbArc
 50
301.0359190545869
 51
28.35226624370057
  0
ARC
  5
279
330
1F
100
AcDbEntity
  8
VISIBLE
100
AcDbCircle
 10
66.07411079582258
 20
170.0224105192709
 30
-0.0000000000000002
 40
7.0
100
AcDbArc
 50
78.49522608791959
 51
187.1941335279282
  0
LINE
  5
27A
330
1F
100
AcDbEntity
  8
VISIBLE
100
AcDbLine
 10
67.47025786650278
 20
176.881767147777
 30
0.0
 11
91.0741107958226
 21
172.0774608682222
 31
0.0
  0
ARC
  5
27B
330
1F
100
AcDbEntity
  8
VISIBLE
100
AcDbCircle
 10
119.2649654307629
 20
182.3378563260818
 30
0.0000000000000012
 40
30.0
100
AcDbArc
 50
199.9995755440429
 51
303.953774299647
  0
LINE
  5
280
330
1F
100
AcDbEntity
  8
HIDDEN
100
AcDbLine
 10
213.0289088173207
 20
124.5224105192709
 30
0.0
 11
216.0289088173207
 21
124.5224105192709
 31
0.0
  0
LINE
  5
281
330
1F
100
AcDbEntity
  8
HIDDEN
100
AcDbLine
 10
216.0289088173207
 20
160.5224105192709
 30
0.0
 11
213.0289088173207
 21
160.5224105192709
 31
0.0
  0
LINE
  5
282
330
1F
100
AcDbEntity
  8
HIDDEN
100
AcDbLine
 10
213.0289088173207
 20
152.3378563260818
 30
0.0
 11
216.0289088173207
 21
152.3378563260818
 31
0.0
  0
LINE
  5
283
330
1F
100
AcDbEntity
  8
TANGENT_HIDDEN
100
AcDbLine
 10
216.0289088173207
 20
176.881767147777
 30
0.0
 11
213.0289088173207
 21
176.881767147777
 31
0.0
  0
LINE
  5
284
330
1F
100
AcDbEntity
  8
TANGENT_HIDDEN
100
AcDbLine
 10
213.0289088173207
 20
157.453202696825
 30
0.0
 11
216.0289088173207
 21
157.453202696825
 31
0.0
  0
LINE
  5
285
330
1F
100
AcDbEntity
  8
HIDDEN
100
AcDbLine
 10
216.0289088173207
 20
133.0986580932176
 30
0.0
 11
213.0289088173207
 21
133.0986580932176
 31
0.0
  0
LINE
  5
286
330
1F
100
AcDbEntity
  8
HIDDEN
100
AcDbLine
 10
213.0289088173207
 20
172.0774608682222
 30
0.0
 11
216.0289088173207
 21
172.0774608682222
 31
0.0
  0
LINE
  5
287
330
1F
100
AcDbEntity
  8
HIDDEN
100
AcDbLine
 10
216.0289088173207
 20
108.2450639585472
 30
0.0
 11
213.0289088173207
 21
108.2450639585472
 31
0.0
  0
LINE
  5
288
330
1F
100
AcDbEntity
  8
TANGENT_HIDDEN
100
AcDbLine
 10
213.0289088173207
 20
127.7385033595009
 30
0.0
 11
216.0289088173207
 21
127.7385033595009
 31
0.0
  0
LINE
  5
289
330
1F
100
AcDbEntity
  8
HIDDEN
100
AcDbLine
 10
216.0289088173207
 20
158.0224105192709
 30
0.0
 11
213.0289088173207
 21
158.0224105192709
 31
0.0
  0
LINE
  5
28A
330
1F
100
AcDbEntity
  8
HIDDEN
100
AcDbLine
 10
213.0289088173207
 20
114.8135991244431
 30
0.0
 11
216.0289088173207
 21
114.8135991244431
 31
0.0
  0
LINE
  5
28B
330
1F
100
AcDbEntity
  8
HIDDEN
100
AcDbLine
 10
213.0289088173207
 20
125.0224105192709
 30
0.0
 11
216.0289088173207
 21
125.0224105192709
 31
0.0
  0
LINE
  5
28C
330
1F
100
AcDbEntity
  8
TANGENT_HIDDEN
100
AcDbLine
 10
213.0289088173207
 20
130.9297194046622
 30
0.0
 11
216.0289088173207
 21
130.9297194046622
 31
0.0
  0
LINE
  5
28D
330
1F
100
AcDbEntity
  8
TANGENT_HIDDEN
100
AcDbLine
 10
213.0289088173207
 20
153.6041380093134
 30
0.0
 11
216.0289088173207
 21
153.6041380093134
 31
0.0
  0
LINE
  5
28E
330
1F
100
AcDbEntity
  8
HIDDEN
100
AcDbLine
 10
216.0289088173207
 20
154.5224105192709
 30
0.0
 11
213.0289088173207
 21
154.5224105192709
 31
0.0
  0
LINE
  5
28F
330
1F
100
AcDbEntity
  8
TANGENT_HIDDEN
100
AcDbLine
 10
213.0289088173207
 20
154.4406830292283
 30
0.0
 11
216.0289088173207
 21
154.4406830292283
 31
0.0
  0
LINE
  5
290
330
1F
100
AcDbEntity
  8
HIDDEN
100
AcDbLine
 10
213.0289088173207
 20
166.0224105192709
 30
0.0
 11
216.0289088173207
 21
166.0224105192709
 31
0.0
  0
LINE
  5
291
330
1F
100
AcDbEntity
  8
HIDDEN
100
AcDbLine
 10
216.0289088173207
 20
174.0224105192709
 30
0.0
 11
213.0289088173207
 21
174.0224105192709
 31
0.0
  0
LINE
  5
292
330
1F
100
AcDbEntity
  8
TANGENT_HIDDEN
100
AcDbLine
 10
213.0289088173207
 20
127.1151016338795
 30
0.0
 11
216.0289088173207
 21
127.1151016338795
 31
0.0
  0
LINE
  5
293
330
1F
100
AcDbEntity
  8
HIDDEN
100
AcDbLine
 10
216.0289088173207
 20
130.5224105192709
 30
0.0
 11
213.0289088173207
 21
130.5224105192709
 31
0.0
  0
LINE
  5
294
330
1F
100
AcDbEntity
  8
HIDDEN
100
AcDbLine
 10
213.0289088173207
 20
111.0224105192709
 30
0.0
 11
216.0289088173207
 21
111.0224105192709
 31
0.0
  0
LINE
  5
295
330
1F
100
AcDbEntity
  8
HIDDEN
100
AcDbLine
 10
216.0289088173207
 20
119.0224105192709
 30
0.0
 11
213.0289088173207
 21
119.0224105192709
 31
0.0
  0
LINE
  5
296
330
1F
100
AcDbEntity
  8
HIDDEN
100
AcDbLine
 10
216.0289088173207
 20
146.5224105192709
 30
0.0
 11
213.0289088173207
 21
146.5224105192709
 31
0.0
  0
LINE
  5
297
330
1F
100
AcDbEntity
  8
HIDDEN
100
AcDbLine
 10
213.0289088173207
 20
138.5224105192709
 30
0.0
 11
216.0289088173207
 21
138.5224105192709
 31
0.0
  0
LINE
  5
298
330
1F
100
AcDbEntity
  8
VISIBLE
100
AcDbLine
 10
216.0289088173207
 20
169.1457889621013
 30
0.0
 11
213.0289088173207
 21
169.1457889621013
 31
0.0
  0
LINE
  5
299
330
1F
100
AcDbEntity
  8
VISIBLE
100
AcDbLine
 10
216.0289088173207
 20
177.0224105192709
 30
0.0
 11
213.0289088173207
 21
177.0224105192709
 31
0.0
  0
LINE
  5
29A
330
1F
100
AcDbEntity
  8
VISIBLE
100
AcDbLine
 10
216.0289088173207
 20
119.2057095513521
 30
0.0
 11
213.0289088173207
 21
119.2057095513521
 31
0.0
  0
LINE
  5
29B
330
1F
100
AcDbEntity
  8
VISIBLE
100
AcDbLine
 10
213.0289088173207
 20
108.0224105192709
 30
0.0
 11
216.0289088173207
 21
108.0224105192709
 31
0.0
  0
LINE
  5
29C
330
1F
100
AcDbEntity
  8
VISIBLE
100
AcDbLine
 10
216.0289088173207
 20
119.2057095513521
 30
0.0
 11
216.0289088173207
 21
108.0224105192709
 31
0.0
  0
LINE
  5
29D
330
1F
100
AcDbEntity
  8
VISIBLE
100
AcDbLine
 10
216.0289088173207
 20
119.2057095513521
 30
0.0
 11
216.0289088173207
 21
169.1457889621012
 31
0.0
  0
LINE
  5
29E
330
1F
100
AcDbEntity
  8
VISIBLE
100
AcDbLine
 10
213.0289088173207
 20
119.2057095513521
 30
0.0
 11
213.0289088173207
 21
108.0224105192709
 31
0.0
  0
LINE
  5
29F
330
1F
100
AcDbEntity
  8
VISIBLE
100
AcDbLine
 10
213.0289088173207
 20
119.2057095513521
 30
0.0
 11
213.0289088173207
 21
169.1457889621012
 31
0.0
  0
LINE
  5
2A0
330
1F
100
AcDbEntity
  8
VISIBLE
100
AcDbLine
 10
216.0289088173207
 20
177.0224105192709
 30
0.0
 11
216.0289088173207
 21
169.1457889621012
 31
0.0
  0
LINE
  5
2A1
330
1F
100
AcDbEntity
  8
VISIBLE
100
AcDbLine
 10
213.0289088173207
 20
177.0224105192709
 30
0.0
 11
213.0289088173207
 21
169.1457889621012
 31
0.0
  0
LINE
  5
2A7
330
1F
100
AcDbEntity
  8
HIDDEN
100
AcDbLine
 10
71.89435222997938
 20
60.09824086603518
 30
0.0
 11
71.89435222997938
 21
63.09824086603518
 31
0.0
  0
LINE
  5
2A8
330
1F
100
AcDbEntity
  8
TANGENT_HIDDEN
100
AcDbLine
 10
135.8059031094101
 20
63.09824086603518
 30
0.0
 11
135.8059031094101
 21
60.09824086603518
 31
0.0
  0
LINE
  5
2A9
330
1F
100
AcDbEntity
  8
HIDDEN
100
AcDbLine
 10
52.82555979475109
 20
60.09824086603518
 30
0.0
 11
52.82555979475109
 21
63.09824086603518
 31
0.0
  0
LINE
  5
2AA
330
1F
100
AcDbEntity
  8
HIDDEN
100
AcDbLine
 10
71.65861443468734
 20
63.09824086603518
 30
0.0
 11
71.65861443468734
 21
60.09824086603518
 31
0.0
  0
LINE
  5
2AB
330
1F
100
AcDbEntity
  8
HIDDEN
100
AcDbLine
 10
66.69122506378869
 20
63.09824086603518
 30
0.0
 11
66.69122506378869
 21
60.09824086603518
 31
0.0
  0
LINE
  5
2AC
330
1F
100
AcDbEntity
  8
HIDDEN
100
AcDbLine
 10
59.12921809359128
 20
60.09824086603518
 30
0.0
 11
59.12921809359128
 21
63.09824086603518
 31
0.0
  0
LINE
  5
2AD
330
1F
100
AcDbEntity
  8
TANGENT_HIDDEN
100
AcDbLine
 10
67.17523689320178
 20
63.09824086603518
 30
0.0
 11
67.17523689320178
 21
60.09824086603518
 31
0.0
  0
LINE
  5
2AE
330
1F
100
AcDbEntity
  8
TANGENT_HIDDEN
100
AcDbLine
 10
71.68054353192377
 20
63.09824086603518
 30
0.0
 11
71.68054353192377
 21
60.09824086603518
 31
0.0
  0
LINE
  5
2AF
330
1F
100
AcDbEntity
  8
HIDDEN
100
AcDbLine
 10
138.8630082448946
 20
60.09824086603518
 30
0.0
 11
138.8630082448946
 21
63.09824086603518
 31
0.0
  0
LINE
  5
2B0
330
1F
100
AcDbEntity
  8
HIDDEN
100
AcDbLine
 10
79.89435222997938
 20
60.09824086603518
 30
0.0
 11
79.89435222997938
 21
63.09824086603518
 31
0.0
  0
LINE
  5
2B1
330
1F
100
AcDbEntity
  8
TANGENT_HIDDEN
100
AcDbLine
 10
79.63668533745088
 20
63.09824086603518
 30
0.0
 11
79.63668533745088
 21
60.09824086603518
 31
0.0
  0
LINE
  5
2B2
330
1F
100
AcDbEntity
  8
HIDDEN
100
AcDbLine
 10
70.07411079582258
 20
60.09824086603518
 30
0.0
 11
70.07411079582258
 21
63.09824086603518
 31
0.0
  0
LINE
  5
2B3
330
1F
100
AcDbEntity
  8
HIDDEN
100
AcDbLine
 10
62.07411079582258
 20
63.09824086603518
 30
0.0
 11
62.07411079582258
 21
60.09824086603518
 31
0.0
  0
LINE
  5
2B4
330
1F
100
AcDbEntity
  8
TANGENT_HIDDEN
100
AcDbLine
 10
74.20721323437559
 20
63.09824086603518
 30
0.0
 11
74.20721323437559
 21
60.09824086603518
 31
0.0
  0
LINE
  5
2B5
330
1F
100
AcDbEntity
  8
HIDDEN
100
AcDbLine
 10
55.07411079582258
 20
60.09824086603518
 30
0.0
 11
55.07411079582258
 21
63.09824086603518
 31
0.0
  0
LINE
  5
2B6
330
1F
100
AcDbEntity
  8
HIDDEN
100
AcDbLine
 10
47.07411079582258
 20
63.09824086603518
 30
0.0
 11
47.07411079582258
 21
60.09824086603518
 31
0.0
  0
LINE
  5
2B7
330
1F
100
AcDbEntity
  8
HIDDEN
100
AcDbLine
 10
153.2852133467506
 20
60.09824086603518
 30
0.0
 11
153.2852133467506
 21
63.09824086603518
 31
0.0
  0
LINE
  5
2B8
330
1F
100
AcDbEntity
  8
HIDDEN
100
AcDbLine
 10
160.0741107958226
 20
60.09824086603518
 30
0.0
 11
160.0741107958226
 21
63.09824086603518
 31
0.0
  0
LINE
  5
2B9
330
1F
100
AcDbEntity
  8
HIDDEN
100
AcDbLine
 10
132.0741107958226
 20
63.09824086603518
 30
0.0
 11
132.0741107958226
 21
60.09824086603518
 31
0.0
  0
LINE
  5
2BA
330
1F
100
AcDbEntity
  8
HIDDEN
100
AcDbLine
 10
95.0741107958226
 20
60.09824086603518
 30
0.0
 11
95.0741107958226
 21
63.09824086603518
 31
0.0
  0
LINE
  5
2BB
330
1F
100
AcDbEntity
  8
HIDDEN
100
AcDbLine
 10
87.0741107958226
 20
63.09824086603518
 30
0.0
 11
87.0741107958226
 21
60.09824086603518
 31
0.0
  0
LINE
  5
2BC
330
1F
100
AcDbEntity
  8
HIDDEN
100
AcDbLine
 10
112.0741107958226
 20
63.09824086603518
 30
0.0
 11
112.0741107958226
 21
60.09824086603518
 31
0.0
  0
LINE
  5
2BD
330
1F
100
AcDbEntity
  8
HIDDEN
100
AcDbLine
 10
120.0741107958226
 20
60.09824086603518
 30
0.0
 11
120.0741107958226
 21
63.09824086603518
 31
0.0
  0
LINE
  5
2BE
330
1F
100
AcDbEntity
  8
HIDDEN
100
AcDbLine
 10
63.62754876567008
 20
60.09824086603518
 30
0.0
 11
63.62754876567008
 21
63.09824086603518
 31
0.0
  0
LINE
  5
2BF
330
1F
100
AcDbEntity
  8
VISIBLE
100
AcDbLine
 10
164.0741107958226
 20
60.09824086603518
 30
0.0
 11
164.0741107958226
 21
63.09824086603518
 31
0.0
  0
LINE
  5
2C0
330
1F
100
AcDbEntity
  8
VISIBLE
100
AcDbLine
 10
67.47025786650278
 20
60.09824086603518
 30
0.0
 11
91.0741107958226
 21
60.09824086603518
 31
0.0
  0
LINE
  5
2C1
330
1F
100
AcDbEntity
  8
TANGENT_LINES
100
AcDbLine
 10
67.47025786650278
 20
60.09824086603518
 30
0.0
 11
67.47025786650278
 21
63.09824086603518
 31
0.0
  0
LINE
  5
2C2
330
1F
100
AcDbEntity
  8
TANGENT_LINES
100
AcDbLine
 10
136.0206812839252
 20
63.09824086603518
 30
0.0
 11
136.0206812839252
 21
60.09824086603518
 31
0.0
  0
LINE
  5
2C3
330
1F
100
AcDbEntity
  8
VISIBLE
100
AcDbLine
 10
91.0741107958226
 20
63.09824086603518
 30
0.0
 11
91.0741107958226
 21
60.09824086603518
 31
0.0
  0
LINE
  5
2C4
330
1F
100
AcDbEntity
  8
VISIBLE
100
AcDbLine
 10
59.07411079582258
 20
63.09824086603518
 30
0.0
 11
59.07411079582258
 21
60.09824086603518
 31
0.0
  0
LINE
  5
2C5
330
1F
100
AcDbEntity
  8
VISIBLE
100
AcDbLine
 10
45.46162389533119
 20
60.09824086603519
 30
0.0
 11
45.46162389533119
 21
63.09824086603519
 31
0.0
  0
LINE
  5
2C6
330
1F
100
AcDbEntity
  8
VISIBLE
100
AcDbLine
 10
44.07411079582258
 20
63.09824086603519
 30
0.0
 11
44.07411079582258
 21
60.09824086603519
 31
0.0
  0
LINE
  5
2C7
330
1F
100
AcDbEntity
  8
VISIBLE
100
AcDbLine
 10
67.47025786650278
 20
63.09824086603518
 30
0.0
 11
91.0741107958226
 21
63.09824086603518
 31
0.0
  0
LINE
  5
2C8
330
1F
100
AcDbEntity
  8
VISIBLE
100
AcDbLine
 10
164.0741107958226
 20
60.09824086603518
 30
0.0
 11
136.0206812839252
 21
60.09824086603518
 31
0.0
  0
LINE
  5
2C9
330
1F
100
AcDbEntity
  8
VISIBLE
100
AcDbLine
 10
91.07411079582259
 20
63.09824086603518
 30
0.0
 11
136.0206812839252
 21
63.09824086603518
 31
0.0
  0
LINE
  5
2CA
330
1F
100
AcDbEntity
  8
VISIBLE
100
AcDbLine
 10
45.46162389533113
 20
60.09824086603519
 30
0.0
 11
44.07411079582258
 21
60.09824086603519
 31
0.0
  0
LINE
  5
2CB
330
1F
100
AcDbEntity
  8
VISIBLE
100
AcDbLine
 10
45.46162389533114
 20
60.09824086603519
 30
0.0
 11
59.07411079582257
 21
60.09824086603519
 31
0.0
  0
LINE
  5
2CC
330
1F
100
AcDbEntity
  8
VISIBLE
100
AcDbLine
 10
164.0741107958226
 20
63.09824086603518
 30
0.0
 11
136.0206812839252
 21
63.09824086603518
 31
0.0
  0
LINE
  5
2CD
330
1F
100
AcDbEntity
  8
VISIBLE
100
AcDbLine
 10
45.46162389533113
 20
63.09824086603519
 30
0.0
 11
44.07411079582258
 21
63.09824086603519
 31
0.0
  0
LINE
  5
2CE
330
1F
100
AcDbEntity
  8
VISIBLE
100
AcDbLine
 10
45.46162389533114
 20
63.09824086603519
 30
0.0
 11
59.07411079582257
 21
63.09824086603519
 31
0.0
  0
LINE
  5
2CF
330
1F
100
AcDbEntity
  8
VISIBLE
100
AcDbLine
 10
67.47025786650278
 20
60.09824086603518
 30
0.0
 11
59.07411079582258
 21
60.09824086603518
 31
0.0
  0
LINE
  5
2D0
330
1F
100
AcDbEntity
  8
VISIBLE
100
AcDbLine
 10
91.07411079582259
 20
60.09824086603518
 30
0.0
 11
136.0206812839252
 21
60.09824086603518
 31
0.0
  0
LINE
  5
2D1
330
1F
100
AcDbEntity
  8
VISIBLE
100
AcDbLine
 10
67.47025786650278
 20
63.09824086603518
 30
0.0
 11
59.07411079582258
 21
63.09824086603518
 31
0.0
  0
LINE
  5
2D4
330
1F
100
AcDbEntity
  8
VISIBLE
100
AcDbLine
 10
272.9777186088633
 20
93.56250833498439
 30
0.0
 11
271.9170584370835
 21
94.17488077068018
 31
0.0
  0
LINE
  5
2D5
330
1F
100
AcDbEntity
  8
VISIBLE
100
AcDbLine
 10
240.6870598920072
 20
83.7504840148164
 30
0.0
 11
249.0322821262332
 21
86.607250492701
 31
0.0
  0
LINE
  5
2D6
330
1F
100
AcDbEntity
  8
TANGENT_LINES
100
AcDbLine
 10
240.6870598920072
 20
83.7504840148164
 30
0.0
 11
239.6263997202274
 21
84.36285645051218
 31
0.0
  0
LINE
  5
2D7
330
1F
100
AcDbEntity
  8
TANGENT_LINES
100
AcDbLine
 10
263.8626343460617
 20
90.42397481261239
 30
0.0
 11
264.9232945178415
 21
89.8116023769166
 31
0.0
  0
LINE
  5
2D8
330
1F
100
AcDbEntity
  8
VISIBLE
100
AcDbLine
 10
247.9716219544534
 20
87.21962292839679
 30
0.0
 11
249.0322821262332
 21
86.607250492701
 31
0.0
  0
LINE
  5
2D9
330
1F
100
AcDbEntity
  8
VISIBLE
100
AcDbLine
 10
237.738056999221
 20
78.88967653145745
 30
0.0
 11
236.6773968274412
 21
79.50204896715324
 31
0.0
  0
LINE
  5
2DA
330
1F
100
AcDbEntity
  8
VISIBLE
100
AcDbLine
 10
232.9058327291732
 20
55.71183850329277
 30
0.0
 11
231.8451725573934
 21
56.32421093898857
 31
0.0
  0
LINE
  5
2DB
330
1F
100
AcDbEntity
  8
VISIBLE
100
AcDbLine
 10
232.0794863307225
 20
52.73094143858497
 30
0.0
 11
233.1401465025023
 21
52.11856900288917
 31
0.0
  0
LINE
  5
2DC
330
1F
100
AcDbEntity
  8
TANGENT_LINES
100
AcDbLine
 10
243.9278814039883
 20
77.68478383099253
 30
0.0
 11
244.9885415757681
 21
77.07241139529674
 31
0.0
  0
LINE
  5
2DD
330
1F
100
AcDbEntity
  8
TANGENT_LINES
100
AcDbLine
 10
242.0082731328144
 20
65.42087558830936
 30
0.0
 11
243.0689333045942
 21
64.80850315261355
 31
0.0
  0
LINE
  5
2DE
330
1F
100
AcDbEntity
  8
VISIBLE
100
AcDbLine
 10
265.9282088520669
 20
79.39734007097012
 30
0.0
 11
264.8675486802871
 21
80.0097125066659
 31
0.0
  0
LINE
  5
2DF
330
1F
100
AcDbEntity
  8
VISIBLE
100
AcDbLine
 10
271.0272283656597
 20
82.34126035974606
 30
0.0
 11
269.9665681938799
 21
82.95363279544185
 31
0.0
  0
LINE
  5
2E0
330
1F
100
AcDbEntity
  8
VISIBLE
100
AcDbLine
 10
265.9282088520669
 20
79.39734007097012
 30
0.0
 11
271.0272283656597
 21
82.34126035974606
 31
0.0
  0
LINE
  5
2E1
330
1F
100
AcDbEntity
  8
VISIBLE
100
AcDbLine
 10
264.8675486802871
 20
80.0097125066659
 30
0.0
 11
269.9665681938799
 21
82.95363279544185
 31
0.0
  0
LINE
  5
2E2
330
1F
100
AcDbEntity
  8
VISIBLE
100
AcDbLine
 10
239.6263997202274
 20
84.36285645051218
 30
0.0
 11
247.9716219544534
 21
87.21962292839679
 31
0.0
  0
LINE
  5
2E3
330
1F
100
AcDbEntity
  8
VISIBLE
100
AcDbLine
 10
265.9282088520669
 20
89.19529904210283
 30
0.0
 11
271.0272283656597
 21
92.13921933087877
 31
0.0
  0
LINE
  5
2E4
330
1F
100
AcDbEntity
  8
VISIBLE
100
AcDbLine
 10
235.5093772345246
 20
52.74033079866174
 30
0.0
 11
249.0322821262332
 21
63.22937683044415
 31
0.0
  0
ELLIPSE
  5
2E5
330
1F
100
AcDbEntity
  8
VISIBLE
100
AcDbEllipse
 10
268.4777186088633
 20
85.76827970092444
 30
0.0
 11
4.5
 21
7.794228634059948
 31
0.0
210
0.0
220
0.0
230
1.0
 40
0.5773502691896257
 41
3.319929891662214
 42
7.661188625584903
  0
ELLIPSE
  5
2E6
330
1F
100
AcDbEntity
  8
VISIBLE
100
AcDbEllipse
 10
256.8104567192853
 20
80.25692777966229
 30
0.0
 11
1.0
 21
1.732050807568882
 31
0.0
210
0.0
220
0.0
230
1.0
 40
0.5773502691896235
 41
3.700582519614783
 42
5.724195441154598
  0
ELLIPSE
  5
2E7
330
1F
100
AcDbEntity
  8
VISIBLE
100
AcDbEllipse
 10
249.0322821262332
 20
74.5414517131682
 30
0.0
 11
1.0
 21
1.732050807568878
 31
0.0
210
0.0
220
0.0
230
1.0
 40
0.577350269189626
 41
0.0
 42
6.283185307179586
  0
ELLIPSE
  5
2E8
330
1F
100
AcDbEntity
  8
VISIBLE
100
AcDbEllipse
 10
247.9716219544534
 20
75.153824148864
 30
0.0
 11
1.0
 21
1.732050807568882
 31
0.0
210
0.0
220
0.0
230
1.0
 40
0.5773502691896235
 41
3.700582519614783
 42
5.724195441154598
  0
ELLIPSE
  5
2E9
330
1F
100
AcDbEntity
  8
VISIBLE
100
AcDbEllipse
 10
268.4777186088633
 20
85.76827970092444
 30
0.0
 11
3.5
 21
6.062177826491066
 31
0.0
210
0.0
220
0.0
230
1.0
 40
0.5773502691896264
 41
1.326497689354601
 42
3.385891291030099
  0
ELLIPSE
  5
2EA
330
1F
100
AcDbEntity
  8
VISIBLE
100
AcDbEllipse
 10
227.4019710496015
 20
66.13712635291026
 30
0.0
 11
11.75
 21
20.35159698893432
 31
0.0
210
0.0
220
0.0
230
1.0
 40
0.5773502691896255
 41
5.000745524210334
 42
5.602546781688734
  0
ELLIPSE
  5
2EB
330
1F
100
AcDbEntity
  8
VISIBLE
100
AcDbEllipse
 10
267.4170584370835
 20
86.38065213662023
 30
0.0
 11
3.5
 21
6.062177826491066
 31
0.0
210
0.0
220
0.0
230
1.0
 40
0.5773502691896264
 41
3.293701415736611
 42
3.385891291030093
  0
ELLIPSE
  5
2EC
330
1F
100
AcDbEntity
  8
VISIBLE
100
AcDbEllipse
 10
234.8901465025023
 20
55.1496579161347
 30
0.0
 11
1.0
 21
1.732050807568878
 31
0.0
210
0.0
220
0.0
230
1.0
 40
0.577350269189626
 41
0.0
 42
6.283185307179586
  0
ELLIPSE
  5
2ED
330
1F
100
AcDbEntity
  8
VISIBLE
100
AcDbEllipse
 10
240.7651835938176
 20
65.4818331001903
 30
0.0
 11
1.0
 21
1.732050807568882
 31
0.0
210
0.0
220
0.0
230
1.0
 40
0.5773502691896235
 41
3.700582519614743
 42
5.000745524210318
  0
ELLIPSE
  5
2EE
330
1F
100
AcDbEntity
  8
VISIBLE
100
AcDbEllipse
 10
242.5214209482958
 20
76.70200447115575
 30
0.0
 11
1.0
 21
1.732050807568882
 31
0.0
210
0.0
220
0.0
230
1.0
 40
0.5773502691896235
 41
5.602546781688726
 42
5.724195441154598
  0
ELLIPSE
  5
2EF
330
1F
100
AcDbEntity
  8
VISIBLE
100
AcDbEllipse
 10
226.0702049130964
 20
64.88298198300346
 30
0.0
 11
9.375
 21
16.23797632095823
 31
0.0
210
0.0
220
0.0
230
1.0
 40
0.5773502691896256
 41
4.46866979087223
 42
5.992627540136757
  0
ELLIPSE
  5
2F0
330
1F
100
AcDbEntity
  8
VISIBLE
100
AcDbEllipse
 10
233.8294863307225
 20
55.7620303518305
 30
0.0
 11
1.0
 21
1.732050807568875
 31
0.0
210
0.0
220
0.0
230
1.0
 40
0.5773502691896255
 41
3.700582519614743
 42
5.724195441154619
  0
ELLIPSE
  5
2F1
330
1F
100
AcDbEntity
  8
VISIBLE
100
AcDbEllipse
 10
268.4777186088633
 20
85.76827970092444
 30
0.0
 11
3.5
 21
6.062177826491066
 31
0.0
210
0.0
220
0.0
230
1.0
 40
0.5773502691896264
 41
4.468090342944384
 42
6.527483944619887
  0
ELLIPSE
  5
2F2
330
1F
100
AcDbEntity
  8
VISIBLE
100
AcDbEllipse
 10
225.0095447413166
 20
65.49535441869926
 30
0.0
 11
9.375
 21
16.23797632095823
 31
0.0
210
0.0
220
0.0
230
1.0
 40
0.5773502691896256
 41
4.468669790872228
 42
5.992627540136757
  0
ELLIPSE
  5
2F3
330
1F
100
AcDbEntity
  8
VISIBLE
100
AcDbEllipse
 10
240.1934473614014
 20
80.66517607012615
 30
0.0
 11
1.0
 21
1.732050807568878
 31
0.0
210
0.0
220
0.0
230
1.0
 40
0.577350269189626
 41
0.0
 42
6.283185307179586
  0
ELLIPSE
  5
2F4
330
1F
100
AcDbEntity
  8
VISIBLE
100
AcDbEllipse
 10
258.9992543661385
 20
96.55047350357019
 30
0.0
 11
7.500000000000028
 21
12.99038105676658
 31
0.0
210
0.0
220
0.0
230
1.0
 40
0.5773502691896253
 41
2.70525293243723
 42
4.519595971995114
  0
ELLIPSE
  5
2F5
330
1F
100
AcDbEntity
  8
VISIBLE
100
AcDbEllipse
 10
257.8711168910651
 20
79.64455534396649
 30
0.0
 11
1.0
 21
1.732050807568878
 31
0.0
210
0.0
220
0.0
230
1.0
 40
0.577350269189626
 41
0.0
 42
6.283185307179586
  0
ELLIPSE
  5
2F6
330
1F
100
AcDbEntity
  8
VISIBLE
100
AcDbEllipse
 10
267.4170584370835
 20
86.38065213662023
 30
0.0
 11
3.5
 21
6.062177826491066
 31
0.0
210
0.0
220
0.0
230
1.0
 40
0.5773502691896264
 41
4.468090342944389
 42
6.131076545032827
  0
ELLIPSE
  5
2F7
330
1F
100
AcDbEntity
  8
VISIBLE
100
AcDbEllipse
 10
241.8258437655974
 20
64.86946066449451
 30
0.0
 11
1.0
 21
1.732050807568882
 31
0.0
210
0.0
220
0.0
230
1.0
 40
0.5773502691896235
 41
1.859152870620547
 42
5.00074552421031
  0
ELLIPSE
  5
2F8
330
1F
100
AcDbEntity
  8
VISIBLE
100
AcDbEllipse
 10
239.1327871896216
 20
81.27754850582194
 30
0.0
 11
1.0
 21
1.732050807568882
 31
0.0
210
0.0
220
0.0
230
1.0
 40
0.5773502691896235
 41
3.700582519614783
 42
5.724195441154598
  0
ELLIPSE
  5
2F9
330
1F
100
AcDbEntity
  8
VISIBLE
100
AcDbEllipse
 10
258.7967595612711
 20
64.08429585717651
 30
0.0
 11
7.500000000000028
 21
12.99038105676658
 31
0.0
210
0.0
220
0.0
230
1.0
 40
0.5773502691896253
 41
0.1783372380724218
 42
1.955021972839466
  0
ELLIPSE
  5
2FA
330
1F
100
AcDbEntity
  8
VISIBLE
100
AcDbEllipse
 10
228.4626312213813
 20
65.52475391721447
 30
0.0
 11
11.75
 21
20.35159698893432
 31
0.0
210
0.0
220
0.0
230
1.0
 40
0.5773502691896255
 41
5.000745524210332
 42
5.602546781688734
  0
ELLIPSE
  5
2FB
330
1F
100
AcDbEntity
  8
VISIBLE
100
AcDbEllipse
 10
234.8901465025023
 20
55.1496579161347
 30
0.0
 11
1.75
 21
3.031088913245533
 31
0.0
210
0.0
220
0.0
230
1.0
 40
0.5773502691896264
 41
1.715672373609455
 42
4.179884866554454
  0
ELLIPSE
  5
2FC
330
1F
100
AcDbEntity
  8
VISIBLE
100
AcDbEllipse
 10
257.9385941943586
 20
97.16284593926598
 30
0.0
 11
7.5
 21
12.99038105676658
 31
0.0
210
0.0
220
0.0
230
1.0
 40
0.5773502691896258
 41
3.21236239025201
 42
4.519595971995112
  0
ELLIPSE
  5
2FD
330
1F
100
AcDbEntity
  8
VISIBLE
100
AcDbEllipse
 10
228.4626312213813
 20
65.52475391721447
 30
0.0
 11
9.75
 21
16.88749537379655
 31
0.0
210
0.0
220
0.0
230
1.0
 40
0.5773502691896258
 41
5.000745524210335
 42
5.602546781688733
  0
ELLIPSE
  5
2FE
330
1F
100
AcDbEntity
  8
VISIBLE
100
AcDbEllipse
 10
233.8294863307225
 20
55.7620303518305
 30
0.0
 11
1.75
 21
3.031088913245533
 31
0.0
210
0.0
220
0.0
230
1.0
 40
0.5773502691896264
 41
1.715672373609449
 42
3.141592653589791
  0
ELLIPSE
  5
2FF
330
1F
100
AcDbEntity
  8
VISIBLE
100
AcDbEllipse
 10
267.4170584370835
 20
86.38065213662023
 30
0.0
 11
4.5
 21
7.794228634059948
 31
0.0
210
0.0
220
0.0
230
1.0
 40
0.5773502691896257
 41
0.0
 42
1.378003318405317
  0
ELLIPSE
  5
300
330
1F
100
AcDbEntity
  8
VISIBLE
100
AcDbEllipse
 10
243.5820811200756
 20
76.08963203545994
 30
0.0
 11
1.0
 21
1.732050807568882
 31
0.0
210
0.0
220
0.0
230
1.0
 40
0.5773502691896235
 41
5.602546781688733
 42
8.74413943527852
  0
ELLIPSE
  5
301
330
1F
100
AcDbEntity
  8
VISIBLE
100
AcDbEllipse
 10
240.1934473614014
 20
80.66517607012615
 30
0.0
 11
1.75
 21
3.03108891324554
 31
0.0
210
0.0
220
0.0
230
1.0
 40
0.5773502691896253
 41
0.5846019789340989
 42
2.481755807082812
  0
ELLIPSE
  5
302
330
1F
100
AcDbEntity
  8
VISIBLE
100
AcDbEllipse
 10
239.1327871896216
 20
81.27754850582194
 30
0.0
 11
1.75
 21
3.03108891324554
 31
0.0
210
0.0
220
0.0
230
1.0
 40
0.5773502691896253
 41
0.5846019789340989
 42
2.481755807082817
  0
ENDSEC
  0
SECTION
  2
OBJECTS
  0
DICTIONARY
  5
C
330
0
100
AcDbDictionary
  3
ACAD_FIELDLIST
350
266
  3
ACAD_GROUP
350
D
  3
ACAD_LAYOUT
350
1A
  3
ACAD_MATERIAL
350
43
  3
ACAD_MLEADERSTYLE
350
326
  3
ACAD_MLINESTYLE
350
17
  3
ACAD_PLOTSETTINGS
350
19
  3
ACAD_SCALELIST
350
47
  3
ACAD_VISUALSTYLE
350
2A
  3
ACDBHEADERROUNDTRIPXREC
350
305
  3
ACDBVARIABLEDICTIONARY
350
6C
  3
ONSHAPE_DATA
350
303
  0
DICTIONARY
  5
AB
330
AA
100
AcDbDictionary
280
     1
  0
DICTIONARY
  5
B2
330
B1
100
AcDbDictionary
280
     1
  0
DICTIONARY
  5
32B
330
C3
100
AcDbDictionary
280
     1
  3
ACAD_MTEXT_RT
360
32C
  0
DICTIONARY
  5
32D
330
C4
100
AcDbDictionary
280
     1
  3
ACAD_MTEXT_RT
360
32E
  0
DICTIONARY
  5
D2
330
D1
100
AcDbDictionary
280
     1
  3
ACAD_MTEXT_RT
360
32F
  0
DICTIONARY
  5
D4
330
D3
100
AcDbDictionary
280
     1
  3
ACAD_MTEXT_RT
360
330
  0
DICTIONARY
  5
D6
330
D5
100
AcDbDictionary
280
     1
  3
ACAD_MTEXT_RT
360
331
  0
DICTIONARY
  5
D9
330
D8
100
AcDbDictionary
280
     1
  0
DICTIONARY
  5
E0
330
DF
100
AcDbDictionary
280
     1
  0
DICTIONARY
  5
E7
330
E6
100
AcDbDictionary
280
     1
  3
ACAD_MTEXT_RT
360
332
  0
DICTIONARY
  5
EA
330
E9
100
AcDbDictionary
280
     1
  3
ACAD_MTEXT_RT
360
333
  0
DICTIONARY
  5
EF
330
EE
100
AcDbDictionary
280
     1
  0
DICTIONARY
  5
F9
330
F8
100
AcDbDictionary
280
     1
  0
DICTIONARY
  5
10D
330
10C
100
AcDbDictionary
280
     1
  0
DICTIONARY
  5
11E
330
11D
100
AcDbDictionary
280
     1
  0
DICTIONARY
  5
12D
330
12C
100
AcDbDictionary
280
     1
  0
DICTIONARY
  5
13C
330
13B
100
AcDbDictionary
280
     1
  0
DICTIONARY
  5
14B
330
14A
100
AcDbDictionary
280
     1
  0
DICTIONARY
  5
15A
330
159
100
AcDbDictionary
280
     1
  0
DICTIONARY
  5
16B
330
16A
100
AcDbDictionary
280
     1
  0
DICTIONARY
  5
179
330
178
100
AcDbDictionary
280
     1
  0
DICTIONARY
  5
187
330
186
100
AcDbDictionary
280
     1
  0
DICTIONARY
  5
195
330
194
100
AcDbDictionary
280
     1
  0
DICTIONARY
  5
1A3
330
1A2
100
AcDbDictionary
280
     1
  0
DICTIONARY
  5
1B1
330
1B0
100
AcDbDictionary
280
     1
  0
DICTIONARY
  5
1BF
330
1BE
100
AcDbDictionary
280
     1
  0
DICTIONARY
  5
1CD
330
1CC
100
AcDbDictionary
280
     1
  0
DICTIONARY
  5
1DC
330
1DB
100
AcDbDictionary
280
     1
  0
DICTIONARY
  5
1ED
330
1EC
100
AcDbDictionary
280
     1
  0
DICTIONARY
  5
1FD
330
1FC
100
AcDbDictionary
280
     1
  0
DICTIONARY
  5
20E
330
20D
100
AcDbDictionary
280
     1
  0
DICTIONARY
  5
21D
330
21C
100
AcDbDictionary
280
     1
  0
DICTIONARY
  5
22C
330
22B
100
AcDbDictionary
280
     1
  0
DICTIONARY
  5
23B
330
23A
100
AcDbDictionary
280
     1
  0
DICTIONARY
  5
248
330
247
100
AcDbDictionary
280
     1
  0
DICTIONARY
  5
257
330
256
100
AcDbDictionary
280
     1
  0
ACAD_PROXY_OBJECT
  5
266
102
{ACAD_REACTORS
330
C
102
}
330
C
100
AcDbProxyObject
 90
      499
 91
      509
 93
        3
310
80
  0
DICTIONARY
  5
D
102
{ACAD_REACTORS
330
C
102
}
330
C
100
AcDbDictionary
  0
DICTIONARY
  5
1A
102
{ACAD_REACTORS
330
C
102
}
330
C
100
AcDbDictionary
  0
DICTIONARY
  5
43
102
{ACAD_REACTORS
330
C
102
}
330
C
100
AcDbDictionary
  3
BYBLOCK
350
45
  3
BYLAYER
350
44
  3
GLOBAL
350
46
  0
DICTIONARY
  5
326
102
{ACAD_REACTORS
330
C
102
}
330
C
100
AcDbDictionary
  0
DICTIONARY
  5
17
102
{ACAD_REACTORS
330
C
102
}
330
C
100
AcDbDictionary
  3
STANDARD
350
18
  0
DICTIONARY
  5
19
102
{ACAD_REACTORS
330
C
102
}
330
C
100
AcDbDictionary
  0
DICTIONARY
  5
47
102
{ACAD_REACTORS
330
C
102
}
330
C
100
AcDbDictionary
  3
A0
350
48
  3
A1
350
49
  3
A2
350
4A
  3
A3
350
4B
  3
A4
350
4C
  3
A5
350
4D
  3
A6
350
4E
  3
A7
350
4F
  3
A8
350
50
  3
A9
350
51
  3
B0
350
52
  3
B1
350
53
  3
B2
350
54
  3
B3
350
55
  3
B4
350
56
  3
B5
350
57
  3
B6
350
58
  3
B7
350
59
  3
B8
350
5A
  3
B9
350
5B
  3
C0
350
5C
  3
C1
350
5D
  3
C2
350
5E
  3
C3
350
5F
  3
C4
350
60
  3
C5
350
61
  3
C6
350
62
  3
C7
350
63
  3
C8
350
64
  3
C9
350
65
  3
D0
350
66
  3
D1
350
67
  3
D2
350
68
  0
DICTIONARY
  5
2A
102
{ACAD_REACTORS
330
C
102
}
330
C
100
AcDbDictionary
  3
2DWIREFRAME
350
2F
  3
BASIC
350
32
  3
BRIGHTEN
350
36
  3
COLORCHANGE
350
3A
  3
CONCEPTUAL
350
34
  3
DIM
350
35
  3
EDGECOLOROFF
350
3D
  3
FACEPATTERN
350
39
  3
FLAT
350
2B
  3
FLATWITHEDGES
350
2C
  3
GOURAUD
350
2D
  3
GOURAUDWITHEDGES
350
2E
  3
HIDDEN
350
31
  3
JITTEROFF
350
3B
  3
LINEPATTERN
350
38
  3
OVERHANGOFF
350
3C
  3
REALISTIC
350
33
  3
SHADED
350
42
  3
SHADED_WITH_EDGES
350
41
  3
SHADES_OF_GRAY
350
3E
  3
SKETCHY
350
3F
  3
THICKEN
350
37
  3
WIREFRAME
350
30
  3
X-RAY
350
40
  0
DICTIONARY
  5
305
102
{ACAD_REACTORS
330
C
102
}
330
C
100
AcDbDictionary
  3
CEPSNTYPE
350
30E
  3
DIMSTYLEDATA
350
324
  3
FINGERPRINTGUID
350
30F
  3
HYPERLINKBASE
350
308
  3
INSUNITS
350
30D
  3
LAYOUTDICT
350
30A
  3
LWETCUNION
350
30C
  3
PLOTSETDICT
350
30B
  3
PSVPSCALE
350
311
  3
PUCSBASE
350
314
  3
PUCSORGBACK
350
31A
  3
PUCSORGBOTTOM
350
316
  3
PUCSORGFRONT
350
319
  3
PUCSORGLEFT
350
317
  3
PUCSORGRIGHT
350
318
  3
PUCSORGTOP
350
315
  3
PUCSORTHOREF
350
312
  3
PUCSORTHOVIEW
350
313
  3
STYLESHEET
350
309
  3
TSTACKALIGN
350
306
  3
TSTACKSIZE
350
307
  3
UCSBASE
350
31D
  3
UCSORGBACK
350
323
  3
UCSORGBOTTOM
350
31F
  3
UCSORGFRONT
350
322
  3
UCSORGLEFT
350
320
  3
UCSORGRIGHT
350
321
  3
UCSORGTOP
350
31E
  3
UCSORTHOREF
350
31B
  3
UCSORTHOVIEW
350
31C
  3
VERSIONGUID
350
310
  0
DICTIONARY
  5
6C
102
{ACAD_REACTORS
330
C
102
}
330
C
100
AcDbDictionary
  3
CANNOSCALE
350
334
  3
CTABLESTYLE
350
325
  3
DIMASSOC
350
329
  3
HIDETEXT
350
32A
  3
MSLTSCALE
350
335
  3
OLEFRAME
350
6D
  0
DICTIONARY
  5
303
102
{ACAD_REACTORS
330
C
102
}
330
C
100
AcDbDictionary
280
     1
  3
DIM_UNITS
360
304
  0
XRECORD
  5
32C
102
{ACAD_REACTORS
330
32B
102
}
330
32B
100
AcDbXrecord
 40
3771.0
  1
{\pxql;MATERIAL}
  0
XRECORD
  5
32E
102
{ACAD_REACTORS
330
32D
102
}
330
32D
100
AcDbXrecord
 40
16528.0
  1
{\pxqc;Acier Inoxydable }
  0
XRECORD
  5
32F
102
{ACAD_REACTORS
330
D2
102
}
330
D2
100
AcDbXrecord
 40
29186.0
  1
{\pxqc;Platine support moteur}
  0
XRECORD
  5
330
102
{ACAD_REACTORS
330
D4
102
}
330
D4
100
AcDbXrecord
 40
11153.0
  1
{\pxqc;Épaisseur 3 mm}
  0
XRECORD
  5
331
102
{ACAD_REACTORS
330
D6
102
}
330
D6
100
AcDbXrecord
 40
7095.0
  1
{\pxqc;Quantité 2}
  0
XRECORD
  5
332
102
{ACAD_REACTORS
330
E7
102
}
330
E7
100
AcDbXrecord
 40
299.0
  1
{\pxqc;1}
  0
XRECORD
  5
333
102
{ACAD_REACTORS
330
EA
102
}
330
EA
100
AcDbXrecord
 40
812.0
  1
{\pxqc;1:1}
  0
MATERIAL
  5
45
102
{ACAD_REACTORS
330
43
102
}
102
{ACAD_XDICTIONARY
360
338
102
}
330
43
100
AcDbMaterial
  1
BYBLOCK
  0
MATERIAL
  5
44
102
{ACAD_REACTORS
330
43
102
}
102
{ACAD_XDICTIONARY
360
336
102
}
330
43
100
AcDbMaterial
  1
BYLAYER
  0
MATERIAL
  5
46
102
{ACAD_REACTORS
330
43
102
}
102
{ACAD_XDICTIONARY
360
33A
102
}
330
43
100
AcDbMaterial
  1
GLOBAL
  0
MLINESTYLE
  5
18
102
{ACAD_REACTORS
330
17
102
}
330
17
100
AcDbMlineStyle
  2
Standard
 70
     0
  3

 62
   256
 51
90.0
 52
90.0
 71
     2
 49
0.5
 62
   256
  6
BYLAYER
 49
-0.5
 62
   256
  6
BYLAYER
  0
ACAD_PROXY_OBJECT
  5
48
102
{ACAD_REACTORS
330
47
102
}
330
47
100
AcDbProxyObject
 90
      499
 91
      503
 93
       41
310
903313A31580
  0
ACAD_PROXY_OBJECT
  5
49
102
{ACAD_REACTORS
330
47
102
}
330
47
100
AcDbProxyObject
 90
      499
 91
      503
 93
      105
310
903313A324000000000000004000
  0
ACAD_PROXY_OBJECT
  5
4A
102
{ACAD_REACTORS
330
47
102
}
330
47
100
AcDbProxyObject
 90
      499
 91
      503
 93
      105
310
903313A344000000000000104000
  0
ACAD_PROXY_OBJECT
  5
4B
102
{ACAD_REACTORS
330
47
102
}
330
47
100
AcDbProxyObject
 90
      499
 91
      503
 93
      105
310
903313A354000000000000144000
  0
ACAD_PROXY_OBJECT
  5
4C
102
{ACAD_REACTORS
330
47
102
}
330
47
100
AcDbProxyObject
 90
      499
 91
      503
 93
      105
310
903313A384000000000000204000
  0
ACAD_PROXY_OBJECT
  5
4D
102
{ACAD_REACTORS
330
47
102
}
330
47
100
AcDbProxyObject
 90
      499
 91
      503
 93
      113
310
904313A31304000000000000244000
  0
ACAD_PROXY_OBJECT
  5
4E
102
{ACAD_REACTORS
330
47
102
}
330
47
100
AcDbProxyObject
 90
      499
 91
      503
 93
      113
310
904313A31364000000000000304000
  0
ACAD_PROXY_OBJECT
  5
4F
102
{ACAD_REACTORS
330
47
102
}
330
47
100
AcDbProxyObject
 90
      499
 91
      503
 93
      113
310
904313A32304000000000000344000
  0
ACAD_PROXY_OBJECT
  5
50
102
{ACAD_REACTORS
330
47
102
}
330
47
100
AcDbProxyObject
 90
      499
 91
      503
 93
      113
310
904313A333040000000000003E4000
  0
ACAD_PROXY_OBJECT
  5
51
102
{ACAD_REACTORS
330
47
102
}
330
47
100
AcDbProxyObject
 90
      499
 91
      503
 93
      113
310
904313A34304000000000000444000
  0
ACAD_PROXY_OBJECT
  5
52
102
{ACAD_REACTORS
330
47
102
}
330
47
100
AcDbProxyObject
 90
      499
 91
      503
 93
      113
310
904313A35304000000000000494000
  0
ACAD_PROXY_OBJECT
  5
53
102
{ACAD_REACTORS
330
47
102
}
330
47
100
AcDbProxyObject
 90
      499
 91
      503
 93
      121
310
905313A3130304000000000000594000
  0
ACAD_PROXY_OBJECT
  5
54
102
{ACAD_REACTORS
330
47
102
}
330
47
100
AcDbProxyObject
 90
      499
 91
      503
 93
      105
310
903323A310000000000000010100
  0
ACAD_PROXY_OBJECT
  5
55
102
{ACAD_REACTORS
330
47
102
}
330
47
100
AcDbProxyObject
 90
      499
 91
      503
 93
      105
310
903343A310000000000000410100
  0
ACAD_PROXY_OBJECT
  5
56
102
{ACAD_REACTORS
330
47
102
}
330
47
100
AcDbProxyObject
 90
      499
 91
      503
 93
      105
310
903383A310000000000000810100
  0
ACAD_PROXY_OBJECT
  5
57
102
{ACAD_REACTORS
330
47
102
}
330
47
100
AcDbProxyObject
 90
      499
 91
      503
 93
      113
310
90431303A310000000000000910100
  0
ACAD_PROXY_OBJECT
  5
58
102
{ACAD_REACTORS
330
47
102
}
330
47
100
AcDbProxyObject
 90
      499
 91
      503
 93
      121
310
9053130303A310000000000001650100
  0
ACAD_PROXY_OBJECT
  5
59
102
{ACAD_REACTORS
330
47
102
}
330
47
100
AcDbProxyObject
 90
      499
 91
      503
 93
      257
310
90E312F31323822203D2031272D3022000000000000200FC000000000000284000
  0
ACAD_PROXY_OBJECT
  5
5A
102
{ACAD_REACTORS
330
47
102
}
330
47
100
AcDbProxyObject
 90
      499
 91
      503
 93
      249
310
90D312F363422203D2031272D3022000000000000240FC000000000000284000
  0
ACAD_PROXY_OBJECT
  5
5B
102
{ACAD_REACTORS
330
47
102
}
330
47
100
AcDbProxyObject
 90
      499
 91
      503
 93
      249
310
90D312F333222203D2031272D3022000000000000280FC000000000000284000
  0
ACAD_PROXY_OBJECT
  5
5C
102
{ACAD_REACTORS
330
47
102
}
330
47
100
AcDbProxyObject
 90
      499
 91
      503
 93
      249
310
90D312F313622203D2031272D30220000000000002C0FC000000000000284000
  0
ACAD_PROXY_OBJECT
  5
5D
102
{ACAD_REACTORS
330
47
102
}
330
47
100
AcDbProxyObject
 90
      499
 91
      503
 93
      249
310
90D332F333222203D2031272D30220000000000002E0FC000000000000284000
  0
ACAD_PROXY_OBJECT
  5
5E
102
{ACAD_REACTORS
330
47
102
}
330
47
100
AcDbProxyObject
 90
      499
 91
      503
 93
      241
310
90C312F3822203D2031272D3022000000000000300FC000000000000284000
  0
ACAD_PROXY_OBJECT
  5
5F
102
{ACAD_REACTORS
330
47
102
}
330
47
100
AcDbProxyObject
 90
      499
 91
      503
 93
      249
310
90D332F313622203D2031272D3022000000000000320FC000000000000284000
  0
ACAD_PROXY_OBJECT
  5
60
102
{ACAD_REACTORS
330
47
102
}
330
47
100
AcDbProxyObject
 90
      499
 91
      503
 93
      241
310
90C312F3422203D2031272D3022000000000000340FC000000000000284000
  0
ACAD_PROXY_OBJECT
  5
61
102
{ACAD_REACTORS
330
47
102
}
330
47
100
AcDbProxyObject
 90
      499
 91
      503
 93
      241
310
90C332F3822203D2031272D3022000000000000360FC000000000000284000
  0
ACAD_PROXY_OBJECT
  5
62
102
{ACAD_REACTORS
330
47
102
}
330
47
100
AcDbProxyObject
 90
      499
 91
      503
 93
      241
310
90C312F3222203D2031272D3022000000000000380FC000000000000284000
  0
ACAD_PROXY_OBJECT
  5
63
102
{ACAD_REACTORS
330
47
102
}
330
47
100
AcDbProxyObject
 90
      499
 91
      503
 93
      241
310
90C332F3422203D2031272D30220000000000003A0FC000000000000284000
  0
ACAD_PROXY_OBJECT
  5
64
102
{ACAD_REACTORS
330
47
102
}
330
47
100
AcDbProxyObject
 90
      499
 91
      503
 93
      161
310
90A3122203D2031272D30224000000000000284000
  0
ACAD_PROXY_OBJECT
  5
65
102
{ACAD_REACTORS
330
47
102
}
330
47
100
AcDbProxyObject
 90
      499
 91
      503
 93
      257
310
90E312D312F3222203D2031272D30220000000000003E0FC000000000000284000
  0
ACAD_PROXY_OBJECT
  5
66
102
{ACAD_REACTORS
330
47
102
}
330
47
100
AcDbProxyObject
 90
      499
 91
      503
 93
      225
310
90A3322203D2031272D302200000000000002100000000000000284000
  0
ACAD_PROXY_OBJECT
  5
67
102
{ACAD_REACTORS
330
47
102
}
330
47
100
AcDbProxyObject
 90
      499
 91
      503
 93
      225
310
90A3622203D2031272D302200000000000006100000000000000284000
  0
ACAD_PROXY_OBJECT
  5
68
102
{ACAD_REACTORS
330
47
102
}
330
47
100
AcDbProxyObject
 90
      499
 91
      503
 93
      249
310
90D31272D3022203D2031272D30220000000000000A100000000000000284000
  0
ACAD_PROXY_OBJECT
  5
2F
102
{ACAD_REACTORS
330
2A
102
}
330
2A
100
AcDbProxyObject
 90
      499
 91
      501
 93
      436
310
42CC9915DA5C99599C985B595049028333333333333E33F0000000000000F90107901411070040501600405405064090741402480A0340
1001
ACAD
1000
AcDbSavedByObjectVersion
1070
     0
  0
ACAD_PROXY_OBJECT
  5
32
102
{ACAD_REACTORS
330
2A
102
}
330
2A
100
AcDbProxyObject
 90
      499
 91
      501
 93
      388
310
4150985CDA58D07406404333333333333E33F0000000000000F90107A41107004050150841D405064090741402480A0350
1001
ACAD
1000
AcDbSavedByObjectVersion
1070
     0
  0
ACAD_PROXY_OBJECT
  5
36
102
{ACAD_REACTORS
330
2A
102
}
330
2A
100
AcDbProxyObject
 90
      499
 91
      501
 93
      428
310
42109C9A59DA1D195B90C409028333333333333E33F0000000000000F9010790141107004050150841D405064090741402480A029950
1001
ACAD
1000
AcDbSavedByObjectVersion
1070
     0
  0
ACAD_PROXY_OBJECT
  5
3A
102
{ACAD_REACTORS
330
2A
102
}
330
2A
100
AcDbProxyObject
 90
      499
 91
      501
 93
      452
310
42D0DBDB1BDC90DA185B99D95104090240C333333333333E33F0000000000000F90108901411070040501508421405064090741402480A0350
1001
ACAD
1000
AcDbSavedByObjectVersion
1070
     0
  0
ACAD_PROXY_OBJECT
  5
34
102
{ACAD_REACTORS
330
2A
102
}
330
2A
100
AcDbProxyObject
 90
      499
 91
      501
 93
      500
310
4290DBDB98D95C1D1D585B10940D028333333333333E33F0000000000000F90107902409070040501000000000018199010841D405064090740C02480A0340
1001
ACAD
1000
AcDbSavedByObjectVersion
1070
     0
  0
ACAD_PROXY_OBJECT
  5
35
102
{ACAD_REACTORS
330
2A
102
}
330
2A
100
AcDbProxyObject
 90
      499
 91
      501
 93
      412
310
40D11A5B50B409028333333333333E33F0000000000000F9010790141107004050150841D405064090741402480A02677FFFFFD0
1001
ACAD
1000
AcDbSavedByObjectVersion
1070
     0
  0
ACAD_PROXY_OBJECT
  5
3D
102
{ACAD_REACTORS
330
2A
102
}
330
2A
100
AcDbProxyObject
 90
      499
 91
      501
 93
      452
310
43115919D950DBDB1BDC93D999916409028333333333333E33F0000000000000F9010790141107004050150841D405064090741402480A0350
1001
ACAD
1000
AcDbSavedByObjectVersion
1070
     0
  0
ACAD_PROXY_OBJECT
  5
39
102
{ACAD_REACTORS
330
2A
102
}
330
2A
100
AcDbProxyObject
 90
      499
 91
      501
 93
      444
310
42D19858D95C185D1D195C9B90F409028333333333333E33F0000000000000F9010790141107004050150841D405064090741402480A0350
1001
ACAD
1000
AcDbSavedByObjectVersion
1070
     0
  0
ACAD_PROXY_OBJECT
  5
2B
102
{ACAD_REACTORS
330
2A
102
}
330
2A
100
AcDbProxyObject
 90
      499
 91
      501
 93
      380
310
41119B185D240901404333333333333E33F0000000000000F9010740A907004050150841D405064090741402480A1B50
1001
ACAD
1000
AcDbSavedByObjectVersion
1070
     0
  0
ACAD_PROXY_OBJECT
  5
2C
102
{ACAD_REACTORS
330
2A
102
}
330
2A
100
AcDbProxyObject
 90
      499
 91
      501
 93
      468
310
43519B185D15DA5D1A115919D95CD0140901404333333333333E33F0000000000000F90107409019070040501600405405064090741402480A1B50
1001
ACAD
1000
AcDbSavedByObjectVersion
1070
     0
  0
ACAD_PROXY_OBJECT
  5
2D
102
{ACAD_REACTORS
330
2A
102
}
330
2A
100
AcDbProxyObject
 90
      499
 91
      501
 93
      404
310
41D1DBDD5C985D5910240902404333333333333E33F0000000000000F9010740A9070040501641D405064090741402480A1B50
1001
ACAD
1000
AcDbSavedByObjectVersion
1070
     0
  0
ACAD_PROXY_OBJECT
  5
2E
102
{ACAD_REACTORS
330
2A
102
}
330
2A
100
AcDbProxyObject
 90
      499
 91
      501
 93
      492
310
4411DBDD5C985D5915DA5D1A115919D95CD0340902404333333333333E33F0000000000000F90107409019070040501600405405064090741402480A1B50
1001
ACAD
1000
AcDbSavedByObjectVersion
1070
     0
  0
ACAD_PROXY_OBJECT
  5
31
102
{ACAD_REACTORS
330
2A
102
}
330
2A
100
AcDbProxyObject
 90
      499
 91
      501
 93
      476
310
41921A5919195B90640502408333333333333E33F0000000000000F901079024090700405020000000000001110200405405064090740C02480A0340
1001
ACAD
1000
AcDbSavedByObjectVersion
1070
     0
  0
ACAD_PROXY_OBJECT
  5
3B
102
{ACAD_REACTORS
330
2A
102
}
330
2A
100
AcDbProxyObject
 90
      499
 91
      501
 93
      428
310
42529A5D1D195C93D999914409028333333333333E33F0000000000000F9010790141107004050150A41D405064090741402480A0350
1001
ACAD
1000
AcDbSavedByObjectVersion
1070
     0
  0
ACAD_PROXY_OBJECT
  5
38
102
{ACAD_REACTORS
330
2A
102
}
330
2A
100
AcDbProxyObject
 90
      499
 91
      501
 93
      444
310
42D31A5B995C185D1D195C9B90E409028333333333333E33F0000000000000F9010790141107004050750841D405064090741402483A0350
1001
ACAD
1000
AcDbSavedByObjectVersion
1070
     0
  0
ACAD_PROXY_OBJECT
  5
3C
102
{ACAD_REACTORS
330
2A
102
}
330
2A
100
AcDbProxyObject
 90
      499
 91
      501
 93
      444
310
42D3DD995C9A185B99D3D999915409028333333333333E33F0000000000000F9010790141107004050150941D405064090741402480A0350
1001
ACAD
1000
AcDbSavedByObjectVersion
1070
     0
  0
ACAD_PROXY_OBJECT
  5
33
102
{ACAD_REACTORS
330
2A
102
}
330
2A
100
AcDbProxyObject
 90
      499
 91
      501
 93
      428
310
425499585B1A5CDD1A58D08409038333333333333E33F0000000000000F9010740A907004050150800405405064090740C02480A1B40
1001
ACAD
1000
AcDbSavedByObjectVersion
1070
     0
  0
ACAD_PROXY_OBJECT
  5
42
102
{ACAD_REACTORS
330
2A
102
}
330
2A
100
AcDbProxyObject
 90
      499
 91
      501
 93
      420
310
4194DA1859195911B40902404333333333333E33F0000000000000F9010740A41107004050150800405405064090840C02480A0B40
1001
ACAD
1000
AcDbSavedByObjectVersion
1070
     0
  0
ACAD_PROXY_OBJECT
  5
41
102
{ACAD_REACTORS
330
2A
102
}
330
2A
100
AcDbProxyObject
 90
      499
 91
      501
 93
      516
310
4454DA18591959081DDA5D1A08195919D95CD1A40902404333333333333E33F0000000000000F901074090142907004050250800405405064090740C02480A0B40
1001
ACAD
1000
AcDbSavedByObjectVersion
1070
     0
  0
ACAD_PROXY_OBJECT
  5
3E
102
{ACAD_REACTORS
330
2A
102
}
330
2A
100
AcDbProxyObject
 90
      499
 91
      501
 93
      532
310
4394DA1859195CC81BD98811DC985E5174090240C333333333333E33F0000000000000F901079024090741D01000000000000111010841D405064090740C02480A0340
1001
ACAD
1000
AcDbSavedByObjectVersion
1070
     0
  0
ACAD_PROXY_OBJECT
  5
3F
102
{ACAD_REACTORS
330
2A
102
}
330
2A
100
AcDbProxyObject
 90
      499
 91
      501
 93
      476
310
41D4DAD95D18DA1E51840502408333333333333E33F0000000000000F901079024090741D01000000000000111010B41D405064090741802480A0340
1001
ACAD
1000
AcDbSavedByObjectVersion
1070
     0
  0
ACAD_PROXY_OBJECT
  5
37
102
{ACAD_REACTORS
330
2A
102
}
330
2A
100
AcDbProxyObject
 90
      499
 91
      501
 93
      412
310
41D51A1A58DAD95B90D409028333333333333E33F0000000000000F9010790141107004050150C41D405064090741402480A0350
1001
ACAD
1000
AcDbSavedByObjectVersion
1070
     0
  0
ACAD_PROXY_OBJECT
  5
30
102
{ACAD_REACTORS
330
2A
102
}
330
2A
100
AcDbProxyObject
 90
      499
 91
      501
 93
      420
310
4255DA5C99599C985B595059028333333333333E33F0000000000000F90107901411070040501600405405064090740C02480A0340
1001
ACAD
1000
AcDbSavedByObjectVersion
1070
     0
  0
ACAD_PROXY_OBJECT
  5
40
102
{ACAD_REACTORS
330
2A
102
}
330
2A
100
AcDbProxyObject
 90
      499
 91
      501
 93
      404
310
41560B54985E51940902404000000000000E03F0000000000000F9010740501907004050150841D405064090740C02480A1B40
1001
ACAD
1000
AcDbSavedByObjectVersion
1070
     0
  0
XRECORD
  5
30E
102
{ACAD_REACTORS
330
305
102
}
330
305
100
AcDbXrecord
 90
        0
  0
XRECORD
  5
324
102
{ACAD_REACTORS
330
305
102
}
330
305
100
AcDbXrecord
1000
DSTYLE
1002
{
1070
   179
 70
     1
1070
   171
 70
     3
1070
   143
 40
0.03937
1070
   274
 70
     3
1070
    41
 40
2.5
1070
   141
 40
2.5
1070
   271
 70
     2
1070
    43
 40
3.75
1070
   278
 70
    44
1070
    44
 40
1.25
1070
    42
 40
0.625
1070
   147
 40
0.625
1070
   371
 70
    13
1070
   372
 70
    13
1070
    77
 70
     1
1070
   272
 70
     2
1070
    73
 70
     0
1070
   172
 70
     1
1070
    74
 70
     0
1070
   283
 70
     0
1070
   340
340
71
1070
   140
 40
3.5
1070
   284
 70
     8
1070
   288
 70
     1
1070
    78
 70
     8
1002
}
  0
XRECORD
  5
30F
102
{ACAD_REACTORS
330
305
102
}
330
305
100
AcDbXrecord
  1
{D7B891D1-7D08-454B-DB4B-625B0AFD8607}
  0
XRECORD
  5
308
102
{ACAD_REACTORS
330
305
102
}
330
305
100
AcDbXrecord
  1

  0
XRECORD
  5
30D
102
{ACAD_REACTORS
330
305
102
}
330
305
100
AcDbXrecord
 90
        1
  0
XRECORD
  5
30A
102
{ACAD_REACTORS
330
305
102
}
330
305
100
AcDbXrecord
340
1A
  0
XRECORD
  5
30C
102
{ACAD_REACTORS
330
305
102
}
330
305
100
AcDbXrecord
 90
    10269
  0
XRECORD
  5
30B
102
{ACAD_REACTORS
330
305
102
}
330
305
100
AcDbXrecord
340
19
  0
XRECORD
  5
311
102
{ACAD_REACTORS
330
305
102
}
330
305
100
AcDbXrecord
 40
0.0
  0
XRECORD
  5
314
102
{ACAD_REACTORS
330
305
102
}
330
305
100
AcDbXrecord
340
0
  0
XRECORD
  5
31A
102
{ACAD_REACTORS
330
305
102
}
330
305
100
AcDbXrecord
 10
0.0
 20
0.0
 30
0.0
  0
XRECORD
  5
316
102
{ACAD_REACTORS
330
305
102
}
330
305
100
AcDbXrecord
 10
0.0
 20
0.0
 30
0.0
  0
XRECORD
  5
319
102
{ACAD_REACTORS
330
305
102
}
330
305
100
AcDbXrecord
 10
0.0
 20
0.0
 30
0.0
  0
XRECORD
  5
317
102
{ACAD_REACTORS
330
305
102
}
330
305
100
AcDbXrecord
 10
0.0
 20
0.0
 30
0.0
  0
XRECORD
  5
318
102
{ACAD_REACTORS
330
305
102
}
330
305
100
AcDbXrecord
 10
0.0
 20
0.0
 30
0.0
  0
XRECORD
  5
315
102
{ACAD_REACTORS
330
305
102
}
330
305
100
AcDbXrecord
 10
0.0
 20
0.0
 30
0.0
  0
XRECORD
  5
312
102
{ACAD_REACTORS
330
305
102
}
330
305
100
AcDbXrecord
340
0
  0
XRECORD
  5
313
102
{ACAD_REACTORS
330
305
102
}
330
305
100
AcDbXrecord
 70
     0
  0
XRECORD
  5
309
102
{ACAD_REACTORS
330
305
102
}
330
305
100
AcDbXrecord
  1

  0
XRECORD
  5
306
102
{ACAD_REACTORS
330
305
102
}
330
305
100
AcDbXrecord
 90
        1
  0
XRECORD
  5
307
102
{ACAD_REACTORS
330
305
102
}
330
305
100
AcDbXrecord
 90
       70
  0
XRECORD
  5
31D
102
{ACAD_REACTORS
330
305
102
}
330
305
100
AcDbXrecord
340
0
  0
XRECORD
  5
323
102
{ACAD_REACTORS
330
305
102
}
330
305
100
AcDbXrecord
 10
0.0
 20
0.0
 30
0.0
  0
XRECORD
  5
31F
102
{ACAD_REACTORS
330
305
102
}
330
305
100
AcDbXrecord
 10
0.0
 20
0.0
 30
0.0
  0
XRECORD
  5
322
102
{ACAD_REACTORS
330
305
102
}
330
305
100
AcDbXrecord
 10
0.0
 20
0.0
 30
0.0
  0
XRECORD
  5
320
102
{ACAD_REACTORS
330
305
102
}
330
305
100
AcDbXrecord
 10
0.0
 20
0.0
 30
0.0
  0
XRECORD
  5
321
102
{ACAD_REACTORS
330
305
102
}
330
305
100
AcDbXrecord
 10
0.0
 20
0.0
 30
0.0
  0
XRECORD
  5
31E
102
{ACAD_REACTORS
330
305
102
}
330
305
100
AcDbXrecord
 10
0.0
 20
0.0
 30
0.0
  0
XRECORD
  5
31B
102
{ACAD_REACTORS
330
305
102
}
330
305
100
AcDbXrecord
340
0
  0
XRECORD
  5
31C
102
{ACAD_REACTORS
330
305
102
}
330
305
100
AcDbXrecord
 70
     0
  0
XRECORD
  5
310
102
{ACAD_REACTORS
330
305
102
}
330
305
100
AcDbXrecord
  1
{FAEB1C32-E019-11D5-929B-00C0DF256EC4}
  0
DICTIONARYVAR
  5
334
102
{ACAD_REACTORS
330
6C
102
}
330
6C
100
DictionaryVariables
280
     0
  1
1:1
  0
DICTIONARYVAR
  5
325
102
{ACAD_REACTORS
330
6C
102
}
330
6C
100
DictionaryVariables
280
     0
  1
Standard
  0
DICTIONARYVAR
  5
329
102
{ACAD_REACTORS
330
6C
102
}
330
6C
100
DictionaryVariables
280
     0
  1
2
  0
DICTIONARYVAR
  5
32A
102
{ACAD_REACTORS
330
6C
102
}
330
6C
100
DictionaryVariables
280
     0
  1
1
  0
DICTIONARYVAR
  5
335
102
{ACAD_REACTORS
330
6C
102
}
330
6C
100
DictionaryVariables
280
     0
  1
1
  0
DICTIONARYVAR
  5
6D
102
{ACAD_REACTORS
330
6C
102
}
330
6C
100
DictionaryVariables
280
     0
  1
0
  0
XRECORD
  5
304
102
{ACAD_REACTORS
330
303
102
}
330
303
100
AcDbXrecord
 70
     4
  0
DICTIONARY
  5
338
330
45
100
AcDbDictionary
280
     1
  3
ACAD_XREC_ROUNDTRIP
360
339
  0
DICTIONARY
  5
336
330
44
100
AcDbDictionary
280
     1
  3
ACAD_XREC_ROUNDTRIP
360
337
  0
DICTIONARY
  5
33A
330
46
100
AcDbDictionary
280
     1
  3
ACAD_XREC_ROUNDTRIP
360
33B
  0
XRECORD
  5
339
102
{ACAD_REACTORS
330
338
102
}
330
338
100
AcDbXrecord
102
MATERIAL
148
0.0
149
0.0
149
0.0
 93
        0
 94
      127
282
     0
 72
     1
 77
     1
171
     1
175
     1
179
     1
273
     0
  0
XRECORD
  5
337
102
{ACAD_REACTORS
330
336
102
}
330
336
100
AcDbXrecord
102
MATERIAL
148
0.0
149
0.0
149
0.0
 93
        0
 94
      127
282
     0
 72
     1
 77
     1
171
     1
175
     1
179
     1
273
     0
  0
XRECORD
  5
33B
102
{ACAD_REACTORS
330
33A
102
}
330
33A
100
AcDbXrecord
102
MATERIAL
148
0.0
149
0.0
149
0.0
 93
        0
 94
      127
282
     0
 72
     1
 77
     1
171
     1
175
     1
179
     1
273
     0
  0
ENDSEC
  0
EOF
