999
DXF file: C:\Users\franc\OneDrive\Documents\PTC\Documents\Recherche_et_Developpement\2016 11 07 trialis v2 bergv1\02110_arbre_avant_v2.dxf
999
Pro/ENGINEER 2011490 by Parametric Technology Corporation
  0
SECTION
  2
HEADER
  9
$EXTMAX
 10
297.0
 20
210.0
 30
0.0
  9
$EXTMIN
 10
0.0
 20
0.0
 30
0.0
  9
$LIMMIN
 10
0.0
 20
0.0
  9
$LIMMAX
 10
297.0
 20
210.0
  9
$VIEWCTR
 10
148.5
 20
105.0
  9
$VIEWSIZE
 40
210.0
  9
$CLAYER
  8
0
  9
$LTSCALE
 40
16.335
  9
$CELTYPE
  6
BYLAYER
  9
$DIMSCALE
 40
1.0
  9
$DIMASZ
 40
3.5
  9
$DIMEXO
 40
1.0
  9
$DIMDLI
 40
11.286
  9
$DIMEXE
 40
1.5
  9
$DIMCEN
 40
2.673
  9
$DIMLFAC
 40
1.0
  9
$DIMBLK
  1
_FILLED
  9
$DIMTXT
 40
3.0
  9
$PDMODE
 70
0
  9
$PDSIZE
 40
0.05
  9
$TILEMODE
 70
1
  0
ENDSEC
  0
SECTION
  2
TABLES
  0
TABLE
  2
LTYPE
 70
6
  0
LTYPE
  2
BYBLOCK
 70
0
  3

 72
65
 73
0
 40
0.0
  0
LTYPE
  2
BYLAYER
 70
0
  3

 72
65
 73
0
 40
0.0
  0
LTYPE
  2
CONTINUOUS
 70
64
  3
Solid line
 72
65
 73
0
 40
0.0
  0
LTYPE
  2
CENTER
 70
64
  3
____ _ ____ _ ____ _ ____ _ ____ _ ____ _ ____
 72
65
 73
4
 40
0.6
 49
0.375
 49
-0.075
 49
0.075
 49
-0.075
  0
LTYPE
  2
HIDDEN
 70
64
  3
- - - - - - - - - - - - - - - - - - - -
 72
65
 73
2
 40
0.2
 49
0.1
 49
-0.1
  0
LTYPE
  2
PHANTOM
 70
64
  3
_____ _ _ _____ _ _ _____ _ _ _____
 72
65
 73
6
 40
0.8
 49
0.45
 49
-0.05
 49
0.1
 49
-0.05
 49
0.1
 49
-0.05
  0
LTYPE
  2
DOT
 70
64
  3
. . . . . . . . . . . . . . . . . . . .
 72
65
 73
2
 40
0.2
 49
0.1
 49
-0.1
  0
LTYPE
  2
DASHED
 70
64
  3
- - - - - - - - - - - - - - - - - - - -
 72
65
 73
2
 40
0.2
 49
0.1
 49
-0.1
  0
ENDTAB
  0
TABLE
  2
LAYER
 70
36
  0
LAYER
  2
0
 70
0
 62
7
  6
CONTINUOUS
  0
LAYER
  2
DEFAULT_1
 70
0
 62
7
  6
CENTER
  0
LAYER
  2
DEFAULT_2
 70
0
 62
8
  6
HIDDEN
  0
LAYER
  2
DEFAULT_3
 70
0
 62
7
  6
PHANTOM
  0
LAYER
  2
01___PRT_ALL_DTM_PLN
 70
0
 62
7
  6
CONTINUOUS
  0
LAYER
  2
01___PRT_DEF_DTM_PLN
 70
0
 62
7
  6
CONTINUOUS
  0
LAYER
  2
02__AXIS
 70
0
 62
7
  6
CONTINUOUS
  0
LAYER
  2
02___PRT_ALL_AXES
 70
0
 62
7
  6
CONTINUOUS
  0
LAYER
  2
03___PRT_ALL_CURVES
 70
0
 62
7
  6
CONTINUOUS
  0
LAYER
  2
04___PRT_ALL_DTM_PNT
 70
0
 62
7
  6
CONTINUOUS
  0
LAYER
  2
05___PRT_ALL_DTM_CSYS
 70
0
 62
7
  6
CONTINUOUS
  0
LAYER
  2
05___PRT_DEF_DTM_CSYS
 70
0
 62
7
  6
CONTINUOUS
  0
LAYER
  2
06___PRT_ALL_SURFS
 70
0
 62
7
  6
CONTINUOUS
  0
LAYER
  2
08__DIMS
 70
0
 62
7
  6
CONTINUOUS
  0
LAYER
  2
12__NOTES
 70
0
 62
7
  6
CONTINUOUS
  0
LAYER
  2
13__SOLID
 70
0
 62
7
  6
CONTINUOUS
  0
ENDTAB
  0
TABLE
  2
STYLE
 70
1
  0
STYLE
  2
STANDARD
 70
0
 40
0.0
 41
0.7
 50
0.0
 71
0
 42
0.2
  3
txt
  4

  0
STYLE
  2
TEXTSTYLE_1
 70
0
 40
0.0
 41
0.8
 50
0.0
 71
0
 42
0.2
  3
gdt
  4

  0
STYLE
  2
TEXTSTYLE_2
 70
0
 40
0.0
 41
0.6
 50
0.0
 71
0
 42
0.2
  3
txt
  4

  0
STYLE
  2
TEXTSTYLE_3
 70
0
 40
0.0
 41
0.7
 50
0.0
 71
0
 42
0.2
  3
gdt
  4

  0
ENDTAB
  0
ENDSEC
  0
SECTION
  2
BLOCKS
  0
BLOCK
  8
0
  2
_FILLED
 70
64
 10
0.0
 20
0.0
  0
SOLID
  8
0
  6
BYBLOCK
 62
0
 10
0.0
 20
0.0
 11
-1.0
 21
0.2142857143
 12
-1.0
 22
-0.2142857143
 13
-1.0
 23
-0.2142857143
  0
ENDBLK
  8
0
  6
BYBLOCK
 62
0
  0
BLOCK
  8
08__DIMS
 62
2
  6
CONTINUOUS
  2
*D0
 70
65
 10
0.0
 20
0.0
  0
TEXT
  8
08__DIMS
 62
2
  6
CONTINUOUS
 10
212.2672448823
 20
77.4950197414
  7
STANDARD
 40
3.0
  1
Ø
 50
90.0
 41
0.7
 72
0
  0
TEXT
  8
08__DIMS
 62
2
  6
CONTINUOUS
 10
212.2672448823
 20
79.5950197414
  7
STANDARD
 40
3.0
  1
6
 50
90.0
 41
0.7
 72
0
  0
TEXT
  8
08__DIMS
 62
2
  6
CONTINUOUS
 10
210.4672448823
 20
81.6950197414
  7
TEXTSTYLE_2
 40
1.8
  1
 0
 50
90.0
 41
0.6
 72
0
  0
TEXT
  8
08__DIMS
 62
2
  6
CONTINUOUS
 10
212.8672448823
 20
81.6950197414
  7
TEXTSTYLE_2
 40
1.8
  1
-0,05
 50
90.0
 41
0.6
 72
0
  0
LINE
  8
08__DIMS
 62
2
  6
CONTINUOUS
 10
213.7672448823
 20
73.878669014
 11
213.7672448823
 21
87.0950197414
  0
LINE
  8
08__DIMS
 62
2
  6
CONTINUOUS
 10
213.7672448823
 20
87.0950197414
 11
213.7672448823
 21
70.878669014
  0
LINE
  8
08__DIMS
 62
2
  6
CONTINUOUS
 10
213.7672448823
 20
67.878669014
 11
213.7672448823
 21
62.878669014
  0
LINE
  8
08__DIMS
 62
2
  6
CONTINUOUS
 10
213.7672448823
 20
62.878669014
 11
213.7672448823
 21
70.878669014
  0
INSERT
  8
08__DIMS
 62
2
  6
CONTINUOUS
  2
_FILLED
 10
213.7672448823
 20
73.878669014
 41
3.5
 42
3.5
 43
3.5
 50
270.0
  0
INSERT
  8
08__DIMS
 62
2
  6
CONTINUOUS
  2
_FILLED
 10
213.7672448823
 20
67.878669014
 41
3.5
 42
3.5
 43
3.5
 50
90.0
  0
ENDBLK
  8
0
  6
BYBLOCK
 62
0
  0
BLOCK
  8
08__DIMS
 62
2
  6
CONTINUOUS
  2
*D1
 70
65
 10
0.0
 20
0.0
  0
TEXT
  8
08__DIMS
 62
2
  6
CONTINUOUS
 10
198.9846872837
 20
76.9152734298
  7
STANDARD
 40
3.0
  1
Ø
 50
90.0
 41
0.7
 72
0
  0
TEXT
  8
08__DIMS
 62
2
  6
CONTINUOUS
 10
198.9846872837
 20
79.0152734298
  7
STANDARD
 40
3.0
  1
4,5
 50
90.0
 41
0.7
 72
0
  0
LINE
  8
08__DIMS
 62
2
  6
CONTINUOUS
 10
199.7346872837
 20
73.128669014
 11
199.7346872837
 21
85.3152734298
  0
LINE
  8
08__DIMS
 62
2
  6
CONTINUOUS
 10
199.7346872837
 20
85.3152734298
 11
199.7346872837
 21
70.878669014
  0
LINE
  8
08__DIMS
 62
2
  6
CONTINUOUS
 10
199.7346872837
 20
68.628669014
 11
199.7346872837
 21
63.628669014
  0
LINE
  8
08__DIMS
 62
2
  6
CONTINUOUS
 10
199.7346872837
 20
63.628669014
 11
199.7346872837
 21
70.878669014
  0
INSERT
  8
08__DIMS
 62
2
  6
CONTINUOUS
  2
_FILLED
 10
199.7346872837
 20
73.128669014
 41
3.5
 42
3.5
 43
3.5
 50
270.0
  0
INSERT
  8
08__DIMS
 62
2
  6
CONTINUOUS
  2
_FILLED
 10
199.7346872837
 20
68.628669014
 41
3.5
 42
3.5
 43
3.5
 50
90.0
  0
ENDBLK
  8
0
  6
BYBLOCK
 62
0
  0
BLOCK
  8
08__DIMS
 62
2
  6
CONTINUOUS
  2
*D2
 70
65
 10
0.0
 20
0.0
  0
TEXT
  8
08__DIMS
 62
2
  6
CONTINUOUS
 10
117.3472393519
 20
85.0638532774
  7
STANDARD
 40
3.0
  1
Ø
 50
90.0
 41
0.7
 72
0
  0
TEXT
  8
08__DIMS
 62
2
  6
CONTINUOUS
 10
117.3472393519
 20
87.1638532774
  7
STANDARD
 40
3.0
  1
6
 50
90.0
 41
0.7
 72
0
  0
TEXT
  8
08__DIMS
 62
2
  6
CONTINUOUS
 10
115.5472393519
 20
89.2638532774
  7
TEXTSTYLE_2
 40
1.8
  1
 0
 50
90.0
 41
0.6
 72
0
  0
TEXT
  8
08__DIMS
 62
2
  6
CONTINUOUS
 10
117.9472393519
 20
89.2638532774
  7
TEXTSTYLE_2
 40
1.8
  1
-0,05
 50
90.0
 41
0.6
 72
0
  0
LINE
  8
08__DIMS
 62
2
  6
CONTINUOUS
 10
118.8472393519
 20
73.878669014
 11
118.8472393519
 21
94.6638532774
  0
LINE
  8
08__DIMS
 62
2
  6
CONTINUOUS
 10
118.8472393519
 20
94.6638532774
 11
118.8472393519
 21
70.878669014
  0
LINE
  8
08__DIMS
 62
2
  6
CONTINUOUS
 10
118.8472393519
 20
67.878669014
 11
118.8472393519
 21
62.878669014
  0
LINE
  8
08__DIMS
 62
2
  6
CONTINUOUS
 10
118.8472393519
 20
62.878669014
 11
118.8472393519
 21
70.878669014
  0
INSERT
  8
08__DIMS
 62
2
  6
CONTINUOUS
  2
_FILLED
 10
118.8472393519
 20
73.878669014
 41
3.5
 42
3.5
 43
3.5
 50
270.0
  0
INSERT
  8
08__DIMS
 62
2
  6
CONTINUOUS
  2
_FILLED
 10
118.8472393519
 20
67.878669014
 41
3.5
 42
3.5
 43
3.5
 50
90.0
  0
ENDBLK
  8
0
  6
BYBLOCK
 62
0
  0
BLOCK
  8
08__DIMS
 62
2
  6
CONTINUOUS
  2
*D3
 70
65
 10
0.0
 20
0.0
  0
TEXT
  8
08__DIMS
 62
2
  6
CONTINUOUS
 10
99.9102446675
 20
76.8758298746
  7
STANDARD
 40
3.0
  1
Ø
 50
90.0
 41
0.7
 72
0
  0
TEXT
  8
08__DIMS
 62
2
  6
CONTINUOUS
 10
99.9102446675
 20
78.9758298746
  7
STANDARD
 40
3.0
  1
4,8
 50
90.0
 41
0.7
 72
0
  0
LINE
  8
08__DIMS
 62
2
  6
CONTINUOUS
 10
101.6606061866
 20
73.278669014
 11
99.1602446675
 21
73.278669014
  0
LINE
  8
08__DIMS
 62
2
  6
CONTINUOUS
 10
101.6606061866
 20
68.478669014
 11
99.1602446675
 21
68.478669014
  0
LINE
  8
08__DIMS
 62
2
  6
CONTINUOUS
 10
100.6602446675
 20
73.278669014
 11
100.6602446675
 21
85.2758298746
  0
LINE
  8
08__DIMS
 62
2
  6
CONTINUOUS
 10
100.6602446675
 20
85.2758298746
 11
100.6602446675
 21
70.878669014
  0
LINE
  8
08__DIMS
 62
2
  6
CONTINUOUS
 10
100.6602446675
 20
68.478669014
 11
100.6602446675
 21
63.478669014
  0
LINE
  8
08__DIMS
 62
2
  6
CONTINUOUS
 10
100.6602446675
 20
63.478669014
 11
100.6602446675
 21
70.878669014
  0
INSERT
  8
08__DIMS
 62
2
  6
CONTINUOUS
  2
_FILLED
 10
100.6602446675
 20
73.278669014
 41
3.5
 42
3.5
 43
3.5
 50
270.0
  0
INSERT
  8
08__DIMS
 62
2
  6
CONTINUOUS
  2
_FILLED
 10
100.6602446675
 20
68.478669014
 41
3.5
 42
3.5
 43
3.5
 50
90.0
  0
ENDBLK
  8
0
  6
BYBLOCK
 62
0
  0
BLOCK
  8
08__DIMS
 62
2
  6
CONTINUOUS
  2
*D4
 70
65
 10
0.0
 20
0.0
  0
TEXT
  8
08__DIMS
 62
2
  6
CONTINUOUS
 10
77.8371002622
 20
80.8971208643
  7
STANDARD
 40
3.0
  1
Ø
 50
90.0
 41
0.7
 72
0
  0
TEXT
  8
08__DIMS
 62
2
  6
CONTINUOUS
 10
77.8371002622
 20
82.9971208643
  7
STANDARD
 40
3.0
  1
4,5
 50
90.0
 41
0.7
 72
0
  0
LINE
  8
08__DIMS
 62
2
  6
CONTINUOUS
 10
78.5871002622
 20
73.128669014
 11
78.5871002622
 21
89.2971208643
  0
LINE
  8
08__DIMS
 62
2
  6
CONTINUOUS
 10
78.5871002622
 20
89.2971208643
 11
78.5871002622
 21
70.878669014
  0
LINE
  8
08__DIMS
 62
2
  6
CONTINUOUS
 10
78.5871002622
 20
68.628669014
 11
78.5871002622
 21
63.628669014
  0
LINE
  8
08__DIMS
 62
2
  6
CONTINUOUS
 10
78.5871002622
 20
63.628669014
 11
78.5871002622
 21
70.878669014
  0
INSERT
  8
08__DIMS
 62
2
  6
CONTINUOUS
  2
_FILLED
 10
78.5871002622
 20
73.128669014
 41
3.5
 42
3.5
 43
3.5
 50
270.0
  0
INSERT
  8
08__DIMS
 62
2
  6
CONTINUOUS
  2
_FILLED
 10
78.5871002622
 20
68.628669014
 41
3.5
 42
3.5
 43
3.5
 50
90.0
  0
ENDBLK
  8
0
  6
BYBLOCK
 62
0
  0
BLOCK
  8
08__DIMS
 62
2
  6
CONTINUOUS
  2
*D5
 70
65
 10
0.0
 20
0.0
  0
TEXT
  8
08__DIMS
 62
2
  6
CONTINUOUS
 10
58.3635225469
 20
79.4046463231
  7
STANDARD
 40
3.0
  1
Ø
 50
90.0
 41
0.7
 72
0
  0
TEXT
  8
08__DIMS
 62
2
  6
CONTINUOUS
 10
58.3635225469
 20
81.5046463231
  7
STANDARD
 40
3.0
  1
6
 50
90.0
 41
0.7
 72
0
  0
TEXT
  8
08__DIMS
 62
2
  6
CONTINUOUS
 10
56.5635225469
 20
83.6046463231
  7
TEXTSTYLE_2
 40
1.8
  1
 0
 50
90.0
 41
0.6
 72
0
  0
TEXT
  8
08__DIMS
 62
2
  6
CONTINUOUS
 10
58.9635225469
 20
83.6046463231
  7
TEXTSTYLE_2
 40
1.8
  1
-0,05
 50
90.0
 41
0.6
 72
0
  0
LINE
  8
08__DIMS
 62
2
  6
CONTINUOUS
 10
59.8635225469
 20
73.878669014
 11
59.8635225469
 21
89.0046463231
  0
LINE
  8
08__DIMS
 62
2
  6
CONTINUOUS
 10
59.8635225469
 20
89.0046463231
 11
59.8635225469
 21
70.878669014
  0
LINE
  8
08__DIMS
 62
2
  6
CONTINUOUS
 10
59.8635225469
 20
67.878669014
 11
59.8635225469
 21
62.878669014
  0
LINE
  8
08__DIMS
 62
2
  6
CONTINUOUS
 10
59.8635225469
 20
62.878669014
 11
59.8635225469
 21
70.878669014
  0
INSERT
  8
08__DIMS
 62
2
  6
CONTINUOUS
  2
_FILLED
 10
59.8635225469
 20
73.878669014
 41
3.5
 42
3.5
 43
3.5
 50
270.0
  0
INSERT
  8
08__DIMS
 62
2
  6
CONTINUOUS
  2
_FILLED
 10
59.8635225469
 20
67.878669014
 41
3.5
 42
3.5
 43
3.5
 50
90.0
  0
ENDBLK
  8
0
  6
BYBLOCK
 62
0
  0
BLOCK
  8
08__DIMS
 62
2
  6
CONTINUOUS
  2
*D6
 70
65
 10
0.0
 20
0.0
  0
TEXT
  8
08__DIMS
 62
2
  6
CONTINUOUS
 10
134.5106061866
 20
35.7999844609
  7
STANDARD
 40
3.0
  1
176
 41
0.7
 72
1
 11
137.6606061866
 21
35.7999844609
  0
LINE
  8
08__DIMS
 62
2
  6
CONTINUOUS
 10
49.6606061866
 20
67.878669014
 11
49.6606061866
 21
33.5499844609
  0
LINE
  8
08__DIMS
 62
2
  6
CONTINUOUS
 10
225.6606061866
 20
67.878669014
 11
225.6606061866
 21
33.5499844609
  0
LINE
  8
08__DIMS
 62
2
  6
CONTINUOUS
 10
49.6606061866
 20
35.0499844609
 11
137.6606061866
 21
35.0499844609
  0
LINE
  8
08__DIMS
 62
2
  6
CONTINUOUS
 10
225.6606061866
 20
35.0499844609
 11
137.6606061866
 21
35.0499844609
  0
INSERT
  8
08__DIMS
 62
2
  6
CONTINUOUS
  2
_FILLED
 10
49.6606061866
 20
35.0499844609
 41
3.5
 42
3.5
 43
3.5
 50
180.0
  0
INSERT
  8
08__DIMS
 62
2
  6
CONTINUOUS
  2
_FILLED
 10
225.6606061866
 20
35.0499844609
 41
3.5
 42
3.5
 43
3.5
  0
ENDBLK
  8
0
  6
BYBLOCK
 62
0
  0
BLOCK
  8
08__DIMS
 62
2
  6
CONTINUOUS
  2
*D7
 70
65
 10
0.0
 20
0.0
  0
TEXT
  8
08__DIMS
 62
2
  6
CONTINUOUS
 10
212.0356061866
 20
53.7790926021
  7
STANDARD
 40
3.0
  1
16,75
 41
0.7
 72
1
 11
217.2856061866
 21
53.7790926021
  0
LINE
  8
08__DIMS
 62
2
  6
CONTINUOUS
 10
208.9106061866
 20
67.628669014
 11
208.9106061866
 21
51.5290926021
  0
LINE
  8
08__DIMS
 62
2
  6
CONTINUOUS
 10
225.6606061866
 20
67.878669014
 11
225.6606061866
 21
51.5290926021
  0
LINE
  8
08__DIMS
 62
2
  6
CONTINUOUS
 10
208.9106061866
 20
53.0290926021
 11
217.2856061866
 21
53.0290926021
  0
LINE
  8
08__DIMS
 62
2
  6
CONTINUOUS
 10
225.6606061866
 20
53.0290926021
 11
217.2856061866
 21
53.0290926021
  0
INSERT
  8
08__DIMS
 62
2
  6
CONTINUOUS
  2
_FILLED
 10
208.9106061866
 20
53.0290926021
 41
3.5
 42
3.5
 43
3.5
 50
180.0
  0
INSERT
  8
08__DIMS
 62
2
  6
CONTINUOUS
  2
_FILLED
 10
225.6606061866
 20
53.0290926021
 41
3.5
 42
3.5
 43
3.5
  0
ENDBLK
  8
0
  6
BYBLOCK
 62
0
  0
BLOCK
  8
08__DIMS
 62
2
  6
CONTINUOUS
  2
*D8
 70
65
 10
0.0
 20
0.0
  0
TEXT
  8
08__DIMS
 62
2
  6
CONTINUOUS
 10
172.7856061866
 20
47.8998371833
  7
STANDARD
 40
3.0
  1
95,25
 41
0.7
 72
1
 11
178.0356061866
 21
47.8998371833
  0
LINE
  8
08__DIMS
 62
2
  6
CONTINUOUS
 10
225.6606061866
 20
67.878669014
 11
225.6606061866
 21
45.6498371833
  0
LINE
  8
08__DIMS
 62
2
  6
CONTINUOUS
 10
130.4106061866
 20
67.628669014
 11
130.4106061866
 21
45.6498371833
  0
LINE
  8
08__DIMS
 62
2
  6
CONTINUOUS
 10
225.6606061866
 20
47.1498371833
 11
178.0356061866
 21
47.1498371833
  0
LINE
  8
08__DIMS
 62
2
  6
CONTINUOUS
 10
130.4106061866
 20
47.1498371833
 11
178.0356061866
 21
47.1498371833
  0
INSERT
  8
08__DIMS
 62
2
  6
CONTINUOUS
  2
_FILLED
 10
225.6606061866
 20
47.1498371833
 41
3.5
 42
3.5
 43
3.5
  0
INSERT
  8
08__DIMS
 62
2
  6
CONTINUOUS
  2
_FILLED
 10
130.4106061866
 20
47.1498371833
 41
3.5
 42
3.5
 43
3.5
 50
180.0
  0
ENDBLK
  8
0
  6
BYBLOCK
 62
0
  0
BLOCK
  8
08__DIMS
 62
2
  6
CONTINUOUS
  2
*D9
 70
65
 10
0.0
 20
0.0
  0
TEXT
  8
08__DIMS
 62
2
  6
CONTINUOUS
 10
52.7856061866
 20
53.9918620491
  7
STANDARD
 40
3.0
  1
16,75
 41
0.7
 72
1
 11
58.0356061866
 21
53.9918620491
  0
LINE
  8
08__DIMS
 62
2
  6
CONTINUOUS
 10
49.6606061866
 20
67.878669014
 11
49.6606061866
 21
51.7418620491
  0
LINE
  8
08__DIMS
 62
2
  6
CONTINUOUS
 10
66.4106061866
 20
67.628669014
 11
66.4106061866
 21
51.7418620491
  0
LINE
  8
08__DIMS
 62
2
  6
CONTINUOUS
 10
49.6606061866
 20
53.2418620491
 11
58.0356061866
 21
53.2418620491
  0
LINE
  8
08__DIMS
 62
2
  6
CONTINUOUS
 10
66.4106061866
 20
53.2418620491
 11
58.0356061866
 21
53.2418620491
  0
INSERT
  8
08__DIMS
 62
2
  6
CONTINUOUS
  2
_FILLED
 10
49.6606061866
 20
53.2418620491
 41
3.5
 42
3.5
 43
3.5
 50
180.0
  0
INSERT
  8
08__DIMS
 62
2
  6
CONTINUOUS
  2
_FILLED
 10
66.4106061866
 20
53.2418620491
 41
3.5
 42
3.5
 43
3.5
  0
ENDBLK
  8
0
  6
BYBLOCK
 62
0
  0
BLOCK
  8
08__DIMS
 62
2
  6
CONTINUOUS
  2
*D10
 70
65
 10
0.0
 20
0.0
  0
TEXT
  8
08__DIMS
 62
2
  6
CONTINUOUS
 10
64.0356061866
 20
47.5977318581
  7
STANDARD
 40
3.0
  1
39,25
 41
0.7
 72
1
 11
69.2856061866
 21
47.5977318581
  0
LINE
  8
08__DIMS
 62
2
  6
CONTINUOUS
 10
49.6606061866
 20
67.878669014
 11
49.6606061866
 21
45.3477318581
  0
LINE
  8
08__DIMS
 62
2
  6
CONTINUOUS
 10
88.9106061866
 20
67.628669014
 11
88.9106061866
 21
45.3477318581
  0
LINE
  8
08__DIMS
 62
2
  6
CONTINUOUS
 10
49.6606061866
 20
46.8477318581
 11
69.2856061866
 21
46.8477318581
  0
LINE
  8
08__DIMS
 62
2
  6
CONTINUOUS
 10
88.9106061866
 20
46.8477318581
 11
69.2856061866
 21
46.8477318581
  0
INSERT
  8
08__DIMS
 62
2
  6
CONTINUOUS
  2
_FILLED
 10
49.6606061866
 20
46.8477318581
 41
3.5
 42
3.5
 43
3.5
 50
180.0
  0
INSERT
  8
08__DIMS
 62
2
  6
CONTINUOUS
  2
_FILLED
 10
88.9106061866
 20
46.8477318581
 41
3.5
 42
3.5
 43
3.5
  0
ENDBLK
  8
0
  6
BYBLOCK
 62
0
  0
BLOCK
  8
08__DIMS
 62
2
  6
CONTINUOUS
  2
*D11
 70
65
 10
0.0
 20
0.0
  0
TEXT
  8
08__DIMS
 62
2
  6
CONTINUOUS
 10
74.0606061866
 20
41.1924383804
  7
STANDARD
 40
3.0
  1
53
 41
0.7
 72
1
 11
76.1606061866
 21
41.1924383804
  0
LINE
  8
08__DIMS
 62
2
  6
CONTINUOUS
 10
49.6606061866
 20
67.878669014
 11
49.6606061866
 21
38.9424383804
  0
LINE
  8
08__DIMS
 62
2
  6
CONTINUOUS
 10
102.6606061866
 20
66.878669014
 11
102.6606061866
 21
38.9424383804
  0
LINE
  8
08__DIMS
 62
2
  6
CONTINUOUS
 10
49.6606061866
 20
40.4424383804
 11
76.1606061866
 21
40.4424383804
  0
LINE
  8
08__DIMS
 62
2
  6
CONTINUOUS
 10
102.6606061866
 20
40.4424383804
 11
76.1606061866
 21
40.4424383804
  0
INSERT
  8
08__DIMS
 62
2
  6
CONTINUOUS
  2
_FILLED
 10
49.6606061866
 20
40.4424383804
 41
3.5
 42
3.5
 43
3.5
 50
180.0
  0
INSERT
  8
08__DIMS
 62
2
  6
CONTINUOUS
  2
_FILLED
 10
102.6606061866
 20
40.4424383804
 41
3.5
 42
3.5
 43
3.5
  0
ENDBLK
  8
0
  6
BYBLOCK
 62
0
  0
BLOCK
  8
08__DIMS
 62
2
  6
CONTINUOUS
  2
*D12
 70
65
 10
0.0
 20
0.0
  0
TEXT
  8
08__DIMS
 62
2
  6
CONTINUOUS
 10
106.7261146077
 20
58.1088396544
  7
STANDARD
 40
3.0
  1
1
 41
0.7
 72
0
  0
LINE
  8
08__DIMS
 62
2
  6
CONTINUOUS
 10
102.6606061866
 20
66.878669014
 11
102.6606061866
 21
55.8588396544
  0
LINE
  8
08__DIMS
 62
2
  6
CONTINUOUS
 10
103.6606061866
 20
66.878669014
 11
103.6606061866
 21
55.8588396544
  0
LINE
  8
08__DIMS
 62
2
  6
CONTINUOUS
 10
102.6606061866
 20
57.3588396544
 11
97.6606061866
 21
57.3588396544
  0
LINE
  8
08__DIMS
 62
2
  6
CONTINUOUS
 10
97.6606061866
 20
57.3588396544
 11
103.1606061866
 21
57.3588396544
  0
LINE
  8
08__DIMS
 62
2
  6
CONTINUOUS
 10
103.6606061866
 20
57.3588396544
 11
108.8261146077
 21
57.3588396544
  0
LINE
  8
08__DIMS
 62
2
  6
CONTINUOUS
 10
108.8261146077
 20
57.3588396544
 11
103.1606061866
 21
57.3588396544
  0
INSERT
  8
08__DIMS
 62
2
  6
CONTINUOUS
  2
_FILLED
 10
102.6606061866
 20
57.3588396544
 41
3.5
 42
3.5
 43
3.5
  0
INSERT
  8
08__DIMS
 62
2
  6
CONTINUOUS
  2
_FILLED
 10
103.6606061866
 20
57.3588396544
 41
3.5
 42
3.5
 43
3.5
 50
180.0
  0
ENDBLK
  8
0
  6
BYBLOCK
 62
0
  0
BLOCK
  8
08__DIMS
 62
2
  6
CONTINUOUS
  2
*D13
 70
65
 10
0.0
 20
0.0
  0
TEXT
  8
08__DIMS
 62
2
  6
CONTINUOUS
 10
79.5606061866
 20
186.9889373341
  7
STANDARD
 40
3.0
  1
64
 41
0.7
 72
1
 11
81.6606061866
 21
186.9889373341
  0
LINE
  8
08__DIMS
 62
2
  6
CONTINUOUS
 10
49.6606061866
 20
172.6489045155
 11
49.6606061866
 21
187.7389373341
  0
LINE
  8
08__DIMS
 62
2
  6
CONTINUOUS
 10
113.6606061866
 20
170.1489045155
 11
113.6606061866
 21
187.7389373341
  0
LINE
  8
08__DIMS
 62
2
  6
CONTINUOUS
 10
49.6606061866
 20
186.2389373341
 11
81.6606061866
 21
186.2389373341
  0
LINE
  8
08__DIMS
 62
2
  6
CONTINUOUS
 10
113.6606061866
 20
186.2389373341
 11
81.6606061866
 21
186.2389373341
  0
INSERT
  8
08__DIMS
 62
2
  6
CONTINUOUS
  2
_FILLED
 10
49.6606061866
 20
186.2389373341
 41
3.5
 42
3.5
 43
3.5
 50
180.0
  0
INSERT
  8
08__DIMS
 62
2
  6
CONTINUOUS
  2
_FILLED
 10
113.6606061866
 20
186.2389373341
 41
3.5
 42
3.5
 43
3.5
  0
ENDBLK
  8
0
  6
BYBLOCK
 62
0
  0
BLOCK
  8
08__DIMS
 62
2
  6
CONTINUOUS
  2
*D14
 70
65
 10
0.0
 20
0.0
  0
TEXT
  8
08__DIMS
 62
2
  6
CONTINUOUS
 10
125.5537295409
 20
180.4482735425
  7
TEXTSTYLE_3
 40
3.0
  1
n
 41
1.0
 72
0
  0
TEXT
  8
08__DIMS
 62
2
  6
CONTINUOUS
 10
129.5537295409
 20
180.4482735425
  7
STANDARD
 40
3.0
  1
2
 41
0.7
 72
0
  0
TEXT
  8
08__DIMS
 62
2
  6
CONTINUOUS
 10
131.6537295409
 20
180.4482735425
  7
STANDARD
 40
3.0
  1
 G6
 41
0.7
 72
0
  0
LINE
  8
08__DIMS
 62
2
  6
CONTINUOUS
 10
114.1482943337
 20
170.0219224254
 11
119.5537295409
 21
179.6982735425
  0
LINE
  8
08__DIMS
 62
2
  6
CONTINUOUS
 10
119.5537295409
 20
179.6982735425
 11
121.9537295409
 21
179.6982735425
  0
LINE
  8
08__DIMS
 62
2
  6
CONTINUOUS
 10
121.9537295409
 20
179.6982735425
 11
141.5537295409
 21
179.6982735425
  0
INSERT
  8
08__DIMS
 62
2
  6
CONTINUOUS
  2
_FILLED
 10
114.1482943337
 20
170.0219224254
 41
3.5
 42
3.5
 43
3.5
 50
240.8112568759
  0
ENDBLK
  8
0
  6
BYBLOCK
 62
0
  0
BLOCK
  8
08__DIMS
 62
2
  6
CONTINUOUS
  2
*D15
 70
65
 10
0.0
 20
0.0
  0
TEXT
  8
08__DIMS
 62
2
  6
CONTINUOUS
 10
236.7674493655
 20
180.3391451238
  7
TEXTSTYLE_3
 40
3.0
  1
n
 41
1.0
 72
0
  0
TEXT
  8
08__DIMS
 62
2
  6
CONTINUOUS
 10
240.7674493655
 20
180.3391451238
  7
STANDARD
 40
3.0
  1
2,5
 41
0.7
 72
0
  0
TEXT
  8
08__DIMS
 62
2
  6
CONTINUOUS
 10
247.0674493655
 20
180.3391451238
  7
STANDARD
 40
3.0
  1
 G6
 41
0.7
 72
0
  0
LINE
  8
08__DIMS
 62
2
  6
CONTINUOUS
 10
224.3639998405
 20
170.1822182954
 11
230.7674493655
 21
179.5891451238
  0
LINE
  8
08__DIMS
 62
2
  6
CONTINUOUS
 10
230.7674493655
 20
179.5891451238
 11
233.1674493655
 21
179.5891451238
  0
LINE
  8
08__DIMS
 62
2
  6
CONTINUOUS
 10
233.1674493655
 20
179.5891451238
 11
256.9674493655
 21
179.5891451238
  0
INSERT
  8
08__DIMS
 62
2
  6
CONTINUOUS
  2
_FILLED
 10
224.3639998405
 20
170.1822182954
 41
3.5
 42
3.5
 43
3.5
 50
235.7562385171
  0
ENDBLK
  8
0
  6
BYBLOCK
 62
0
  0
BLOCK
  8
08__DIMS
 62
2
  6
CONTINUOUS
  2
*D16
 70
65
 10
0.0
 20
0.0
  0
TEXT
  8
08__DIMS
 62
2
  6
CONTINUOUS
 10
238.3769771803
 20
107.9602365368
  7
STANDARD
 40
3.0
  1
4,5
 50
90.0
 41
0.7
 72
2
 11
238.3769771803
 21
114.2602365368
  0
LINE
  8
08__DIMS
 62
2
  6
CONTINUOUS
 10
226.4106061866
 20
124.8852662368
 11
240.6269771803
 21
124.8852662368
  0
LINE
  8
08__DIMS
 62
2
  6
CONTINUOUS
 10
221.6606061866
 20
120.3852662368
 11
240.6269771803
 21
120.3852662368
  0
LINE
  8
08__DIMS
 62
2
  6
CONTINUOUS
 10
239.1269771803
 20
124.8852662368
 11
239.1269771803
 21
129.8852662368
  0
LINE
  8
08__DIMS
 62
2
  6
CONTINUOUS
 10
239.1269771803
 20
129.8852662368
 11
239.1269771803
 21
122.6352662368
  0
LINE
  8
08__DIMS
 62
2
  6
CONTINUOUS
 10
239.1269771803
 20
120.3852662368
 11
239.1269771803
 21
107.9602365368
  0
LINE
  8
08__DIMS
 62
2
  6
CONTINUOUS
 10
239.1269771803
 20
107.9602365368
 11
239.1269771803
 21
122.6352662368
  0
INSERT
  8
08__DIMS
 62
2
  6
CONTINUOUS
  2
_FILLED
 10
239.1269771803
 20
124.8852662368
 41
3.5
 42
3.5
 43
3.5
 50
270.0
  0
INSERT
  8
08__DIMS
 62
2
  6
CONTINUOUS
  2
_FILLED
 10
239.1269771803
 20
120.3852662368
 41
3.5
 42
3.5
 43
3.5
 50
90.0
  0
ENDBLK
  8
0
  6
BYBLOCK
 62
0
  0
BLOCK
  8
08__DIMS
 62
2
  6
CONTINUOUS
  2
*D17
 70
65
 10
0.0
 20
0.0
  0
TEXT
  8
08__DIMS
 62
2
  6
CONTINUOUS
 10
230.7397645933
 20
112.4643507687
  7
STANDARD
 40
3.0
  1
2
 41
0.7
 72
0
  0
LINE
  8
08__DIMS
 62
2
  6
CONTINUOUS
 10
223.6606061866
 20
114.4853268127
 11
223.6606061866
 21
110.2143507687
  0
LINE
  8
08__DIMS
 62
2
  6
CONTINUOUS
 10
225.6606061866
 20
119.6355210718
 11
225.6606061866
 21
110.2143507687
  0
LINE
  8
08__DIMS
 62
2
  6
CONTINUOUS
 10
223.6606061866
 20
111.7143507687
 11
218.6606061866
 21
111.7143507687
  0
LINE
  8
08__DIMS
 62
2
  6
CONTINUOUS
 10
218.6606061866
 20
111.7143507687
 11
224.6606061866
 21
111.7143507687
  0
LINE
  8
08__DIMS
 62
2
  6
CONTINUOUS
 10
225.6606061866
 20
111.7143507687
 11
232.8397645933
 21
111.7143507687
  0
LINE
  8
08__DIMS
 62
2
  6
CONTINUOUS
 10
232.8397645933
 20
111.7143507687
 11
224.6606061866
 21
111.7143507687
  0
INSERT
  8
08__DIMS
 62
2
  6
CONTINUOUS
  2
_FILLED
 10
223.6606061866
 20
111.7143507687
 41
3.5
 42
3.5
 43
3.5
  0
INSERT
  8
08__DIMS
 62
2
  6
CONTINUOUS
  2
_FILLED
 10
225.6606061866
 20
111.7143507687
 41
3.5
 42
3.5
 43
3.5
 50
180.0
  0
ENDBLK
  8
0
  6
BYBLOCK
 62
0
  0
BLOCK
  8
08__DIMS
 62
2
  6
CONTINUOUS
  2
*D18
 70
65
 10
0.0
 20
0.0
  0
TEXT
  8
08__DIMS
 62
2
  6
CONTINUOUS
 10
230.7679686416
 20
61.549637254
  7
STANDARD
 40
3.0
  1
5
 41
0.7
 72
0
  0
LINE
  8
08__DIMS
 62
2
  6
CONTINUOUS
 10
220.6606061866
 20
67.2805928026
 11
220.6606061866
 21
59.299637254
  0
LINE
  8
08__DIMS
 62
2
  6
CONTINUOUS
 10
225.6606061866
 20
67.5737828996
 11
225.6606061866
 21
59.299637254
  0
LINE
  8
08__DIMS
 62
2
  6
CONTINUOUS
 10
220.6606061866
 20
60.799637254
 11
215.6606061866
 21
60.799637254
  0
LINE
  8
08__DIMS
 62
2
  6
CONTINUOUS
 10
215.6606061866
 20
60.799637254
 11
223.1606061866
 21
60.799637254
  0
LINE
  8
08__DIMS
 62
2
  6
CONTINUOUS
 10
225.6606061866
 20
60.799637254
 11
232.8679686416
 21
60.799637254
  0
LINE
  8
08__DIMS
 62
2
  6
CONTINUOUS
 10
232.8679686416
 20
60.799637254
 11
223.1606061866
 21
60.799637254
  0
INSERT
  8
08__DIMS
 62
2
  6
CONTINUOUS
  2
_FILLED
 10
220.6606061866
 20
60.799637254
 41
3.5
 42
3.5
 43
3.5
  0
INSERT
  8
08__DIMS
 62
2
  6
CONTINUOUS
  2
_FILLED
 10
225.6606061866
 20
60.799637254
 41
3.5
 42
3.5
 43
3.5
 50
180.0
  0
ENDBLK
  8
0
  6
BYBLOCK
 62
0
  0
ENDSEC
  0
SECTION
  2
ENTITIES
  0
DIMENSION
  8
08__DIMS
 62
2
  6
CONTINUOUS
  2
*D0
 10
213.7672448823
 20
67.878669014
 11
213.7672448823
 21
82.2950197414
 70
128
 13
225.4108085579
 23
73.878669014
 14
220.6606061866
 24
67.878669014
 50
270.0
  0
DIMENSION
  8
08__DIMS
 62
2
  6
CONTINUOUS
  2
*D1
 10
199.7346872837
 20
68.628669014
 11
199.7346872837
 21
81.1152734298
 70
128
 13
208.9106061866
 23
73.128669014
 14
208.9106061866
 24
68.628669014
 50
270.0
  0
DIMENSION
  8
08__DIMS
 62
2
  6
CONTINUOUS
  2
*D2
 10
118.8472393519
 20
67.878669014
 11
118.8472393519
 21
89.8638532774
 70
128
 13
49.9104784483
 23
73.878669014
 14
54.6606061866
 24
67.878669014
 50
270.0
  0
DIMENSION
  8
08__DIMS
 62
2
  6
CONTINUOUS
  2
*D3
 10
100.6602446675
 20
68.478669014
 11
100.6602446675
 21
81.0758298746
 70
128
 13
98.1602446675
 23
73.278669014
 14
98.1602446675
 24
68.478669014
 50
270.0
  0
DIMENSION
  8
08__DIMS
 62
2
  6
CONTINUOUS
  2
*D4
 10
78.5871002622
 20
68.628669014
 11
78.5871002622
 21
85.0971208643
 70
128
 13
88.9106061866
 23
73.128669014
 14
88.9106061866
 24
68.628669014
 50
270.0
  0
DIMENSION
  8
08__DIMS
 62
2
  6
CONTINUOUS
  2
*D5
 10
59.8635225469
 20
67.878669014
 11
59.8635225469
 21
84.2046463231
 70
128
 13
49.9104784483
 23
73.878669014
 14
54.6606061866
 24
67.878669014
 50
270.0
  0
DIMENSION
  8
08__DIMS
 62
2
  6
CONTINUOUS
  2
*D6
 10
225.6606061866
 20
35.0499844609
 11
137.6606061866
 21
35.0499844609
 70
128
 13
49.6606061866
 23
68.878669014
 14
225.6606061866
 24
68.878669014
  0
DIMENSION
  8
08__DIMS
 62
2
  6
CONTINUOUS
  2
*D7
 10
225.6606061866
 20
53.0290926021
 11
217.2856061866
 21
53.0290926021
 70
128
 13
208.9106061866
 23
68.628669014
 14
225.6606061866
 24
68.878669014
  0
DIMENSION
  8
08__DIMS
 62
2
  6
CONTINUOUS
  2
*D8
 10
130.4106061866
 20
47.1498371833
 11
178.0356061866
 21
47.1498371833
 70
128
 13
225.6606061866
 23
68.878669014
 14
130.4106061866
 24
68.628669014
 50
180.0
  0
DIMENSION
  8
08__DIMS
 62
2
  6
CONTINUOUS
  2
*D9
 10
66.4106061866
 20
53.2418620491
 11
58.0356061866
 21
53.2418620491
 70
128
 13
49.6606061866
 23
68.878669014
 14
66.4106061866
 24
68.628669014
  0
DIMENSION
  8
08__DIMS
 62
2
  6
CONTINUOUS
  2
*D10
 10
88.9106061866
 20
46.8477318581
 11
69.2856061866
 21
46.8477318581
 70
128
 13
49.6606061866
 23
68.878669014
 14
88.9106061866
 24
68.628669014
  0
DIMENSION
  8
08__DIMS
 62
2
  6
CONTINUOUS
  2
*D11
 10
102.6606061866
 20
40.4424383804
 11
76.1606061866
 21
40.4424383804
 70
128
 13
49.6606061866
 23
68.878669014
 14
102.6606061866
 24
67.878669014
  0
DIMENSION
  8
08__DIMS
 62
2
  6
CONTINUOUS
  2
*D12
 10
103.6606061866
 20
57.3588396544
 11
107.7761146077
 21
57.3588396544
 70
128
 13
102.6606061866
 23
67.878669014
 14
103.6606061866
 24
67.878669014
  0
DIMENSION
  8
08__DIMS
 62
2
  6
CONTINUOUS
  2
*D13
 10
113.6606061866
 20
186.2389373341
 11
81.6606061866
 21
186.2389373341
 70
128
 13
49.6606061866
 23
171.6489045155
 14
113.6606061866
 24
169.1489045155
  0
DIMENSION
  8
08__DIMS
 62
2
  6
CONTINUOUS
  2
*D14
 10
114.1482943337
 20
170.0219224254
 11
131.7537295409
 21
181.9482735425
 70
131
 15
113.1729180395
 25
168.2758866055
1001
ACAD
1000
DSTYLE
1002
{
1070
73
1070
1
1070
74
1070
1
1002
}
  0
DIMENSION
  8
08__DIMS
 62
2
  6
CONTINUOUS
  2
*D15
 10
224.3639998405
 20
170.1822182954
 11
245.0674493655
 21
181.8391451238
 70
131
 15
222.9572125328
 25
168.1155907355
1001
ACAD
1000
DSTYLE
1002
{
1070
73
1070
1
1070
74
1070
1
1002
}
  0
DIMENSION
  8
08__DIMS
 62
2
  6
CONTINUOUS
  2
*D16
 10
239.1269771803
 20
120.3852662368
 11
239.1269771803
 21
111.1102365368
 70
128
 13
225.4106061866
 23
124.8852662368
 14
220.6606061866
 24
120.3852662368
 50
270.0
  0
DIMENSION
  8
08__DIMS
 62
2
  6
CONTINUOUS
  2
*D17
 10
225.6606061866
 20
111.7143507687
 11
231.7897645933
 21
111.7143507687
 70
128
 13
223.6606061866
 23
115.4853268127
 14
225.6606061866
 24
120.6355210718
  0
DIMENSION
  8
08__DIMS
 62
2
  6
CONTINUOUS
  2
*D18
 10
225.6606061866
 20
60.799637254
 11
231.8179686416
 21
60.799637254
 70
128
 13
220.6606061866
 23
68.2805928026
 14
225.6606061866
 24
68.5737828996
  0
LINE
  8
0
 62
7
  6
CONTINUOUS
 10
0.0
 20
0.0
 11
0.0
 21
210.0
  0
LINE
  8
0
 62
7
  6
CONTINUOUS
 10
0.0
 20
0.0
 11
297.0
 21
0.0
  0
LINE
  8
0
 62
7
  6
CONTINUOUS
 10
0.0
 20
210.0
 11
297.0
 21
210.0
  0
LINE
  8
0
 62
7
  6
CONTINUOUS
 10
297.0
 20
0.0
 11
297.0
 21
210.0
  0
LINE
  8
0
 62
7
  6
CONTINUOUS
 10
49.6606061866
 20
120.6358922792
 11
49.6606061866
 21
124.8852662368
  0
LINE
  8
0
 62
7
  6
CONTINUOUS
 10
49.9106061866
 20
124.8852662368
 11
49.9107760781
 21
120.3852662374
  0
LINE
  8
02___PRT_ALL_AXES
 62
8
  6
HIDDEN
 10
50.4106061866
 20
120.4852841229
 11
50.4106061866
 21
124.8852662368
  0
LINE
  8
02___PRT_ALL_AXES
 62
2
  6
CENTER
 10
51.6606061866
 20
129.8852662368
 11
51.6606061866
 21
115.4853268145
  0
LINE
  8
DEFAULT_2
 62
8
  6
HIDDEN
 10
51.6605903291
 20
120.7301495201
 11
51.6605908277
 21
120.8186534047
  0
LINE
  8
02___PRT_ALL_AXES
 62
8
  6
HIDDEN
 10
52.9106061866
 20
120.4853268145
 11
52.9106061866
 21
124.8852662368
  0
LINE
  8
0
 62
7
  6
CONTINUOUS
 10
54.6606061866
 20
124.8852662368
 11
54.6606061866
 21
126.3852662368
  0
LINE
  8
0
 62
7
  6
CONTINUOUS
 10
65.6606061866
 20
120.3852662368
 11
65.6606061866
 21
126.3852662368
  0
LINE
  8
0
 62
7
  6
CONTINUOUS
 10
66.4106061866
 20
121.1352662368
 11
66.4106061866
 21
125.6352662368
  0
LINE
  8
0
 62
7
  6
CONTINUOUS
 10
49.6606061866
 20
120.6354638757
 11
49.9107761053
 21
120.3852662374
  0
LINE
  8
DEFAULT_2
 62
8
  6
HIDDEN
 10
50.4106062493
 20
120.4852658094
 11
50.3106067832
 21
120.3852662714
  0
LINE
  8
DEFAULT_2
 62
8
  6
HIDDEN
 10
53.0106054731
 20
120.3852662702
 11
52.9106061259
 21
120.4852657033
  0
LINE
  8
0
 62
7
  6
CONTINUOUS
 10
88.9106061866
 20
121.1352662368
 11
88.9106061866
 21
125.6352662368
  0
LINE
  8
0
 62
7
  6
CONTINUOUS
 10
89.6606061866
 20
120.3852662368
 11
89.6606061866
 21
126.3852662368
  0
LINE
  8
0
 62
7
  6
CONTINUOUS
 10
66.4106061866
 20
121.1352662368
 11
65.6606061866
 21
120.3852662368
  0
LINE
  8
0
 62
7
  6
CONTINUOUS
 10
66.4106061866
 20
125.6352662368
 11
65.6606061866
 21
126.3852662368
  0
POLYLINE
  8
DEFAULT_2
 62
8
  6
HIDDEN
 66
1
 70
0
  0
VERTEX
  8
DEFAULT_2
 62
8
  6
HIDDEN
 10
52.9106061866
 20
120.4853311987
  0
VERTEX
  8
DEFAULT_2
 62
8
  6
HIDDEN
 10
52.8942658417
 20
120.4938355869
  0
VERTEX
  8
DEFAULT_2
 62
8
  6
HIDDEN
 10
52.8481159391
 20
120.5160876842
  0
SEQEND
  0
LINE
  8
0
 62
7
  6
CONTINUOUS
 10
102.6606061866
 20
120.3852662368
 11
102.6606061866
 21
126.3852662368
  0
LINE
  8
0
 62
7
  6
CONTINUOUS
 10
89.6606061866
 20
126.3852662368
 11
88.9106061866
 21
125.6352662368
  0
LINE
  8
DEFAULT_2
 62
8
  6
HIDDEN
 10
50.4106061866
 20
120.4852931439
 11
50.4235829563
 21
120.4921629122
  0
LINE
  8
DEFAULT_2
 62
8
  6
HIDDEN
 10
50.4275986794
 20
120.4941646877
 11
50.4106062493
 21
120.4852928908
  0
POLYLINE
  8
0
 62
7
  6
CONTINUOUS
 66
1
 70
0
  0
VERTEX
  8
0
 62
7
  6
CONTINUOUS
 10
50.3105875401
 20
120.3852662368
  0
VERTEX
  8
0
 62
7
  6
CONTINUOUS
 10
50.3243697538
 20
120.3918983636
  0
VERTEX
  8
0
 62
7
  6
CONTINUOUS
 10
50.3703345072
 20
120.4135689536
  0
VERTEX
  8
0
 62
7
  6
CONTINUOUS
 10
50.4492628822
 20
120.4492018805
  0
VERTEX
  8
0
 62
7
  6
CONTINUOUS
 10
50.5592996648
 20
120.4959968137
  0
SEQEND
  0
LINE
  8
DEFAULT_2
 62
8
  6
HIDDEN
 10
50.4275986794
 20
120.4941646877
 11
50.5392906043
 21
120.5477805125
  0
LINE
  8
DEFAULT_2
 62
8
  6
HIDDEN
 10
50.5509807865
 20
120.5532201373
 11
50.4742993758
 21
120.5167285536
  0
LINE
  8
DEFAULT_2
 62
8
  6
HIDDEN
 10
52.7574145917
 20
120.4979176724
 11
52.7478336772
 21
120.5017164291
  0
LINE
  8
DEFAULT_2
 62
8
  6
HIDDEN
 10
52.6665140014
 20
120.5981266313
 11
52.7801636306
 21
120.5487039798
  0
LINE
  8
DEFAULT_2
 62
8
  6
HIDDEN
 10
52.8685173067
 20
120.4507233426
 11
52.8608776023
 21
120.4539761095
  0
LINE
  8
DEFAULT_2
 62
8
  6
HIDDEN
 10
52.9460054021
 20
120.4157825774
 11
52.9436123358
 21
120.4169058046
  0
POLYLINE
  8
0
 62
7
  6
CONTINUOUS
 66
1
 70
0
  0
VERTEX
  8
0
 62
7
  6
CONTINUOUS
 10
53.0106736726
 20
120.3852662368
  0
VERTEX
  8
0
 62
7
  6
CONTINUOUS
 10
52.9932401284
 20
120.3936121386
  0
VERTEX
  8
0
 62
7
  6
CONTINUOUS
 10
52.9460054021
 20
120.4157825774
  0
SEQEND
  0
LINE
  8
DEFAULT_2
 62
8
  6
HIDDEN
 10
52.7717554603
 20
120.5524306345
 11
52.8537473637
 21
120.5133970215
  0
LINE
  8
0
 62
7
  6
CONTINUOUS
 10
89.6606061866
 20
120.3852662368
 11
88.9106061866
 21
121.1352662368
  0
LINE
  8
0
 62
7
  6
CONTINUOUS
 10
103.6606061866
 20
120.3852662368
 11
103.6606061866
 21
126.3852662368
  0
LINE
  8
DEFAULT_2
 62
8
  6
HIDDEN
 10
50.3798807832
 20
120.4179927793
 11
50.3292272152
 21
120.3942004172
  0
LINE
  8
DEFAULT_2
 62
8
  6
HIDDEN
 10
50.4634115339
 20
120.45539226
 11
50.4492628822
 21
120.4492018805
  0
LINE
  8
DEFAULT_2
 62
8
  6
HIDDEN
 10
50.6563285113
 20
120.5989170082
 11
50.5392906043
 21
120.5477805125
  0
POLYLINE
  8
DEFAULT_2
 62
8
  6
HIDDEN
 66
1
 70
0
  0
VERTEX
  8
DEFAULT_2
 62
8
  6
HIDDEN
 10
50.6415841694
 20
120.5925625569
  0
VERTEX
  8
DEFAULT_2
 62
8
  6
HIDDEN
 10
50.772526002
 20
120.6454226601
  0
VERTEX
  8
DEFAULT_2
 62
8
  6
HIDDEN
 10
50.927488681
 20
120.6992666331
  0
VERTEX
  8
DEFAULT_2
 62
8
  6
HIDDEN
 10
51.1006397447
 20
120.7477170244
  0
SEQEND
  0
LINE
  8
DEFAULT_2
 62
8
  6
HIDDEN
 10
52.4478754841
 20
120.6078980401
 11
52.4383236874
 21
120.6109262915
  0
LINE
  8
DEFAULT_2
 62
8
  6
HIDDEN
 10
52.3797598292
 20
120.703693811
 11
52.5459265809
 21
120.6464152732
  0
LINE
  8
DEFAULT_2
 62
8
  6
HIDDEN
 10
52.6147959712
 20
120.5522164796
 11
52.6045874514
 21
120.5559115337
  0
POLYLINE
  8
0
 62
7
  6
CONTINUOUS
 66
1
 70
0
  0
VERTEX
  8
0
 62
7
  6
CONTINUOUS
 10
52.6147959712
 20
120.5522164796
  0
VERTEX
  8
0
 62
7
  6
CONTINUOUS
 10
52.7574145917
 20
120.4979176724
  0
VERTEX
  8
0
 62
7
  6
CONTINUOUS
 10
52.8685173067
 20
120.4507233426
  0
VERTEX
  8
0
 62
7
  6
CONTINUOUS
 10
52.9486744289
 20
120.4145790656
  0
SEQEND
  0
LINE
  8
DEFAULT_2
 62
8
  6
HIDDEN
 10
52.5342495614
 20
120.6507632961
 11
52.677202861
 21
120.5937701711
  0
LINE
  8
02___PRT_ALL_AXES
 62
8
  6
HIDDEN
 10
112.6606061866
 20
120.3852662368
 11
112.6606061866
 21
126.3852662368
  0
LINE
  8
02___PRT_ALL_AXES
 62
2
  6
CENTER
 10
113.6606061866
 20
131.3852662368
 11
113.6606061866
 21
115.3852662368
  0
LINE
  8
02___PRT_ALL_AXES
 62
8
  6
HIDDEN
 10
114.6606061866
 20
120.3852662368
 11
114.6606061866
 21
126.3852662368
  0
LINE
  8
0
 62
7
  6
CONTINUOUS
 10
50.5592996648
 20
120.4959968137
 11
50.7011998158
 21
120.5503291583
  0
POLYLINE
  8
DEFAULT_2
 62
8
  6
HIDDEN
 66
1
 70
0
  0
VERTEX
  8
DEFAULT_2
 62
8
  6
HIDDEN
 10
50.7206570253
 20
120.5573134978
  0
VERTEX
  8
DEFAULT_2
 62
8
  6
HIDDEN
 10
50.5770430424
 20
120.5032439469
  0
VERTEX
  8
DEFAULT_2
 62
8
  6
HIDDEN
 10
50.5592996648
 20
120.4959968137
  0
SEQEND
  0
POLYLINE
  8
0
 62
7
  6
CONTINUOUS
 66
1
 70
0
  0
VERTEX
  8
0
 62
7
  6
CONTINUOUS
 10
50.7011998158
 20
120.5503291583
  0
VERTEX
  8
0
 62
7
  6
CONTINUOUS
 10
50.8678252177
 20
120.6063574096
  0
VERTEX
  8
0
 62
7
  6
CONTINUOUS
 10
51.0551157846
 20
120.6568198309
  0
VERTEX
  8
0
 62
7
  6
CONTINUOUS
 10
51.2545923828
 20
120.6971175645
  0
SEQEND
  0
LINE
  8
DEFAULT_2
 62
8
  6
HIDDEN
 10
223.112041596
 20
120.7505760011
 11
222.9302995015
 21
120.6998962999
  0
LINE
  8
DEFAULT_2
 62
8
  6
HIDDEN
 10
223.0673302153
 20
120.6597980628
 11
223.0604213418
 21
120.6579022116
  0
LINE
  8
DEFAULT_2
 62
8
  6
HIDDEN
 10
52.2607915625
 20
120.6579020835
 11
52.2538822395
 21
120.6597980476
  0
LINE
  8
DEFAULT_2
 62
8
  6
HIDDEN
 10
52.2091708287
 20
120.7505760005
 11
52.390913271
 21
120.6998961801
  0
POLYLINE
  8
DEFAULT_2
 62
8
  6
HIDDEN
 66
1
 70
0
  0
VERTEX
  8
DEFAULT_2
 62
8
  6
HIDDEN
 10
223.1033832487
 20
120.7480778278
  0
VERTEX
  8
DEFAULT_2
 62
8
  6
HIDDEN
 10
223.2876368932
 20
120.786955829
  0
VERTEX
  8
DEFAULT_2
 62
8
  6
HIDDEN
 10
223.4747369797
 20
120.8097249655
  0
VERTEX
  8
DEFAULT_2
 62
8
  6
HIDDEN
 10
223.6606061866
 20
120.8186536833
  0
SEQEND
  0
POLYLINE
  8
0
 62
7
  6
CONTINUOUS
 66
1
 70
0
  0
VERTEX
  8
0
 62
7
  6
CONTINUOUS
 10
52.0622007136
 20
120.6977086914
  0
VERTEX
  8
0
 62
7
  6
CONTINUOUS
 10
52.2607915625
 20
120.6579020835
  0
VERTEX
  8
0
 62
7
  6
CONTINUOUS
 10
52.4478754841
 20
120.6078980401
  0
VERTEX
  8
0
 62
7
  6
CONTINUOUS
 10
52.6147959712
 20
120.5522164796
  0
SEQEND
  0
LINE
  8
DEFAULT_2
 62
8
  6
HIDDEN
 10
52.0283275901
 20
120.7880835581
 11
52.2178295207
 21
120.74807773
  0
POLYLINE
  8
0
 62
7
  6
CONTINUOUS
 66
1
 70
0
  0
VERTEX
  8
0
 62
7
  6
CONTINUOUS
 10
223.2590121106
 20
120.6977087685
  0
VERTEX
  8
0
 62
7
  6
CONTINUOUS
 10
223.4578192278
 20
120.7221513273
  0
VERTEX
  8
0
 62
7
  6
CONTINUOUS
 10
223.6606061866
 20
120.7301498021
  0
SEQEND
  0
LINE
  8
DEFAULT_2
 62
8
  6
HIDDEN
 10
223.4594720018
 20
120.7222568951
 11
223.4589776626
 21
120.7221970192
  0
POLYLINE
  8
DEFAULT_2
 62
8
  6
HIDDEN
 66
1
 70
0
  0
VERTEX
  8
DEFAULT_2
 62
8
  6
HIDDEN
 10
52.0283275901
 20
120.7880835581
  0
VERTEX
  8
DEFAULT_2
 62
8
  6
HIDDEN
 10
51.8440919908
 20
120.8100960735
  0
VERTEX
  8
DEFAULT_2
 62
8
  6
HIDDEN
 10
51.6606061866
 20
120.8186536833
  0
SEQEND
  0
LINE
  8
0
 62
7
  6
CONTINUOUS
 10
129.6606061866
 20
120.3852662368
 11
129.6606061866
 21
126.3852662368
  0
LINE
  8
0
 62
7
  6
CONTINUOUS
 10
130.4106061866
 20
121.1352662368
 11
130.4106061866
 21
125.6352662368
  0
POLYLINE
  8
02___PRT_ALL_AXES
 62
7
  6
CONTINUOUS
 66
1
 70
0
  0
VERTEX
  8
02___PRT_ALL_AXES
 62
7
  6
CONTINUOUS
 10
114.6606061866
 20
126.3852662368
  0
VERTEX
  8
02___PRT_ALL_AXES
 62
7
  6
CONTINUOUS
 10
114.6451619931
 20
126.3801919682
  0
VERTEX
  8
02___PRT_ALL_AXES
 62
7
  6
CONTINUOUS
 10
114.6010920613
 20
126.3659563718
  0
VERTEX
  8
02___PRT_ALL_AXES
 62
7
  6
CONTINUOUS
 10
114.5270103369
 20
126.3435688047
  0
VERTEX
  8
02___PRT_ALL_AXES
 62
7
  6
CONTINUOUS
 10
114.427074983
 20
126.315705524
  0
VERTEX
  8
02___PRT_ALL_AXES
 62
7
  6
CONTINUOUS
 10
114.3033585158
 20
126.2859098917
  0
VERTEX
  8
02___PRT_ALL_AXES
 62
7
  6
CONTINUOUS
 10
114.1607318223
 20
126.2575694331
  0
VERTEX
  8
02___PRT_ALL_AXES
 62
7
  6
CONTINUOUS
 10
114.0031575997
 20
126.2344647206
  0
VERTEX
  8
02___PRT_ALL_AXES
 62
7
  6
CONTINUOUS
 10
113.8354329329
 20
126.2190912828
  0
VERTEX
  8
02___PRT_ALL_AXES
 62
7
  6
CONTINUOUS
 10
113.6617017022
 20
126.2138798371
  0
VERTEX
  8
02___PRT_ALL_AXES
 62
7
  6
CONTINUOUS
 10
113.4878862186
 20
126.2189620899
  0
VERTEX
  8
02___PRT_ALL_AXES
 62
7
  6
CONTINUOUS
 10
113.3198279433
 20
126.2342686178
  0
VERTEX
  8
02___PRT_ALL_AXES
 62
7
  6
CONTINUOUS
 10
113.161913305
 20
126.2573203084
  0
VERTEX
  8
02___PRT_ALL_AXES
 62
7
  6
CONTINUOUS
 10
113.0192876784
 20
126.2855619579
  0
VERTEX
  8
02___PRT_ALL_AXES
 62
7
  6
CONTINUOUS
 10
112.8955156862
 20
126.3153453269
  0
VERTEX
  8
02___PRT_ALL_AXES
 62
7
  6
CONTINUOUS
 10
112.7950292703
 20
126.34335505
  0
VERTEX
  8
02___PRT_ALL_AXES
 62
7
  6
CONTINUOUS
 10
112.720371849
 20
126.3658770148
  0
VERTEX
  8
02___PRT_ALL_AXES
 62
7
  6
CONTINUOUS
 10
112.6760667459
 20
126.3801736474
  0
VERTEX
  8
02___PRT_ALL_AXES
 62
7
  6
CONTINUOUS
 10
112.6606061866
 20
126.3852662368
  0
SEQEND
  0
LINE
  8
02___PRT_ALL_AXES
 62
8
  6
HIDDEN
 10
114.6009123391
 20
126.3658996696
 11
114.605309999
 21
126.3673188622
  0
POLYLINE
  8
0
 62
7
  6
CONTINUOUS
 66
1
 70
0
  0
VERTEX
  8
0
 62
7
  6
CONTINUOUS
 10
51.6606061866
 20
120.7301498021
  0
VERTEX
  8
0
 62
7
  6
CONTINUOUS
 10
51.8633934196
 20
120.7221512906
  0
VERTEX
  8
0
 62
7
  6
CONTINUOUS
 10
52.0622007136
 20
120.6977086914
  0
SEQEND
  0
LINE
  8
0
 62
7
  6
CONTINUOUS
 10
130.4106061866
 20
121.1352662368
 11
129.6606061866
 21
120.3852662368
  0
POLYLINE
  8
02___PRT_ALL_AXES
 62
7
  6
CONTINUOUS
 66
1
 70
0
  0
VERTEX
  8
02___PRT_ALL_AXES
 62
7
  6
CONTINUOUS
 10
112.6606061866
 20
120.3852662368
  0
VERTEX
  8
02___PRT_ALL_AXES
 62
7
  6
CONTINUOUS
 10
112.6760506858
 20
120.3903528199
  0
VERTEX
  8
02___PRT_ALL_AXES
 62
7
  6
CONTINUOUS
 10
112.720300519
 20
120.4046329571
  0
VERTEX
  8
02___PRT_ALL_AXES
 62
7
  6
CONTINUOUS
 10
112.7948455159
 20
120.4271271933
  0
VERTEX
  8
02___PRT_ALL_AXES
 62
7
  6
CONTINUOUS
 10
112.8952161873
 20
120.4551089286
  0
VERTEX
  8
02___PRT_ALL_AXES
 62
7
  6
CONTINUOUS
 10
113.0189541827
 20
120.4848894878
  0
VERTEX
  8
02___PRT_ALL_AXES
 62
7
  6
CONTINUOUS
 10
113.1615159148
 20
120.5131431372
  0
VERTEX
  8
02___PRT_ALL_AXES
 62
7
  6
CONTINUOUS
 10
113.3191843489
 20
120.5361977363
  0
VERTEX
  8
02___PRT_ALL_AXES
 62
7
  6
CONTINUOUS
 10
113.4870214764
 20
120.5515175445
  0
VERTEX
  8
02___PRT_ALL_AXES
 62
7
  6
CONTINUOUS
 10
113.6608580622
 20
120.5566448691
  0
VERTEX
  8
02___PRT_ALL_AXES
 62
7
  6
CONTINUOUS
 10
113.8346707509
 20
120.5514881099
  0
VERTEX
  8
02___PRT_ALL_AXES
 62
7
  6
CONTINUOUS
 10
114.0024161957
 20
120.5361549734
  0
VERTEX
  8
02___PRT_ALL_AXES
 62
7
  6
CONTINUOUS
 10
114.1599851357
 20
120.5130929596
  0
VERTEX
  8
02___PRT_ALL_AXES
 62
7
  6
CONTINUOUS
 10
114.3025178149
 20
120.4848263461
  0
VERTEX
  8
02___PRT_ALL_AXES
 62
7
  6
CONTINUOUS
 10
114.4262223718
 20
120.4550498382
  0
VERTEX
  8
02___PRT_ALL_AXES
 62
7
  6
CONTINUOUS
 10
114.526476002
 20
120.4271032253
  0
VERTEX
  8
02___PRT_ALL_AXES
 62
7
  6
CONTINUOUS
 10
114.6009117786
 20
120.4046329809
  0
VERTEX
  8
02___PRT_ALL_AXES
 62
7
  6
CONTINUOUS
 10
114.6451333574
 20
120.3903548339
  0
VERTEX
  8
02___PRT_ALL_AXES
 62
7
  6
CONTINUOUS
 10
114.6606061866
 20
120.3852662368
  0
SEQEND
  0
LINE
  8
02___PRT_ALL_AXES
 62
7
  6
CONTINUOUS
 10
225.4103790743
 20
120.3852662368
 11
225.0106064633
 21
120.3852662368
  0
LINE
  8
02___PRT_ALL_AXES
 62
7
  6
CONTINUOUS
 10
222.3106058144
 20
120.3852662368
 11
220.6606061866
 21
120.3852662368
  0
LINE
  8
0
 62
7
  6
CONTINUOUS
 10
220.6606061866
 20
120.3852662368
 11
209.6606061866
 21
120.3852662368
  0
LINE
  8
0
 62
7
  6
CONTINUOUS
 10
129.6606061866
 20
120.3852662368
 11
114.6606061866
 21
120.3852662368
  0
LINE
  8
02___PRT_ALL_AXES
 62
7
  6
CONTINUOUS
 10
112.6606061866
 20
120.3852662368
 11
103.6606061866
 21
120.3852662368
  0
LINE
  8
0
 62
7
  6
CONTINUOUS
 10
102.6606061866
 20
120.3852662368
 11
89.6606061866
 21
120.3852662368
  0
LINE
  8
0
 62
7
  6
CONTINUOUS
 10
65.6606061866
 20
120.3852662368
 11
54.6606061866
 21
120.3852662368
  0
LINE
  8
02___PRT_ALL_AXES
 62
7
  6
CONTINUOUS
 10
54.6606061866
 20
120.3852662368
 11
53.0106054713
 21
120.3852662368
  0
LINE
  8
02___PRT_ALL_AXES
 62
7
  6
CONTINUOUS
 10
50.310606785
 20
120.3852662368
 11
49.9107761064
 21
120.3852662368
  0
LINE
  8
0
 62
7
  6
CONTINUOUS
 10
103.6606061866
 20
120.9852662368
 11
102.6606061866
 21
120.9852662368
  0
LINE
  8
0
 62
7
  6
CONTINUOUS
 10
208.9106061866
 20
121.1352662368
 11
130.4106061866
 21
121.1352662368
  0
LINE
  8
0
 62
7
  6
CONTINUOUS
 10
88.9106061866
 20
121.1352662368
 11
66.4106061866
 21
121.1352662368
  0
LINE
  8
02___PRT_ALL_AXES
 62
2
  6
CENTER
 10
44.9104784483
 20
123.3852662368
 11
230.4108085579
 21
123.3852662368
  0
POLYLINE
  8
0
 62
7
  6
CONTINUOUS
 66
1
 70
0
  0
VERTEX
  8
0
 62
7
  6
CONTINUOUS
 10
223.6606061866
 20
120.7301498021
  0
VERTEX
  8
0
 62
7
  6
CONTINUOUS
 10
223.8660188237
 20
120.7219266878
  0
VERTEX
  8
0
 62
7
  6
CONTINUOUS
 10
224.0666198433
 20
120.6971175783
  0
SEQEND
  0
LINE
  8
02___PRT_ALL_AXES
 62
8
  6
HIDDEN
 10
112.7203918379
 20
126.3658709847
 11
112.7204273467
 21
126.3658595085
  0
LINE
  8
0
 62
7
  6
CONTINUOUS
 10
130.4106061866
 20
125.6352662368
 11
129.6606061866
 21
126.3852662368
  0
LINE
  8
0
 62
7
  6
CONTINUOUS
 10
49.6606061866
 20
124.8852662368
 11
54.6606061866
 21
124.8852662368
  0
LINE
  8
0
 62
7
  6
CONTINUOUS
 10
220.6606061866
 20
124.8852662368
 11
225.6606061866
 21
124.8852662368
  0
LINE
  8
0
 62
7
  6
CONTINUOUS
 10
208.9106061866
 20
125.6352662368
 11
130.4106061866
 21
125.6352662368
  0
LINE
  8
0
 62
7
  6
CONTINUOUS
 10
88.9106061866
 20
125.6352662368
 11
66.4106061866
 21
125.6352662368
  0
LINE
  8
0
 62
7
  6
CONTINUOUS
 10
103.6606061866
 20
125.7852662368
 11
102.6606061866
 21
125.7852662368
  0
LINE
  8
0
 62
7
  6
CONTINUOUS
 10
220.6606061866
 20
126.3852662368
 11
209.6606061866
 21
126.3852662368
  0
LINE
  8
0
 62
7
  6
CONTINUOUS
 10
129.6606061866
 20
126.3852662368
 11
114.6606061866
 21
126.3852662368
  0
LINE
  8
02___PRT_ALL_AXES
 62
7
  6
CONTINUOUS
 10
112.6606061866
 20
126.3852662368
 11
103.6606061866
 21
126.3852662368
  0
LINE
  8
0
 62
7
  6
CONTINUOUS
 10
102.6606061866
 20
126.3852662368
 11
89.6606061866
 21
126.3852662368
  0
LINE
  8
0
 62
7
  6
CONTINUOUS
 10
65.6606061866
 20
126.3852662368
 11
54.6606061866
 21
126.3852662368
  0
LINE
  8
DEFAULT_2
 62
8
  6
HIDDEN
 10
223.8429622755
 20
120.8101781008
 11
223.6606061866
 21
120.8186536833
  0
POLYLINE
  8
0
 62
7
  6
CONTINUOUS
 66
1
 70
0
  0
VERTEX
  8
0
 62
7
  6
CONTINUOUS
 10
51.2545923828
 20
120.6971175645
  0
VERTEX
  8
0
 62
7
  6
CONTINUOUS
 10
51.4551934549
 20
120.7219266825
  0
VERTEX
  8
0
 62
7
  6
CONTINUOUS
 10
51.6606061866
 20
120.7301498021
  0
SEQEND
  0
POLYLINE
  8
DEFAULT_2
 62
8
  6
HIDDEN
 66
1
 70
0
  0
VERTEX
  8
DEFAULT_2
 62
8
  6
HIDDEN
 10
51.2852998105
 20
120.7868098814
  0
VERTEX
  8
DEFAULT_2
 62
8
  6
HIDDEN
 10
51.4733490311
 20
120.8096942132
  0
VERTEX
  8
DEFAULT_2
 62
8
  6
HIDDEN
 10
51.6606061866
 20
120.8186536833
  0
SEQEND
  0
LINE
  8
DEFAULT_2
 62
8
  6
HIDDEN
 10
51.4617035364
 20
120.7224868823
 11
51.4579835688
 21
120.7220383768
  0
LINE
  8
DEFAULT_2
 62
8
  6
HIDDEN
 10
223.8429622755
 20
120.8101781008
 11
224.0359124413
 21
120.7868098812
  0
LINE
  8
DEFAULT_2
 62
8
  6
HIDDEN
 10
51.29467397
 20
120.7882384722
 11
51.1006397447
 21
120.7477170244
  0
POLYLINE
  8
DEFAULT_2
 62
8
  6
HIDDEN
 66
1
 70
0
  0
VERTEX
  8
DEFAULT_2
 62
8
  6
HIDDEN
 10
51.2664772337
 20
120.6989490258
  0
VERTEX
  8
DEFAULT_2
 62
8
  6
HIDDEN
 10
51.0715080572
 20
120.6606113056
  0
VERTEX
  8
DEFAULT_2
 62
8
  6
HIDDEN
 10
50.8870536712
 20
120.6120379708
  0
VERTEX
  8
DEFAULT_2
 62
8
  6
HIDDEN
 10
50.7206570253
 20
120.5573134978
  0
SEQEND
  0
POLYLINE
  8
0
 62
7
  6
CONTINUOUS
 66
1
 70
0
  0
VERTEX
  8
0
 62
7
  6
CONTINUOUS
 10
224.0666198433
 20
120.6971175783
  0
VERTEX
  8
0
 62
7
  6
CONTINUOUS
 10
224.266096436
 20
120.65681986
  0
VERTEX
  8
0
 62
7
  6
CONTINUOUS
 10
224.4533870303
 20
120.606357445
  0
VERTEX
  8
0
 62
7
  6
CONTINUOUS
 10
224.6200124882
 20
120.5503291794
  0
SEQEND
  0
POLYLINE
  8
DEFAULT_2
 62
8
  6
HIDDEN
 66
1
 70
0
  0
VERTEX
  8
DEFAULT_2
 62
8
  6
HIDDEN
 10
224.0265381589
 20
120.7882385227
  0
VERTEX
  8
DEFAULT_2
 62
8
  6
HIDDEN
 10
224.2205725277
 20
120.7477170319
  0
VERTEX
  8
DEFAULT_2
 62
8
  6
HIDDEN
 10
224.3937236422
 20
120.6992666435
  0
VERTEX
  8
DEFAULT_2
 62
8
  6
HIDDEN
 10
224.548686382
 20
120.6454226517
  0
VERTEX
  8
DEFAULT_2
 62
8
  6
HIDDEN
 10
224.6796282636
 20
120.5925625278
  0
SEQEND
  0
POLYLINE
  8
DEFAULT_2
 62
8
  6
HIDDEN
 66
1
 70
0
  0
VERTEX
  8
DEFAULT_2
 62
8
  6
HIDDEN
 10
51.1138929483
 20
120.750767562
  0
VERTEX
  8
DEFAULT_2
 62
8
  6
HIDDEN
 10
50.9431667401
 20
120.7039672704
  0
VERTEX
  8
DEFAULT_2
 62
8
  6
HIDDEN
 10
50.7886550103
 20
120.6513119676
  0
VERTEX
  8
DEFAULT_2
 62
8
  6
HIDDEN
 10
50.6563285113
 20
120.5989170082
  0
SEQEND
  0
POLYLINE
  8
0
 62
7
  6
CONTINUOUS
 66
1
 70
0
  0
VERTEX
  8
0
 62
7
  6
CONTINUOUS
 10
222.7064167528
 20
120.5522165962
  0
VERTEX
  8
0
 62
7
  6
CONTINUOUS
 10
222.8733374006
 20
120.6078981917
  0
VERTEX
  8
0
 62
7
  6
CONTINUOUS
 10
223.0604213418
 20
120.6579022116
  0
VERTEX
  8
0
 62
7
  6
CONTINUOUS
 10
223.2590121106
 20
120.6977087685
  0
SEQEND
  0
LINE
  8
DEFAULT_2
 62
8
  6
HIDDEN
 10
222.8828887814
 20
120.6109263192
 11
222.8733374006
 21
120.6078981917
  0
POLYLINE
  8
DEFAULT_2
 62
8
  6
HIDDEN
 66
1
 70
0
  0
VERTEX
  8
DEFAULT_2
 62
8
  6
HIDDEN
 10
224.6005549894
 20
120.5573136173
  0
VERTEX
  8
DEFAULT_2
 62
8
  6
HIDDEN
 10
224.4341582211
 20
120.6120381102
  0
VERTEX
  8
DEFAULT_2
 62
8
  6
HIDDEN
 10
224.2497038475
 20
120.6606114175
  0
VERTEX
  8
DEFAULT_2
 62
8
  6
HIDDEN
 10
224.0547347647
 20
120.6989490899
  0
SEQEND
  0
LINE
  8
DEFAULT_2
 62
8
  6
HIDDEN
 10
224.7441691256
 20
120.5032440325
 11
224.6005549894
 21
120.5573136173
  0
LINE
  8
0
 62
7
  6
CONTINUOUS
 10
224.6200124882
 20
120.5503291794
 11
224.7619127002
 21
120.495996815
  0
POLYLINE
  8
DEFAULT_2
 62
8
  6
HIDDEN
 66
1
 70
0
  0
VERTEX
  8
DEFAULT_2
 62
8
  6
HIDDEN
 10
224.6648836858
 20
120.5989170879
  0
VERTEX
  8
DEFAULT_2
 62
8
  6
HIDDEN
 10
224.5325570793
 20
120.651312069
  0
VERTEX
  8
DEFAULT_2
 62
8
  6
HIDDEN
 10
224.3780452576
 20
120.7039673796
  0
VERTEX
  8
DEFAULT_2
 62
8
  6
HIDDEN
 10
224.2073190804
 20
120.7507676469
  0
SEQEND
  0
LINE
  8
DEFAULT_2
 62
8
  6
HIDDEN
 10
222.5733787559
 20
120.50171645
 11
222.5637979454
 21
120.4979177411
  0
LINE
  8
DEFAULT_2
 62
8
  6
HIDDEN
 10
222.7869628264
 20
120.6507632979
 11
222.6440096467
 21
120.5937702322
  0
LINE
  8
0
 62
7
  6
CONTINUOUS
 10
222.5637979454
 20
120.4979177411
 11
222.7064167528
 21
120.5522165962
  0
LINE
  8
DEFAULT_2
 62
8
  6
HIDDEN
 10
222.7166250048
 20
120.5559115602
 11
222.7064167528
 21
120.5522165962
  0
LINE
  8
DEFAULT_2
 62
8
  6
HIDDEN
 10
222.9414525827
 20
120.7036938211
 11
222.7752860628
 21
120.6464153708
  0
LINE
  8
0
 62
7
  6
CONTINUOUS
 10
224.7441691256
 20
120.5032440325
 11
224.8719495253
 21
120.4492018622
  0
LINE
  8
DEFAULT_2
 62
8
  6
HIDDEN
 10
224.6648836858
 20
120.5989170879
 11
224.7819218537
 21
120.5477804764
  0
LINE
  8
0
 62
7
  6
CONTINUOUS
 10
224.8578007177
 20
120.455392313
 11
224.9508779209
 21
120.4135689298
  0
LINE
  8
DEFAULT_2
 62
8
  6
HIDDEN
 10
224.770231478
 20
120.5532201909
 11
224.8548460927
 21
120.5128902339
  0
POLYLINE
  8
0
 62
7
  6
CONTINUOUS
 66
1
 70
0
  0
VERTEX
  8
0
 62
7
  6
CONTINUOUS
 10
225.010624845
 20
120.3852662581
  0
VERTEX
  8
0
 62
7
  6
CONTINUOUS
 10
224.9919851298
 20
120.3942004319
  0
VERTEX
  8
0
 62
7
  6
CONTINUOUS
 10
224.9413315254
 20
120.4179928077
  0
SEQEND
  0
LINE
  8
DEFAULT_2
 62
8
  6
HIDDEN
 10
222.4269465274
 20
120.4938355864
 11
222.4106061866
 21
120.4853311968
  0
POLYLINE
  8
0
 62
7
  6
CONTINUOUS
 66
1
 70
0
  0
VERTEX
  8
0
 62
7
  6
CONTINUOUS
 10
222.3105387538
 20
120.3852662676
  0
VERTEX
  8
0
 62
7
  6
CONTINUOUS
 10
222.3254072421
 20
120.3924113013
  0
VERTEX
  8
0
 62
7
  6
CONTINUOUS
 10
222.3725379591
 20
120.4145790716
  0
VERTEX
  8
0
 62
7
  6
CONTINUOUS
 10
222.4526951349
 20
120.4507233723
  0
VERTEX
  8
0
 62
7
  6
CONTINUOUS
 10
222.5637979454
 20
120.4979177411
  0
SEQEND
  0
LINE
  8
DEFAULT_2
 62
8
  6
HIDDEN
 10
222.4269465274
 20
120.4938355864
 11
222.5410487996
 21
120.5487040103
  0
LINE
  8
DEFAULT_2
 62
8
  6
HIDDEN
 10
222.5494569038
 20
120.55243063
 11
222.4730964263
 21
120.5160876851
  0
LINE
  8
DEFAULT_2
 62
8
  6
HIDDEN
 10
222.3776000528
 20
120.4169058141
 11
222.3752068122
 21
120.4157825051
  0
LINE
  8
DEFAULT_2
 62
8
  6
HIDDEN
 10
222.4603348071
 20
120.4539761252
 11
222.4526951349
 21
120.4507233723
  0
LINE
  8
DEFAULT_2
 62
8
  6
HIDDEN
 10
222.6546983671
 20
120.5981266234
 11
222.5410487996
 21
120.5487040103
  0
POLYLINE
  8
DEFAULT_2
 62
8
  6
HIDDEN
 66
1
 70
0
  0
VERTEX
  8
DEFAULT_2
 62
8
  6
HIDDEN
 10
224.9106061442
 20
120.4852929309
  0
VERTEX
  8
DEFAULT_2
 62
8
  6
HIDDEN
 10
224.8936136592
 20
120.494164701
  0
VERTEX
  8
DEFAULT_2
 62
8
  6
HIDDEN
 10
224.846912934
 20
120.5167285813
  0
SEQEND
  0
LINE
  8
DEFAULT_2
 62
8
  6
HIDDEN
 10
224.897629454
 20
120.4921628939
 11
224.9106061866
 21
120.4852931441
  0
LINE
  8
DEFAULT_2
 62
8
  6
HIDDEN
 10
222.4106062483
 20
120.4853313998
 11
222.424139869
 21
120.4924262
  0
LINE
  8
0
 62
7
  6
CONTINUOUS
 10
209.6606061866
 20
126.3852662368
 11
208.9106061866
 21
125.6352662368
  0
LINE
  8
0
 62
7
  6
CONTINUOUS
 10
209.6606061866
 20
120.3852662368
 11
208.9106061866
 21
121.1352662368
  0
LINE
  8
DEFAULT_2
 62
8
  6
HIDDEN
 10
222.4106062483
 20
120.4852666636
 11
222.3106058134
 21
120.3852662676
  0
LINE
  8
0
 62
7
  6
CONTINUOUS
 10
225.6606061866
 20
120.6355210701
 11
225.4103790843
 21
120.3852662418
  0
LINE
  8
DEFAULT_2
 62
8
  6
HIDDEN
 10
225.010606464
 20
120.3852662581
 11
224.9106061442
 21
120.4852665485
  0
LINE
  8
0
 62
7
  6
CONTINUOUS
 10
208.9106061866
 20
121.1352662368
 11
208.9106061866
 21
125.6352662368
  0
LINE
  8
0
 62
7
  6
CONTINUOUS
 10
209.6606061866
 20
120.3852662368
 11
209.6606061866
 21
126.3852662368
  0
LINE
  8
0
 62
7
  6
CONTINUOUS
 10
220.6606061866
 20
124.8852662368
 11
220.6606061866
 21
126.3852662368
  0
LINE
  8
02___PRT_ALL_AXES
 62
8
  6
HIDDEN
 10
222.4106061866
 20
124.8852662368
 11
222.4106061866
 21
120.4853268127
  0
LINE
  8
DEFAULT_2
 62
8
  6
HIDDEN
 10
223.660619204
 20
120.7301500594
 11
223.6606188402
 21
120.8186539437
  0
LINE
  8
02___PRT_ALL_AXES
 62
2
  6
CENTER
 10
223.6606061866
 20
115.4853268127
 11
223.6606061866
 21
129.8852662368
  0
LINE
  8
02___PRT_ALL_AXES
 62
8
  6
HIDDEN
 10
224.9106061866
 20
124.8852662368
 11
224.9106061866
 21
120.4852841228
  0
LINE
  8
0
 62
7
  6
CONTINUOUS
 10
225.6606061866
 20
124.8852662368
 11
225.6606061866
 21
120.6359481404
  0
LINE
  8
0
 62
7
  6
CONTINUOUS
 10
225.4103791033
 20
120.3852662368
 11
225.4106061866
 21
124.8852662368
  0
POLYLINE
  8
DEFAULT_2
 62
8
  6
HIDDEN
 66
1
 70
0
  0
VERTEX
  8
DEFAULT_2
 62
8
  6
HIDDEN
 10
259.1980703003
 20
120.5989170879
  0
VERTEX
  8
DEFAULT_2
 62
8
  6
HIDDEN
 10
259.0466757243
 20
120.651312069
  0
VERTEX
  8
DEFAULT_2
 62
8
  6
HIDDEN
 10
258.9187209938
 20
120.7039673796
  0
SEQEND
  0
LINE
  8
DEFAULT_2
 62
8
  6
HIDDEN
 10
258.9199248635
 20
120.703693811
 11
258.8191334504
 21
120.7505760005
  0
LINE
  8
DEFAULT_2
 62
8
  6
HIDDEN
 10
258.5459921163
 20
120.7300388215
 11
258.5457811001
 21
120.7301498021
  0
POLYLINE
  8
DEFAULT_2
 62
8
  6
HIDDEN
 66
1
 70
0
  0
VERTEX
  8
DEFAULT_2
 62
8
  6
HIDDEN
 10
258.8191334504
 20
120.7505760005
  0
VERTEX
  8
DEFAULT_2
 62
8
  6
HIDDEN
 10
258.7058729747
 20
120.8100960735
  0
VERTEX
  8
DEFAULT_2
 62
8
  6
HIDDEN
 10
258.6926088293
 20
120.8182494972
  0
SEQEND
  0
LINE
  8
DEFAULT_2
 62
8
  6
HIDDEN
 10
258.6926088293
 20
120.8182494972
 11
258.6923328243
 21
120.8186536833
  0
LINE
  8
DEFAULT_2
 62
8
  6
HIDDEN
 10
258.6925604259
 20
120.8183061616
 11
258.6923328243
 21
120.8186536833
  0
LINE
  8
DEFAULT_2
 62
8
  6
HIDDEN
 10
258.6923328243
 20
120.8186536833
 11
258.6925473502
 21
120.8183118612
  0
LINE
  8
DEFAULT_2
 62
8
  6
HIDDEN
 10
258.6923328243
 20
120.8186536833
 11
258.6924960032
 21
120.8183745447
  0
LINE
  8
DEFAULT_2
 62
8
  6
HIDDEN
 10
261.3393004677
 20
120.7303686111
 11
261.1920579519
 21
120.8192659963
  0
LINE
  8
DEFAULT_2
 62
8
  6
HIDDEN
 10
258.6923328243
 20
124.8852662368
 11
258.6923328243
 21
120.8186536833
  0
LINE
  8
02___PRT_ALL_AXES
 62
8
  6
HIDDEN
 10
258.9423328243
 20
120.5568391121
 11
258.9423328243
 21
126.2136933616
  0
LINE
  8
02___PRT_ALL_AXES
 62
2
  6
CENTER
 10
259.9423328243
 20
123.3852662368
 11
259.9423328243
 21
116.3852662368
  0
LINE
  8
02___PRT_ALL_AXES
 62
2
  6
CENTER
 10
259.9423328243
 20
123.3852662368
 11
259.9423328243
 21
130.3852662368
  0
LINE
  8
02___PRT_ALL_AXES
 62
2
  6
CENTER
 10
259.9423328243
 20
123.3852662368
 11
252.9423328243
 21
123.3852662368
  0
LINE
  8
02___PRT_ALL_AXES
 62
2
  6
CENTER
 10
259.9423328243
 20
123.3852662368
 11
266.9423328243
 21
123.3852662368
  0
LINE
  8
02___PRT_ALL_AXES
 62
8
  6
HIDDEN
 10
260.9423328243
 20
120.5568391121
 11
260.9423328243
 21
126.2136933616
  0
LINE
  8
DEFAULT_2
 62
8
  6
HIDDEN
 10
261.1923328243
 20
124.8852662368
 11
261.1923328243
 21
120.8186536833
  0
LINE
  8
DEFAULT_2
 62
8
  6
HIDDEN
 10
258.5457811094
 20
120.7301497873
 11
258.6923328333
 21
120.8186536684
  0
LINE
  8
0
 62
7
  6
CONTINUOUS
 10
257.3442566129
 20
124.8852662368
 11
262.5404090356
 21
124.8852662368
  0
LINE
  8
DEFAULT_2
 62
8
  6
HIDDEN
 10
261.1923328243
 20
120.8186536833
 11
261.192161661
 21
120.8183405568
  0
LINE
  8
DEFAULT_2
 62
8
  6
HIDDEN
 10
261.1923328243
 20
120.8186536833
 11
261.1921162232
 21
120.8182940084
  0
LINE
  8
DEFAULT_2
 62
8
  6
HIDDEN
 10
261.1920584126
 20
120.8182335102
 11
261.1923328243
 21
120.8186536833
  0
LINE
  8
DEFAULT_2
 62
8
  6
HIDDEN
 10
261.192161661
 20
120.8183405568
 11
261.1784366112
 21
120.8097249348
  0
LINE
  8
DEFAULT_2
 62
8
  6
HIDDEN
 10
261.1921162232
 20
120.8182940084
 11
261.1782271524
 21
120.8096942117
  0
LINE
  8
DEFAULT_2
 62
8
  6
HIDDEN
 10
261.1784366112
 20
120.8097249348
 11
261.0612618461
 21
120.74807773
  0
LINE
  8
DEFAULT_2
 62
8
  6
HIDDEN
 10
261.1346604702
 20
120.7868098812
 11
261.0598916356
 21
120.7477170319
  0
LINE
  8
DEFAULT_2
 62
8
  6
HIDDEN
 10
261.0612618461
 20
120.74807773
 11
260.9568038995
 21
120.6998961801
  0
LINE
  8
DEFAULT_2
 62
8
  6
HIDDEN
 10
261.3388845484
 20
120.7301498021
 11
261.3387330889
 21
120.7300701422
  0
LINE
  8
DEFAULT_2
 62
8
  6
HIDDEN
 10
260.9547748208
 20
120.6992666435
 11
260.8219995603
 21
120.6454226517
  0
POLYLINE
  8
DEFAULT_2
 62
8
  6
HIDDEN
 66
1
 70
0
  0
VERTEX
  8
DEFAULT_2
 62
8
  6
HIDDEN
 10
260.8247770431
 20
120.6464152732
  0
VERTEX
  8
DEFAULT_2
 62
8
  6
HIDDEN
 10
260.6696781354
 20
120.5937701711
  0
VERTEX
  8
DEFAULT_2
 62
8
  6
HIDDEN
 10
260.4982924718
 20
120.5487039798
  0
VERTEX
  8
DEFAULT_2
 62
8
  6
HIDDEN
 10
260.3150446857
 20
120.5133970215
  0
VERTEX
  8
DEFAULT_2
 62
8
  6
HIDDEN
 10
260.1257750078
 20
120.4924262015
  0
VERTEX
  8
DEFAULT_2
 62
8
  6
HIDDEN
 10
259.9333190528
 20
120.4853448761
  0
VERTEX
  8
DEFAULT_2
 62
8
  6
HIDDEN
 10
259.7408784737
 20
120.4938355869
  0
VERTEX
  8
DEFAULT_2
 62
8
  6
HIDDEN
 10
259.552050122
 20
120.5160876842
  0
VERTEX
  8
DEFAULT_2
 62
8
  6
HIDDEN
 10
259.3697533176
 20
120.5524306345
  0
VERTEX
  8
DEFAULT_2
 62
8
  6
HIDDEN
 10
259.2002752334
 20
120.5981266313
  0
SEQEND
  0
LINE
  8
0
 62
7
  6
CONTINUOUS
 10
49.6606061866
 20
68.1286182896
 11
49.6606061866
 21
73.6286064964
  0
LINE
  8
DEFAULT_2
 62
8
  6
HIDDEN
 10
49.9106061866
 20
68.2805928026
 11
49.9106061866
 21
73.4767452253
  0
LINE
  8
0
 62
7
  6
CONTINUOUS
 10
49.9106061866
 20
68.2805928026
 11
49.9105250682
 21
67.8786690202
  0
LINE
  8
0
 62
7
  6
CONTINUOUS
 10
49.9106390136
 20
73.8786690077
 11
49.9106061866
 21
73.4767452253
  0
LINE
  8
DEFAULT_2
 62
8
  6
HIDDEN
 10
49.9105250846
 20
67.878669014
 11
49.9105329399
 21
67.8804874896
  0
LINE
  8
DEFAULT_2
 62
8
  6
HIDDEN
 10
51.6605903291
 20
69.4821174711
 11
51.6605908277
 21
69.6286691943
  0
LINE
  8
02___PRT_ALL_AXES
 62
2
  6
CENTER
 10
51.6606061866
 20
70.878669014
 11
51.6606061866
 21
65.628669014
  0
LINE
  8
02___PRT_ALL_AXES
 62
2
  6
CENTER
 10
51.6606061866
 20
70.878669014
 11
51.6606061866
 21
76.128669014
  0
LINE
  8
DEFAULT_2
 62
8
  6
HIDDEN
 10
51.6606070424
 20
72.2752207288
 11
51.6606070174
 21
72.1286690049
  0
LINE
  8
0
 62
7
  6
CONTINUOUS
 10
54.6606061866
 20
68.2805928026
 11
54.6606061866
 21
73.4767452253
  0
LINE
  8
0
 62
7
  6
CONTINUOUS
 10
65.6606061866
 20
67.878669014
 11
65.6606061866
 21
73.878669014
  0
LINE
  8
0
 62
7
  6
CONTINUOUS
 10
66.4106061866
 20
68.628669014
 11
66.4106061866
 21
73.128669014
  0
POLYLINE
  8
0
 62
7
  6
CONTINUOUS
 66
1
 70
0
  0
VERTEX
  8
0
 62
7
  6
CONTINUOUS
 10
49.9106061866
 20
73.4767452253
  0
VERTEX
  8
0
 62
7
  6
CONTINUOUS
 10
49.8470546724
 20
73.4033034601
  0
VERTEX
  8
0
 62
7
  6
CONTINUOUS
 10
49.7842041676
 20
73.3299578555
  0
VERTEX
  8
0
 62
7
  6
CONTINUOUS
 10
49.7220546724
 20
73.2567084115
  0
VERTEX
  8
0
 62
7
  6
CONTINUOUS
 10
49.6606061866
 20
73.1835551283
  0
SEQEND
  0
LINE
  8
0
 62
7
  6
CONTINUOUS
 10
49.6606061866
 20
73.6286080465
 11
49.9106394433
 21
73.8786690077
  0
LINE
  8
0
 62
7
  6
CONTINUOUS
 10
49.6606061866
 20
68.1286166892
 11
49.9105261637
 21
67.8786690202
  0
POLYLINE
  8
0
 62
7
  6
CONTINUOUS
 66
1
 70
0
  0
VERTEX
  8
0
 62
7
  6
CONTINUOUS
 10
49.6606061866
 20
68.5737828996
  0
VERTEX
  8
0
 62
7
  6
CONTINUOUS
 10
49.7223463312
 20
68.500339698
  0
VERTEX
  8
0
 62
7
  6
CONTINUOUS
 10
49.7845930461
 20
68.4269936147
  0
VERTEX
  8
0
 62
7
  6
CONTINUOUS
 10
49.8473463312
 20
68.3537446495
  0
VERTEX
  8
0
 62
7
  6
CONTINUOUS
 10
49.9106061866
 20
68.2805928026
  0
SEQEND
  0
LINE
  8
0
 62
7
  6
CONTINUOUS
 10
88.9106061866
 20
68.628669014
 11
88.9106061866
 21
73.128669014
  0
LINE
  8
0
 62
7
  6
CONTINUOUS
 10
89.6606061866
 20
67.878669014
 11
89.6606061866
 21
73.878669014
  0
LINE
  8
0
 62
7
  6
CONTINUOUS
 10
66.4106061866
 20
68.628669014
 11
65.6606061866
 21
67.878669014
  0
LINE
  8
0
 62
7
  6
CONTINUOUS
 10
66.4106061866
 20
73.128669014
 11
65.6606061866
 21
73.878669014
  0
LINE
  8
0
 62
7
  6
CONTINUOUS
 10
102.6606061866
 20
67.8791336459
 11
102.6606061866
 21
73.878204382
  0
LINE
  8
0
 62
7
  6
CONTINUOUS
 10
89.6606061866
 20
73.878669014
 11
88.9106061866
 21
73.128669014
  0
LINE
  8
0
 62
7
  6
CONTINUOUS
 10
89.6606061866
 20
67.878669014
 11
88.9106061866
 21
68.628669014
  0
LINE
  8
0
 62
7
  6
CONTINUOUS
 10
103.6606061866
 20
67.8791336459
 11
103.6606061866
 21
73.878204382
  0
LINE
  8
02___PRT_ALL_AXES
 62
2
  6
CENTER
 10
113.6606061866
 20
70.878669014
 11
113.6606061866
 21
65.878669014
  0
LINE
  8
02___PRT_ALL_AXES
 62
2
  6
CENTER
 10
113.6606061866
 20
70.878669014
 11
113.6606061866
 21
75.878669014
  0
LINE
  8
0
 62
7
  6
CONTINUOUS
 10
129.6606061866
 20
67.878669014
 11
129.6606061866
 21
73.878669014
  0
LINE
  8
0
 62
7
  6
CONTINUOUS
 10
130.4106061866
 20
68.628669014
 11
130.4106061866
 21
73.128669014
  0
POLYLINE
  8
DEFAULT_2
 62
8
  6
HIDDEN
 66
1
 70
0
  0
VERTEX
  8
DEFAULT_2
 62
8
  6
HIDDEN
 10
223.6606061866
 20
69.4821172898
  0
VERTEX
  8
DEFAULT_2
 62
8
  6
HIDDEN
 10
223.8660188237
 20
69.4978640145
  0
VERTEX
  8
DEFAULT_2
 62
8
  6
HIDDEN
 10
224.0666198433
 20
69.5468068629
  0
VERTEX
  8
DEFAULT_2
 62
8
  6
HIDDEN
 10
224.266096436
 20
69.6314399376
  0
VERTEX
  8
DEFAULT_2
 62
8
  6
HIDDEN
 10
224.4533870303
 20
69.7483301591
  0
VERTEX
  8
DEFAULT_2
 62
8
  6
HIDDEN
 10
224.6200124882
 20
69.8972761873
  0
VERTEX
  8
DEFAULT_2
 62
8
  6
HIDDEN
 10
224.7619127002
 20
70.0711281742
  0
VERTEX
  8
DEFAULT_2
 62
8
  6
HIDDEN
 10
224.8719495253
 20
70.262612208
  0
VERTEX
  8
DEFAULT_2
 62
8
  6
HIDDEN
 10
224.9508779209
 20
70.4675545346
  0
VERTEX
  8
DEFAULT_2
 62
8
  6
HIDDEN
 10
224.9968426535
 20
70.6792982629
  0
VERTEX
  8
DEFAULT_2
 62
8
  6
HIDDEN
 10
225.0105361549
 20
70.8948165295
  0
VERTEX
  8
DEFAULT_2
 62
8
  6
HIDDEN
 10
224.9919851298
 20
71.1100244773
  0
VERTEX
  8
DEFAULT_2
 62
8
  6
HIDDEN
 10
224.9413315254
 20
71.3205834815
  0
VERTEX
  8
DEFAULT_2
 62
8
  6
HIDDEN
 10
224.8578007177
 20
71.5235246491
  0
VERTEX
  8
DEFAULT_2
 62
8
  6
HIDDEN
 10
224.7441691256
 20
71.7117044355
  0
VERTEX
  8
DEFAULT_2
 62
8
  6
HIDDEN
 10
224.6005549894
 20
71.8800101054
  0
VERTEX
  8
DEFAULT_2
 62
8
  6
HIDDEN
 10
224.4341582211
 20
72.0228743092
  0
VERTEX
  8
DEFAULT_2
 62
8
  6
HIDDEN
 10
224.2497038475
 20
72.1341594025
  0
VERTEX
  8
DEFAULT_2
 62
8
  6
HIDDEN
 10
224.0547347647
 20
72.2142214038
  0
VERTEX
  8
DEFAULT_2
 62
8
  6
HIDDEN
 10
223.8595086158
 20
72.2605540533
  0
VERTEX
  8
DEFAULT_2
 62
8
  6
HIDDEN
 10
223.6606061866
 20
72.2752207381
  0
SEQEND
  0
LINE
  8
0
 62
7
  6
CONTINUOUS
 10
130.4106061866
 20
68.628669014
 11
129.6606061866
 21
67.878669014
  0
POLYLINE
  8
DEFAULT_2
 62
8
  6
HIDDEN
 66
1
 70
0
  0
VERTEX
  8
DEFAULT_2
 62
8
  6
HIDDEN
 10
223.6606061866
 20
72.2752207381
  0
VERTEX
  8
DEFAULT_2
 62
8
  6
HIDDEN
 10
223.4594720018
 20
72.2601107412
  0
VERTEX
  8
DEFAULT_2
 62
8
  6
HIDDEN
 10
223.262807706
 20
72.2131894737
  0
VERTEX
  8
DEFAULT_2
 62
8
  6
HIDDEN
 10
223.0673302153
 20
72.1323927604
  0
VERTEX
  8
DEFAULT_2
 62
8
  6
HIDDEN
 10
222.8828887814
 20
72.020175922
  0
VERTEX
  8
DEFAULT_2
 62
8
  6
HIDDEN
 10
222.7166250048
 20
71.8760416191
  0
VERTEX
  8
DEFAULT_2
 62
8
  6
HIDDEN
 10
222.5733787559
 20
71.7064012332
  0
VERTEX
  8
DEFAULT_2
 62
8
  6
HIDDEN
 10
222.4603348071
 20
71.5170562642
  0
VERTEX
  8
DEFAULT_2
 62
8
  6
HIDDEN
 10
222.3776000528
 20
71.3132221188
  0
VERTEX
  8
DEFAULT_2
 62
8
  6
HIDDEN
 10
222.3279722499
 20
71.1022887315
  0
VERTEX
  8
DEFAULT_2
 62
8
  6
HIDDEN
 10
222.3105635821
 20
70.8870405471
  0
VERTEX
  8
DEFAULT_2
 62
8
  6
HIDDEN
 10
222.3254072421
 20
70.6717406819
  0
VERTEX
  8
DEFAULT_2
 62
8
  6
HIDDEN
 10
222.3725379591
 20
70.4603177663
  0
VERTEX
  8
DEFAULT_2
 62
8
  6
HIDDEN
 10
222.4526951349
 20
70.2554048836
  0
VERTEX
  8
DEFAULT_2
 62
8
  6
HIDDEN
 10
222.5637979454
 20
70.064286632
  0
VERTEX
  8
DEFAULT_2
 62
8
  6
HIDDEN
 10
222.7064167528
 20
69.8918408963
  0
VERTEX
  8
DEFAULT_2
 62
8
  6
HIDDEN
 10
222.8733374006
 20
69.7445496455
  0
VERTEX
  8
DEFAULT_2
 62
8
  6
HIDDEN
 10
223.0604213418
 20
69.6290748904
  0
VERTEX
  8
DEFAULT_2
 62
8
  6
HIDDEN
 10
223.2590121106
 20
69.5456143061
  0
VERTEX
  8
DEFAULT_2
 62
8
  6
HIDDEN
 10
223.4578192278
 20
69.497430809
  0
VERTEX
  8
DEFAULT_2
 62
8
  6
HIDDEN
 10
223.6606061866
 20
69.4821172898
  0
SEQEND
  0
LINE
  8
02___PRT_ALL_AXES
 62
7
  6
CONTINUOUS
 10
225.4104103952
 20
67.878669014
 11
209.6606061866
 21
67.878669014
  0
LINE
  8
02___PRT_ALL_AXES
 62
7
  6
CONTINUOUS
 10
129.6606061866
 20
67.878669014
 11
103.6606061866
 21
67.878669014
  0
LINE
  8
02___PRT_ALL_AXES
 62
7
  6
CONTINUOUS
 10
102.6606061866
 20
67.878669014
 11
89.6606061866
 21
67.878669014
  0
LINE
  8
02___PRT_ALL_AXES
 62
7
  6
CONTINUOUS
 10
65.6606061866
 20
67.878669014
 11
49.9105261762
 21
67.878669014
  0
LINE
  8
0
 62
7
  6
CONTINUOUS
 10
54.6606061866
 20
68.2805928026
 11
49.9106061866
 21
68.2805928026
  0
LINE
  8
0
 62
7
  6
CONTINUOUS
 10
220.6606061866
 20
68.2805928026
 11
225.4106061866
 21
68.2805928026
  0
LINE
  8
0
 62
7
  6
CONTINUOUS
 10
103.6606061866
 20
68.478669014
 11
102.6606061866
 21
68.478669014
  0
LINE
  8
0
 62
7
  6
CONTINUOUS
 10
208.9106061866
 20
68.628669014
 11
130.4106061866
 21
68.628669014
  0
LINE
  8
0
 62
7
  6
CONTINUOUS
 10
88.9106061866
 20
68.628669014
 11
66.4106061866
 21
68.628669014
  0
LINE
  8
02___PRT_ALL_AXES
 62
2
  6
CENTER
 10
223.6606061866
 20
70.878669014
 11
218.4106061866
 21
70.878669014
  0
LINE
  8
02___PRT_ALL_AXES
 62
2
  6
CENTER
 10
113.6606061866
 20
70.878669014
 11
108.6606061866
 21
70.878669014
  0
LINE
  8
02___PRT_ALL_AXES
 62
2
  6
CENTER
 10
51.6606061866
 20
70.878669014
 11
46.4106061866
 21
70.878669014
  0
LINE
  8
02___PRT_ALL_AXES
 62
2
  6
CENTER
 10
44.9104784483
 20
70.878669014
 11
46.4106061866
 21
70.878669014
  0
LINE
  8
02___PRT_ALL_AXES
 62
2
  6
CENTER
 10
228.9106061866
 20
70.878669014
 11
230.4108085579
 21
70.878669014
  0
LINE
  8
02___PRT_ALL_AXES
 62
2
  6
CENTER
 10
118.6606061866
 20
70.878669014
 11
218.4106061866
 21
70.878669014
  0
LINE
  8
02___PRT_ALL_AXES
 62
2
  6
CENTER
 10
56.9106061866
 20
70.878669014
 11
108.6606061866
 21
70.878669014
  0
LINE
  8
02___PRT_ALL_AXES
 62
2
  6
CENTER
 10
51.6606061866
 20
70.878669014
 11
56.9106061866
 21
70.878669014
  0
LINE
  8
02___PRT_ALL_AXES
 62
2
  6
CENTER
 10
113.6606061866
 20
70.878669014
 11
118.6606061866
 21
70.878669014
  0
LINE
  8
02___PRT_ALL_AXES
 62
2
  6
CENTER
 10
223.6606061866
 20
70.878669014
 11
228.9106061866
 21
70.878669014
  0
LINE
  8
0
 62
7
  6
CONTINUOUS
 10
130.4106061866
 20
73.128669014
 11
129.6606061866
 21
73.878669014
  0
POLYLINE
  8
DEFAULT_2
 62
8
  6
HIDDEN
 66
1
 70
0
  0
VERTEX
  8
DEFAULT_2
 62
8
  6
HIDDEN
 10
51.6606061866
 20
69.4821172898
  0
VERTEX
  8
DEFAULT_2
 62
8
  6
HIDDEN
 10
51.8633934196
 20
69.4974308799
  0
VERTEX
  8
DEFAULT_2
 62
8
  6
HIDDEN
 10
52.0622007136
 20
69.5456144614
  0
VERTEX
  8
DEFAULT_2
 62
8
  6
HIDDEN
 10
52.2607915625
 20
69.6290751699
  0
VERTEX
  8
DEFAULT_2
 62
8
  6
HIDDEN
 10
52.4478754841
 20
69.7445500169
  0
VERTEX
  8
DEFAULT_2
 62
8
  6
HIDDEN
 10
52.6147959712
 20
69.8918412311
  0
VERTEX
  8
DEFAULT_2
 62
8
  6
HIDDEN
 10
52.7574145917
 20
70.0642868756
  0
VERTEX
  8
DEFAULT_2
 62
8
  6
HIDDEN
 10
52.8685173067
 20
70.2554050236
  0
VERTEX
  8
DEFAULT_2
 62
8
  6
HIDDEN
 10
52.9486744289
 20
70.4603178091
  0
VERTEX
  8
DEFAULT_2
 62
8
  6
HIDDEN
 10
52.9958051295
 20
70.6717406809
  0
VERTEX
  8
DEFAULT_2
 62
8
  6
HIDDEN
 10
53.0106487932
 20
70.887040523
  0
VERTEX
  8
DEFAULT_2
 62
8
  6
HIDDEN
 10
52.9932401284
 20
71.1022886832
  0
VERTEX
  8
DEFAULT_2
 62
8
  6
HIDDEN
 10
52.9436123358
 20
71.3132220538
  0
VERTEX
  8
DEFAULT_2
 62
8
  6
HIDDEN
 10
52.8608776023
 20
71.5170561923
  0
VERTEX
  8
DEFAULT_2
 62
8
  6
HIDDEN
 10
52.7478336772
 20
71.7064011602
  0
VERTEX
  8
DEFAULT_2
 62
8
  6
HIDDEN
 10
52.6045874514
 20
71.8760415441
  0
VERTEX
  8
DEFAULT_2
 62
8
  6
HIDDEN
 10
52.4383236874
 20
72.0201758547
  0
VERTEX
  8
DEFAULT_2
 62
8
  6
HIDDEN
 10
52.2538822395
 20
72.1323927274
  0
VERTEX
  8
DEFAULT_2
 62
8
  6
HIDDEN
 10
52.0584047233
 20
72.2131894735
  0
VERTEX
  8
DEFAULT_2
 62
8
  6
HIDDEN
 10
51.8617404015
 20
72.2601107491
  0
VERTEX
  8
DEFAULT_2
 62
8
  6
HIDDEN
 10
51.6606061866
 20
72.2752207381
  0
SEQEND
  0
LINE
  8
0
 62
7
  6
CONTINUOUS
 10
208.9106061866
 20
73.128669014
 11
130.4106061866
 21
73.128669014
  0
LINE
  8
0
 62
7
  6
CONTINUOUS
 10
88.9106061866
 20
73.128669014
 11
66.4106061866
 21
73.128669014
  0
LINE
  8
0
 62
7
  6
CONTINUOUS
 10
103.6606061866
 20
73.278669014
 11
102.6606061866
 21
73.278669014
  0
LINE
  8
0
 62
7
  6
CONTINUOUS
 10
54.6606061866
 20
73.4767452253
 11
49.9106061866
 21
73.4767452253
  0
LINE
  8
0
 62
7
  6
CONTINUOUS
 10
220.6606061866
 20
73.4767452253
 11
225.4106061866
 21
73.4767452253
  0
LINE
  8
02___PRT_ALL_AXES
 62
7
  6
CONTINUOUS
 10
225.4107566701
 20
73.878669014
 11
209.6606061866
 21
73.878669014
  0
LINE
  8
02___PRT_ALL_AXES
 62
7
  6
CONTINUOUS
 10
129.6606061866
 20
73.878669014
 11
103.6606061866
 21
73.878669014
  0
LINE
  8
02___PRT_ALL_AXES
 62
7
  6
CONTINUOUS
 10
102.6606061866
 20
73.878669014
 11
89.6606061866
 21
73.878669014
  0
LINE
  8
02___PRT_ALL_AXES
 62
7
  6
CONTINUOUS
 10
65.6606061866
 20
73.878669014
 11
49.9106394558
 21
73.878669014
  0
POLYLINE
  8
DEFAULT_2
 62
8
  6
HIDDEN
 66
1
 70
0
  0
VERTEX
  8
DEFAULT_2
 62
8
  6
HIDDEN
 10
51.6606061866
 20
72.2752207381
  0
VERTEX
  8
DEFAULT_2
 62
8
  6
HIDDEN
 10
51.4617035364
 20
72.260553998
  0
VERTEX
  8
DEFAULT_2
 62
8
  6
HIDDEN
 10
51.2664772337
 20
72.2142212748
  0
VERTEX
  8
DEFAULT_2
 62
8
  6
HIDDEN
 10
51.0715080572
 20
72.1341591596
  0
VERTEX
  8
DEFAULT_2
 62
8
  6
HIDDEN
 10
50.8870536712
 20
72.0228739713
  0
VERTEX
  8
DEFAULT_2
 62
8
  6
HIDDEN
 10
50.7206570253
 20
71.880009768
  0
VERTEX
  8
DEFAULT_2
 62
8
  6
HIDDEN
 10
50.5770430424
 20
71.7117041396
  0
VERTEX
  8
DEFAULT_2
 62
8
  6
HIDDEN
 10
50.4634115339
 20
71.5235244085
  0
VERTEX
  8
DEFAULT_2
 62
8
  6
HIDDEN
 10
50.3798807832
 20
71.3205832909
  0
VERTEX
  8
DEFAULT_2
 62
8
  6
HIDDEN
 10
50.3292272152
 20
71.1100242878
  0
VERTEX
  8
DEFAULT_2
 62
8
  6
HIDDEN
 10
50.310676216
 20
70.8948163308
  0
VERTEX
  8
DEFAULT_2
 62
8
  6
HIDDEN
 10
50.3243697538
 20
70.6792980653
  0
VERTEX
  8
DEFAULT_2
 62
8
  6
HIDDEN
 10
50.3703345072
 20
70.4675543621
  0
VERTEX
  8
DEFAULT_2
 62
8
  6
HIDDEN
 10
50.4492628822
 20
70.2626121212
  0
VERTEX
  8
DEFAULT_2
 62
8
  6
HIDDEN
 10
50.5592996648
 20
70.0711281788
  0
VERTEX
  8
DEFAULT_2
 62
8
  6
HIDDEN
 10
50.7011998158
 20
69.8972762482
  0
VERTEX
  8
DEFAULT_2
 62
8
  6
HIDDEN
 10
50.8678252177
 20
69.7483302461
  0
VERTEX
  8
DEFAULT_2
 62
8
  6
HIDDEN
 10
51.0551157846
 20
69.6314400013
  0
VERTEX
  8
DEFAULT_2
 62
8
  6
HIDDEN
 10
51.2545923828
 20
69.5468068908
  0
VERTEX
  8
DEFAULT_2
 62
8
  6
HIDDEN
 10
51.4551934549
 20
69.4978640247
  0
VERTEX
  8
DEFAULT_2
 62
8
  6
HIDDEN
 10
51.6606061866
 20
69.4821172898
  0
SEQEND
  0
LINE
  8
0
 62
7
  6
CONTINUOUS
 10
209.6606061866
 20
73.878669014
 11
208.9106061866
 21
73.128669014
  0
LINE
  8
0
 62
7
  6
CONTINUOUS
 10
209.6606061866
 20
67.878669014
 11
208.9106061866
 21
68.628669014
  0
LINE
  8
0
 62
7
  6
CONTINUOUS
 10
225.6606061866
 20
68.1288925209
 11
225.4104104092
 21
67.8786690209
  0
LINE
  8
0
 62
7
  6
CONTINUOUS
 10
225.6606061866
 20
73.6287918203
 11
225.410756684
 21
73.878669007
  0
POLYLINE
  8
0
 62
7
  6
CONTINUOUS
 66
1
 70
0
  0
VERTEX
  8
0
 62
7
  6
CONTINUOUS
 10
225.4106061866
 20
68.2805928026
  0
VERTEX
  8
0
 62
7
  6
CONTINUOUS
 10
225.4741321803
 20
68.3540566813
  0
VERTEX
  8
0
 62
7
  6
CONTINUOUS
 10
225.5369741782
 20
68.4274096571
  0
VERTEX
  8
0
 62
7
  6
CONTINUOUS
 10
225.5991321803
 20
68.5006517299
  0
VERTEX
  8
0
 62
7
  6
CONTINUOUS
 10
225.6606061866
 20
68.5737828996
  0
SEQEND
  0
POLYLINE
  8
0
 62
7
  6
CONTINUOUS
 66
1
 70
0
  0
VERTEX
  8
0
 62
7
  6
CONTINUOUS
 10
225.6606061866
 20
73.1835551283
  0
VERTEX
  8
0
 62
7
  6
CONTINUOUS
 10
225.5988920475
 20
73.257019877
  0
VERTEX
  8
0
 62
7
  6
CONTINUOUS
 10
225.5366540012
 20
73.3303731427
  0
VERTEX
  8
0
 62
7
  6
CONTINUOUS
 10
225.4738920475
 20
73.4036149255
  0
VERTEX
  8
0
 62
7
  6
CONTINUOUS
 10
225.4106061866
 20
73.4767452253
  0
SEQEND
  0
LINE
  8
0
 62
7
  6
CONTINUOUS
 10
208.9106061866
 20
68.628669014
 11
208.9106061866
 21
73.128669014
  0
LINE
  8
0
 62
7
  6
CONTINUOUS
 10
209.6606061866
 20
67.878669014
 11
209.6606061866
 21
73.878669014
  0
LINE
  8
0
 62
7
  6
CONTINUOUS
 10
220.6606061866
 20
68.2805928026
 11
220.6606061866
 21
73.4767452253
  0
LINE
  8
DEFAULT_2
 62
8
  6
HIDDEN
 10
223.6606050635
 20
72.2752207549
 11
223.6606051014
 21
72.1286690297
  0
LINE
  8
02___PRT_ALL_AXES
 62
2
  6
CENTER
 10
223.6606061866
 20
70.878669014
 11
223.6606061866
 21
65.628669014
  0
LINE
  8
02___PRT_ALL_AXES
 62
2
  6
CENTER
 10
223.6606061866
 20
70.878669014
 11
223.6606061866
 21
76.128669014
  0
LINE
  8
DEFAULT_2
 62
8
  6
HIDDEN
 10
223.660619204
 20
69.4821170927
 11
223.6606188402
 21
69.6286688277
  0
LINE
  8
0
 62
7
  6
CONTINUOUS
 10
225.6606061866
 20
68.1288941184
 11
225.6606061866
 21
73.6287902719
  0
LINE
  8
DEFAULT_2
 62
8
  6
HIDDEN
 10
225.4106061866
 20
73.4767452253
 11
225.4106061866
 21
68.2805928026
  0
LINE
  8
0
 62
7
  6
CONTINUOUS
 10
225.4104098723
 20
67.8786690209
 11
225.4106061866
 21
68.2805928026
  0
LINE
  8
0
 62
7
  6
CONTINUOUS
 10
225.4106061866
 20
73.4767452253
 11
225.4107581899
 21
73.878669007
  0
LINE
  8
DEFAULT_2
 62
8
  6
HIDDEN
 10
225.4107581703
 20
73.878669014
 11
225.4107494369
 21
73.8768456209
  0
LINE
  8
0
 62
7
  6
CONTINUOUS
 10
49.6606061866
 20
166.398967033
 11
49.6606061866
 21
171.8989552398
  0
LINE
  8
0
 62
7
  6
CONTINUOUS
 10
49.9105250846
 20
172.1489045155
 11
49.9106461602
 21
166.1507282421
  0
LINE
  8
0
 62
7
  6
CONTINUOUS
 10
51.6605903291
 20
170.5454560583
 11
51.6605908277
 21
170.3989043351
  0
LINE
  8
02___PRT_ALL_AXES
 62
2
  6
CENTER
 10
51.6606061866
 20
169.1489045155
 11
51.6606061866
 21
163.8989045155
  0
LINE
  8
02___PRT_ALL_AXES
 62
2
  6
CENTER
 10
51.6606061866
 20
169.1489045155
 11
51.6606061866
 21
174.3989045155
  0
LINE
  8
0
 62
7
  6
CONTINUOUS
 10
51.6606070424
 20
167.7523528006
 11
51.6606070174
 21
167.8989045245
  0
LINE
  8
DEFAULT_2
 62
8
  6
HIDDEN
 10
54.6606061866
 20
166.5508283041
 11
54.6606061866
 21
171.7469807268
  0
LINE
  8
0
 62
7
  6
CONTINUOUS
 10
65.6606061866
 20
166.1489045155
 11
65.6606061866
 21
172.1489045155
  0
LINE
  8
0
 62
7
  6
CONTINUOUS
 10
66.4106061866
 20
166.8989045155
 11
66.4106061866
 21
171.3989045155
  0
POLYLINE
  8
DEFAULT_2
 62
8
  6
HIDDEN
 66
1
 70
0
  0
VERTEX
  8
DEFAULT_2
 62
8
  6
HIDDEN
 10
49.6606061866
 20
171.4537906298
  0
VERTEX
  8
DEFAULT_2
 62
8
  6
HIDDEN
 10
49.7223463312
 20
171.5272338314
  0
VERTEX
  8
DEFAULT_2
 62
8
  6
HIDDEN
 10
49.7845930461
 20
171.6005799147
  0
VERTEX
  8
DEFAULT_2
 62
8
  6
HIDDEN
 10
49.8473463312
 20
171.6738288799
  0
VERTEX
  8
DEFAULT_2
 62
8
  6
HIDDEN
 10
49.9106061866
 20
171.7469807268
  0
SEQEND
  0
LINE
  8
0
 62
7
  6
CONTINUOUS
 10
49.6606061866
 20
171.8989568402
 11
49.9105261637
 21
172.1489045092
  0
LINE
  8
0
 62
7
  6
CONTINUOUS
 10
49.6606061866
 20
166.3989654829
 11
49.9106394433
 21
166.1489045217
  0
POLYLINE
  8
DEFAULT_2
 62
8
  6
HIDDEN
 66
1
 70
0
  0
VERTEX
  8
DEFAULT_2
 62
8
  6
HIDDEN
 10
49.9106061866
 20
166.5508283041
  0
VERTEX
  8
DEFAULT_2
 62
8
  6
HIDDEN
 10
49.8470546724
 20
166.6242700694
  0
VERTEX
  8
DEFAULT_2
 62
8
  6
HIDDEN
 10
49.7842041676
 20
166.6976156739
  0
VERTEX
  8
DEFAULT_2
 62
8
  6
HIDDEN
 10
49.7220546724
 20
166.7708651179
  0
VERTEX
  8
DEFAULT_2
 62
8
  6
HIDDEN
 10
49.6606061866
 20
166.8440184011
  0
SEQEND
  0
LINE
  8
0
 62
7
  6
CONTINUOUS
 10
88.9106061866
 20
166.8989045155
 11
88.9106061866
 21
171.3989045155
  0
LINE
  8
0
 62
7
  6
CONTINUOUS
 10
89.6606061866
 20
166.1489045155
 11
89.6606061866
 21
172.1489045155
  0
LINE
  8
0
 62
7
  6
CONTINUOUS
 10
66.4106061866
 20
166.8989045155
 11
65.6606061866
 21
166.1489045155
  0
LINE
  8
0
 62
7
  6
CONTINUOUS
 10
66.4106061866
 20
171.3989045155
 11
65.6606061866
 21
172.1489045155
  0
LINE
  8
0
 62
7
  6
CONTINUOUS
 10
102.6606061866
 20
166.1493691474
 11
102.6606061866
 21
172.1484398835
  0
LINE
  8
0
 62
7
  6
CONTINUOUS
 10
89.6606061866
 20
172.1489045155
 11
88.9106061866
 21
171.3989045155
  0
LINE
  8
0
 62
7
  6
CONTINUOUS
 10
89.6606061866
 20
166.1489045155
 11
88.9106061866
 21
166.8989045155
  0
LINE
  8
0
 62
7
  6
CONTINUOUS
 10
103.6606061866
 20
166.1493691474
 11
103.6606061866
 21
172.1484398835
  0
POLYLINE
  8
0
 62
7
  6
CONTINUOUS
 66
1
 70
0
  0
VERTEX
  8
0
 62
7
  6
CONTINUOUS
 10
51.2664772337
 20
167.8133522546
  0
VERTEX
  8
0
 62
7
  6
CONTINUOUS
 10
51.0715080572
 20
167.8934143699
  0
VERTEX
  8
0
 62
7
  6
CONTINUOUS
 10
50.8870536712
 20
168.0046995581
  0
VERTEX
  8
0
 62
7
  6
CONTINUOUS
 10
50.7206570253
 20
168.1475637614
  0
VERTEX
  8
0
 62
7
  6
CONTINUOUS
 10
50.5770430424
 20
168.3158693898
  0
VERTEX
  8
0
 62
7
  6
CONTINUOUS
 10
50.4634115339
 20
168.5040491209
  0
VERTEX
  8
0
 62
7
  6
CONTINUOUS
 10
50.3798807832
 20
168.7069902385
  0
VERTEX
  8
0
 62
7
  6
CONTINUOUS
 10
50.3292272152
 20
168.9175492416
  0
VERTEX
  8
0
 62
7
  6
CONTINUOUS
 10
50.310676216
 20
169.1327571987
  0
VERTEX
  8
0
 62
7
  6
CONTINUOUS
 10
50.3243697538
 20
169.3482754641
  0
VERTEX
  8
0
 62
7
  6
CONTINUOUS
 10
50.3703345072
 20
169.5600191673
  0
VERTEX
  8
0
 62
7
  6
CONTINUOUS
 10
50.4492628822
 20
169.7649614082
  0
VERTEX
  8
0
 62
7
  6
CONTINUOUS
 10
50.5592996648
 20
169.9564453506
  0
VERTEX
  8
0
 62
7
  6
CONTINUOUS
 10
50.7011998158
 20
170.1302972812
  0
VERTEX
  8
0
 62
7
  6
CONTINUOUS
 10
50.8678252177
 20
170.2792432833
  0
VERTEX
  8
0
 62
7
  6
CONTINUOUS
 10
51.0551157846
 20
170.3961335281
  0
VERTEX
  8
0
 62
7
  6
CONTINUOUS
 10
51.2545923828
 20
170.4807666386
  0
SEQEND
  0
POLYLINE
  8
0
 62
7
  6
CONTINUOUS
 66
1
 70
0
  0
VERTEX
  8
0
 62
7
  6
CONTINUOUS
 10
52.0622007136
 20
170.481959068
  0
VERTEX
  8
0
 62
7
  6
CONTINUOUS
 10
52.2607915625
 20
170.3984983595
  0
VERTEX
  8
0
 62
7
  6
CONTINUOUS
 10
52.4478754841
 20
170.2830235125
  0
VERTEX
  8
0
 62
7
  6
CONTINUOUS
 10
52.6147959712
 20
170.1357322983
  0
VERTEX
  8
0
 62
7
  6
CONTINUOUS
 10
52.7574145917
 20
169.9632866538
  0
VERTEX
  8
0
 62
7
  6
CONTINUOUS
 10
52.8685173067
 20
169.7721685058
  0
VERTEX
  8
0
 62
7
  6
CONTINUOUS
 10
52.9486744289
 20
169.5672557203
  0
VERTEX
  8
0
 62
7
  6
CONTINUOUS
 10
52.9958051295
 20
169.3558328485
  0
VERTEX
  8
0
 62
7
  6
CONTINUOUS
 10
53.0106487932
 20
169.1405330064
  0
VERTEX
  8
0
 62
7
  6
CONTINUOUS
 10
52.9932401284
 20
168.9252848462
  0
VERTEX
  8
0
 62
7
  6
CONTINUOUS
 10
52.9436123358
 20
168.7143514756
  0
VERTEX
  8
0
 62
7
  6
CONTINUOUS
 10
52.8608776023
 20
168.5105173371
  0
VERTEX
  8
0
 62
7
  6
CONTINUOUS
 10
52.7478336772
 20
168.3211723692
  0
VERTEX
  8
0
 62
7
  6
CONTINUOUS
 10
52.6045874514
 20
168.1515319853
  0
VERTEX
  8
0
 62
7
  6
CONTINUOUS
 10
52.4383236874
 20
168.0073976747
  0
VERTEX
  8
0
 62
7
  6
CONTINUOUS
 10
52.2538822395
 20
167.8951808021
  0
VERTEX
  8
0
 62
7
  6
CONTINUOUS
 10
52.0584047233
 20
167.8143840559
  0
SEQEND
  0
LINE
  8
02___PRT_ALL_AXES
 62
2
  6
CENTER
 10
113.6606061866
 20
169.1489045155
 11
113.6606061866
 21
164.1489045155
  0
LINE
  8
02___PRT_ALL_AXES
 62
2
  6
CENTER
 10
113.6606061866
 20
169.1489045155
 11
113.6606061866
 21
174.1489045155
  0
POLYLINE
  8
0
 62
7
  6
CONTINUOUS
 66
1
 70
0
  0
VERTEX
  8
0
 62
7
  6
CONTINUOUS
 10
223.2590121106
 20
170.4819592233
  0
VERTEX
  8
0
 62
7
  6
CONTINUOUS
 10
223.4578192278
 20
170.5301427204
  0
VERTEX
  8
0
 62
7
  6
CONTINUOUS
 10
223.6606061866
 20
170.5454562396
  0
SEQEND
  0
POLYLINE
  8
0
 62
7
  6
CONTINUOUS
 66
1
 70
0
  0
VERTEX
  8
0
 62
7
  6
CONTINUOUS
 10
224.0547347647
 20
167.8133521256
  0
VERTEX
  8
0
 62
7
  6
CONTINUOUS
 10
223.8595086158
 20
167.7670194761
  0
VERTEX
  8
0
 62
7
  6
CONTINUOUS
 10
223.6606061866
 20
167.7523527913
  0
SEQEND
  0
LINE
  8
0
 62
7
  6
CONTINUOUS
 10
129.6606061866
 20
166.1489045155
 11
129.6606061866
 21
172.1489045155
  0
LINE
  8
0
 62
7
  6
CONTINUOUS
 10
130.4106061866
 20
166.8989045155
 11
130.4106061866
 21
171.3989045155
  0
POLYLINE
  8
0
 62
7
  6
CONTINUOUS
 66
1
 70
0
  0
VERTEX
  8
0
 62
7
  6
CONTINUOUS
 10
51.6606061866
 20
167.7523527913
  0
VERTEX
  8
0
 62
7
  6
CONTINUOUS
 10
51.4617035364
 20
167.7670195314
  0
VERTEX
  8
0
 62
7
  6
CONTINUOUS
 10
51.2664772337
 20
167.8133522546
  0
SEQEND
  0
POLYLINE
  8
0
 62
7
  6
CONTINUOUS
 66
1
 70
0
  0
VERTEX
  8
0
 62
7
  6
CONTINUOUS
 10
51.6606061866
 20
170.5454562396
  0
VERTEX
  8
0
 62
7
  6
CONTINUOUS
 10
51.8633934196
 20
170.5301426495
  0
VERTEX
  8
0
 62
7
  6
CONTINUOUS
 10
52.0622007136
 20
170.481959068
  0
SEQEND
  0
LINE
  8
0
 62
7
  6
CONTINUOUS
 10
130.4106061866
 20
166.8989045155
 11
129.6606061866
 21
166.1489045155
  0
LINE
  8
02___PRT_ALL_AXES
 62
7
  6
CONTINUOUS
 10
225.4107566701
 20
166.1489045155
 11
209.6606061866
 21
166.1489045155
  0
LINE
  8
02___PRT_ALL_AXES
 62
7
  6
CONTINUOUS
 10
129.6606061866
 20
166.1489045155
 11
103.6606061866
 21
166.1489045155
  0
LINE
  8
02___PRT_ALL_AXES
 62
7
  6
CONTINUOUS
 10
102.6606061866
 20
166.1489045155
 11
89.6606061866
 21
166.1489045155
  0
LINE
  8
02___PRT_ALL_AXES
 62
7
  6
CONTINUOUS
 10
65.6606061866
 20
166.1489045155
 11
49.9106394558
 21
166.1489045155
  0
LINE
  8
DEFAULT_2
 62
8
  6
HIDDEN
 10
54.6606061866
 20
166.5508283041
 11
49.9106061866
 21
166.5508283041
  0
LINE
  8
DEFAULT_2
 62
8
  6
HIDDEN
 10
220.6606061866
 20
166.5508283041
 11
225.4106061866
 21
166.5508283041
  0
LINE
  8
0
 62
7
  6
CONTINUOUS
 10
103.6606061866
 20
166.7489045155
 11
102.6606061866
 21
166.7489045155
  0
LINE
  8
0
 62
7
  6
CONTINUOUS
 10
208.9106061866
 20
166.8989045155
 11
130.4106061866
 21
166.8989045155
  0
LINE
  8
0
 62
7
  6
CONTINUOUS
 10
88.9106061866
 20
166.8989045155
 11
66.4106061866
 21
166.8989045155
  0
LINE
  8
02___PRT_ALL_AXES
 62
2
  6
CENTER
 10
223.6606061866
 20
169.1489045155
 11
218.4106061866
 21
169.1489045155
  0
LINE
  8
02___PRT_ALL_AXES
 62
2
  6
CENTER
 10
113.6606061866
 20
169.1489045155
 11
108.6606061866
 21
169.1489045155
  0
LINE
  8
02___PRT_ALL_AXES
 62
2
  6
CENTER
 10
51.6606061866
 20
169.1489045155
 11
46.4106061866
 21
169.1489045155
  0
LINE
  8
02___PRT_ALL_AXES
 62
2
  6
CENTER
 10
44.9104784483
 20
169.1489045155
 11
46.4106061866
 21
169.1489045155
  0
LINE
  8
02___PRT_ALL_AXES
 62
2
  6
CENTER
 10
228.9106061866
 20
169.1489045155
 11
230.4108085579
 21
169.1489045155
  0
LINE
  8
02___PRT_ALL_AXES
 62
2
  6
CENTER
 10
118.6606061866
 20
169.1489045155
 11
218.4106061866
 21
169.1489045155
  0
LINE
  8
02___PRT_ALL_AXES
 62
2
  6
CENTER
 10
56.9106061866
 20
169.1489045155
 11
108.6606061866
 21
169.1489045155
  0
LINE
  8
02___PRT_ALL_AXES
 62
2
  6
CENTER
 10
51.6606061866
 20
169.1489045155
 11
56.9106061866
 21
169.1489045155
  0
LINE
  8
02___PRT_ALL_AXES
 62
2
  6
CENTER
 10
113.6606061866
 20
169.1489045155
 11
118.6606061866
 21
169.1489045155
  0
LINE
  8
02___PRT_ALL_AXES
 62
2
  6
CENTER
 10
223.6606061866
 20
169.1489045155
 11
228.9106061866
 21
169.1489045155
  0
LINE
  8
0
 62
7
  6
CONTINUOUS
 10
130.4106061866
 20
171.3989045155
 11
129.6606061866
 21
172.1489045155
  0
LINE
  8
0
 62
7
  6
CONTINUOUS
 10
208.9106061866
 20
171.3989045155
 11
130.4106061866
 21
171.3989045155
  0
LINE
  8
0
 62
7
  6
CONTINUOUS
 10
88.9106061866
 20
171.3989045155
 11
66.4106061866
 21
171.3989045155
  0
LINE
  8
0
 62
7
  6
CONTINUOUS
 10
103.6606061866
 20
171.5489045155
 11
102.6606061866
 21
171.5489045155
  0
LINE
  8
DEFAULT_2
 62
8
  6
HIDDEN
 10
54.6606061866
 20
171.7469807268
 11
49.9106061866
 21
171.7469807268
  0
LINE
  8
DEFAULT_2
 62
8
  6
HIDDEN
 10
220.6606061866
 20
171.7469807268
 11
225.4106061866
 21
171.7469807268
  0
LINE
  8
02___PRT_ALL_AXES
 62
7
  6
CONTINUOUS
 10
225.4104103952
 20
172.1489045155
 11
209.6606061866
 21
172.1489045155
  0
LINE
  8
02___PRT_ALL_AXES
 62
7
  6
CONTINUOUS
 10
129.6606061866
 20
172.1489045155
 11
103.6606061866
 21
172.1489045155
  0
LINE
  8
02___PRT_ALL_AXES
 62
7
  6
CONTINUOUS
 10
102.6606061866
 20
172.1489045155
 11
89.6606061866
 21
172.1489045155
  0
LINE
  8
02___PRT_ALL_AXES
 62
7
  6
CONTINUOUS
 10
65.6606061866
 20
172.1489045155
 11
49.9105261762
 21
172.1489045155
  0
POLYLINE
  8
0
 62
7
  6
CONTINUOUS
 66
1
 70
0
  0
VERTEX
  8
0
 62
7
  6
CONTINUOUS
 10
223.6606061866
 20
167.7523527913
  0
VERTEX
  8
0
 62
7
  6
CONTINUOUS
 10
223.4594720018
 20
167.7674627882
  0
VERTEX
  8
0
 62
7
  6
CONTINUOUS
 10
223.262807706
 20
167.8143840557
  0
SEQEND
  0
POLYLINE
  8
0
 62
7
  6
CONTINUOUS
 66
1
 70
0
  0
VERTEX
  8
0
 62
7
  6
CONTINUOUS
 10
223.6606061866
 20
170.5454562396
  0
VERTEX
  8
0
 62
7
  6
CONTINUOUS
 10
223.8660188237
 20
170.529709515
  0
VERTEX
  8
0
 62
7
  6
CONTINUOUS
 10
224.0666198433
 20
170.4807666665
  0
SEQEND
  0
POLYLINE
  8
0
 62
7
  6
CONTINUOUS
 66
1
 70
0
  0
VERTEX
  8
0
 62
7
  6
CONTINUOUS
 10
51.2545923828
 20
170.4807666386
  0
VERTEX
  8
0
 62
7
  6
CONTINUOUS
 10
51.4551934549
 20
170.5297095047
  0
VERTEX
  8
0
 62
7
  6
CONTINUOUS
 10
51.6606061866
 20
170.5454562396
  0
SEQEND
  0
POLYLINE
  8
0
 62
7
  6
CONTINUOUS
 66
1
 70
0
  0
VERTEX
  8
0
 62
7
  6
CONTINUOUS
 10
52.0584047233
 20
167.8143840559
  0
VERTEX
  8
0
 62
7
  6
CONTINUOUS
 10
51.8617404015
 20
167.7674627803
  0
VERTEX
  8
0
 62
7
  6
CONTINUOUS
 10
51.6606061866
 20
167.7523527913
  0
SEQEND
  0
POLYLINE
  8
0
 62
7
  6
CONTINUOUS
 66
1
 70
0
  0
VERTEX
  8
0
 62
7
  6
CONTINUOUS
 10
223.262807706
 20
167.8143840557
  0
VERTEX
  8
0
 62
7
  6
CONTINUOUS
 10
223.0673302153
 20
167.895180769
  0
VERTEX
  8
0
 62
7
  6
CONTINUOUS
 10
222.8828887814
 20
168.0073976074
  0
VERTEX
  8
0
 62
7
  6
CONTINUOUS
 10
222.7166250048
 20
168.1515319103
  0
VERTEX
  8
0
 62
7
  6
CONTINUOUS
 10
222.5733787559
 20
168.3211722962
  0
VERTEX
  8
0
 62
7
  6
CONTINUOUS
 10
222.4603348071
 20
168.5105172652
  0
VERTEX
  8
0
 62
7
  6
CONTINUOUS
 10
222.3776000528
 20
168.7143514106
  0
VERTEX
  8
0
 62
7
  6
CONTINUOUS
 10
222.3279722499
 20
168.9252847979
  0
VERTEX
  8
0
 62
7
  6
CONTINUOUS
 10
222.3105635821
 20
169.1405329824
  0
VERTEX
  8
0
 62
7
  6
CONTINUOUS
 10
222.3254072421
 20
169.3558328475
  0
VERTEX
  8
0
 62
7
  6
CONTINUOUS
 10
222.3725379591
 20
169.5672557631
  0
VERTEX
  8
0
 62
7
  6
CONTINUOUS
 10
222.4526951349
 20
169.7721686458
  0
VERTEX
  8
0
 62
7
  6
CONTINUOUS
 10
222.5637979454
 20
169.9632868974
  0
VERTEX
  8
0
 62
7
  6
CONTINUOUS
 10
222.7064167528
 20
170.1357326331
  0
VERTEX
  8
0
 62
7
  6
CONTINUOUS
 10
222.8733374006
 20
170.283023884
  0
VERTEX
  8
0
 62
7
  6
CONTINUOUS
 10
223.0604213418
 20
170.398498639
  0
VERTEX
  8
0
 62
7
  6
CONTINUOUS
 10
223.2590121106
 20
170.4819592233
  0
SEQEND
  0
POLYLINE
  8
0
 62
7
  6
CONTINUOUS
 66
1
 70
0
  0
VERTEX
  8
0
 62
7
  6
CONTINUOUS
 10
224.0666198433
 20
170.4807666665
  0
VERTEX
  8
0
 62
7
  6
CONTINUOUS
 10
224.266096436
 20
170.3961335918
  0
VERTEX
  8
0
 62
7
  6
CONTINUOUS
 10
224.4533870303
 20
170.2792433703
  0
VERTEX
  8
0
 62
7
  6
CONTINUOUS
 10
224.6200124882
 20
170.1302973422
  0
VERTEX
  8
0
 62
7
  6
CONTINUOUS
 10
224.7619127002
 20
169.9564453552
  0
VERTEX
  8
0
 62
7
  6
CONTINUOUS
 10
224.8719495253
 20
169.7649613214
  0
VERTEX
  8
0
 62
7
  6
CONTINUOUS
 10
224.9508779209
 20
169.5600189948
  0
VERTEX
  8
0
 62
7
  6
CONTINUOUS
 10
224.9968426535
 20
169.3482752665
  0
VERTEX
  8
0
 62
7
  6
CONTINUOUS
 10
225.0105361549
 20
169.1327569999
  0
VERTEX
  8
0
 62
7
  6
CONTINUOUS
 10
224.9919851298
 20
168.9175490521
  0
VERTEX
  8
0
 62
7
  6
CONTINUOUS
 10
224.9413315254
 20
168.7069900479
  0
VERTEX
  8
0
 62
7
  6
CONTINUOUS
 10
224.8578007177
 20
168.5040488803
  0
VERTEX
  8
0
 62
7
  6
CONTINUOUS
 10
224.7441691256
 20
168.3158690939
  0
VERTEX
  8
0
 62
7
  6
CONTINUOUS
 10
224.6005549894
 20
168.147563424
  0
VERTEX
  8
0
 62
7
  6
CONTINUOUS
 10
224.4341582211
 20
168.0046992202
  0
VERTEX
  8
0
 62
7
  6
CONTINUOUS
 10
224.2497038475
 20
167.893414127
  0
VERTEX
  8
0
 62
7
  6
CONTINUOUS
 10
224.0547347647
 20
167.8133521256
  0
SEQEND
  0
LINE
  8
0
 62
7
  6
CONTINUOUS
 10
209.6606061866
 20
172.1489045155
 11
208.9106061866
 21
171.3989045155
  0
LINE
  8
0
 62
7
  6
CONTINUOUS
 10
209.6606061866
 20
166.1489045155
 11
208.9106061866
 21
166.8989045155
  0
LINE
  8
0
 62
7
  6
CONTINUOUS
 10
225.6606061866
 20
166.3987817091
 11
225.410756684
 21
166.1489045224
  0
LINE
  8
0
 62
7
  6
CONTINUOUS
 10
225.6606061866
 20
171.8986810086
 11
225.4104104092
 21
172.1489045085
  0
POLYLINE
  8
DEFAULT_2
 62
8
  6
HIDDEN
 66
1
 70
0
  0
VERTEX
  8
DEFAULT_2
 62
8
  6
HIDDEN
 10
225.6606061866
 20
166.8440184011
  0
VERTEX
  8
DEFAULT_2
 62
8
  6
HIDDEN
 10
225.5988920475
 20
166.7705536524
  0
VERTEX
  8
DEFAULT_2
 62
8
  6
HIDDEN
 10
225.5366540012
 20
166.6972003867
  0
VERTEX
  8
DEFAULT_2
 62
8
  6
HIDDEN
 10
225.4738920475
 20
166.6239586039
  0
VERTEX
  8
DEFAULT_2
 62
8
  6
HIDDEN
 10
225.4106061866
 20
166.5508283041
  0
SEQEND
  0
POLYLINE
  8
DEFAULT_2
 62
8
  6
HIDDEN
 66
1
 70
0
  0
VERTEX
  8
DEFAULT_2
 62
8
  6
HIDDEN
 10
225.4106061866
 20
171.7469807268
  0
VERTEX
  8
DEFAULT_2
 62
8
  6
HIDDEN
 10
225.4741321803
 20
171.6735168481
  0
VERTEX
  8
DEFAULT_2
 62
8
  6
HIDDEN
 10
225.5369741782
 20
171.6001638723
  0
VERTEX
  8
DEFAULT_2
 62
8
  6
HIDDEN
 10
225.5991321803
 20
171.5269217996
  0
VERTEX
  8
DEFAULT_2
 62
8
  6
HIDDEN
 10
225.6606061866
 20
171.4537906298
  0
SEQEND
  0
LINE
  8
0
 62
7
  6
CONTINUOUS
 10
208.9106061866
 20
166.8989045155
 11
208.9106061866
 21
171.3989045155
  0
LINE
  8
0
 62
7
  6
CONTINUOUS
 10
209.6606061866
 20
166.1489045155
 11
209.6606061866
 21
172.1489045155
  0
LINE
  8
0
 62
7
  6
CONTINUOUS
 10
225.4107581703
 20
166.1489045155
 11
225.4107185239
 21
166.1944599145
  0
LINE
  8
DEFAULT_2
 62
8
  6
HIDDEN
 10
220.6606061866
 20
171.7469807268
 11
220.6606061866
 21
166.5508283041
  0
LINE
  8
02___PRT_ALL_AXES
 62
2
  6
CENTER
 10
223.6606061866
 20
169.1489045155
 11
223.6606061866
 21
163.8989045155
  0
LINE
  8
0
 62
7
  6
CONTINUOUS
 10
223.6606050635
 20
167.7523527745
 11
223.6606051014
 21
167.8989044997
  0
LINE
  8
02___PRT_ALL_AXES
 62
2
  6
CENTER
 10
223.6606061866
 20
169.1489045155
 11
223.6606061866
 21
174.3989045155
  0
LINE
  8
0
 62
7
  6
CONTINUOUS
 10
223.660619204
 20
170.5454564367
 11
223.6606188402
 21
170.3989047017
  0
LINE
  8
0
 62
7
  6
CONTINUOUS
 10
225.6606061866
 20
171.898679411
 11
225.6606061866
 21
166.3987832575
  0
LINE
  8
0
 62
7
  6
CONTINUOUS
 10
225.4107185239
 20
166.1944599145
 11
225.4104033828
 21
172.1470860954
  0
LINE
  8
DEFAULT_2
 62
8
  6
HIDDEN
 10
225.4107185239
 20
166.1944599145
 11
225.4107581899
 21
166.1489045224
  0
POLYLINE
  8
DEFAULT_2
 62
8
  6
HIDDEN
 66
1
 70
0
  0
VERTEX
  8
DEFAULT_2
 62
8
  6
HIDDEN
 10
22.5151647561
 20
120.5989170082
  0
VERTEX
  8
DEFAULT_2
 62
8
  6
HIDDEN
 10
22.3464295947
 20
120.5532201373
  0
VERTEX
  8
DEFAULT_2
 62
8
  6
HIDDEN
 10
22.1648265115
 20
120.5167285536
  0
SEQEND
  0
POLYLINE
  8
DEFAULT_2
 62
8
  6
HIDDEN
 66
1
 70
0
  0
VERTEX
  8
DEFAULT_2
 62
8
  6
HIDDEN
 10
22.1648265115
 20
120.5167285536
  0
VERTEX
  8
DEFAULT_2
 62
8
  6
HIDDEN
 10
21.9763105689
 20
120.4941646877
  0
VERTEX
  8
DEFAULT_2
 62
8
  6
HIDDEN
 10
21.7839210643
 20
120.4853205885
  0
VERTEX
  8
DEFAULT_2
 62
8
  6
HIDDEN
 10
21.5912541252
 20
120.4921629122
  0
VERTEX
  8
DEFAULT_2
 62
8
  6
HIDDEN
 10
21.4017260511
 20
120.5128902677
  0
SEQEND
  0
POLYLINE
  8
DEFAULT_2
 62
8
  6
HIDDEN
 66
1
 70
0
  0
VERTEX
  8
DEFAULT_2
 62
8
  6
HIDDEN
 10
20.8912357338
 20
120.6454226517
  0
VERTEX
  8
DEFAULT_2
 62
8
  6
HIDDEN
 10
21.0469590973
 20
120.5925625278
  0
VERTEX
  8
DEFAULT_2
 62
8
  6
HIDDEN
 10
21.2184975688
 20
120.5477804764
  0
VERTEX
  8
DEFAULT_2
 62
8
  6
HIDDEN
 10
21.4017262968
 20
120.5128902339
  0
SEQEND
  0
LINE
  8
DEFAULT_2
 62
8
  6
HIDDEN
 10
20.7564313946
 20
120.6998961801
 11
20.888458251
 21
120.6464152732
  0
LINE
  8
DEFAULT_2
 62
8
  6
HIDDEN
 10
20.6533436585
 20
120.7477170319
 11
20.7584604734
 21
120.6992666435
  0
LINE
  8
DEFAULT_2
 62
8
  6
HIDDEN
 10
20.5350081417
 20
120.8096942117
 11
20.6533436585
 21
120.7477170319
  0
LINE
  8
DEFAULT_2
 62
8
  6
HIDDEN
 10
20.3745560442
 20
120.7300418283
 11
20.3743507457
 21
120.7301498021
  0
LINE
  8
DEFAULT_2
 62
8
  6
HIDDEN
 10
20.5347986829
 20
120.8097249348
 11
20.5778418352
 21
120.7869557681
  0
LINE
  8
DEFAULT_2
 62
8
  6
HIDDEN
 10
20.5350081549
 20
120.8096942132
 11
20.5211768815
 21
120.8182335102
  0
LINE
  8
DEFAULT_2
 62
8
  6
HIDDEN
 10
20.5347986563
 20
120.8097249655
 11
20.5211331922
 21
120.8182739365
  0
LINE
  8
DEFAULT_2
 62
8
  6
HIDDEN
 10
20.5211768815
 20
120.8182335102
 11
20.5209024698
 21
120.8186536833
  0
LINE
  8
DEFAULT_2
 62
8
  6
HIDDEN
 10
20.5211331922
 20
120.8182739365
 11
20.5209024698
 21
120.8186536833
  0
LINE
  8
DEFAULT_2
 62
8
  6
HIDDEN
 10
20.5209024698
 20
120.8186536833
 11
20.5210736331
 21
120.8183405568
  0
LINE
  8
DEFAULT_2
 62
8
  6
HIDDEN
 10
23.1678729486
 20
120.730370103
 11
23.0206260212
 21
120.8192699727
  0
LINE
  8
DEFAULT_2
 62
8
  6
HIDDEN
 10
20.5209024698
 20
124.8852662368
 11
20.5209024698
 21
120.8186536833
  0
LINE
  8
02___PRT_ALL_AXES
 62
8
  6
HIDDEN
 10
20.7709024698
 20
120.5568391121
 11
20.7709024698
 21
126.2136933616
  0
LINE
  8
02___PRT_ALL_AXES
 62
2
  6
CENTER
 10
21.7709024698
 20
123.3852662368
 11
21.7709024698
 21
116.3852662368
  0
LINE
  8
02___PRT_ALL_AXES
 62
2
  6
CENTER
 10
21.7709024698
 20
123.3852662368
 11
21.7709024698
 21
130.3852662368
  0
LINE
  8
02___PRT_ALL_AXES
 62
2
  6
CENTER
 10
21.7709024698
 20
123.3852662368
 11
14.7709024698
 21
123.3852662368
  0
LINE
  8
02___PRT_ALL_AXES
 62
2
  6
CENTER
 10
21.7709024698
 20
123.3852662368
 11
28.7709024698
 21
123.3852662368
  0
LINE
  8
02___PRT_ALL_AXES
 62
8
  6
HIDDEN
 10
22.7709024698
 20
120.5568391121
 11
22.7709024698
 21
126.2136933616
  0
LINE
  8
DEFAULT_2
 62
8
  6
HIDDEN
 10
23.0209024698
 20
124.8852662368
 11
23.0209024698
 21
120.8186536833
  0
LINE
  8
DEFAULT_2
 62
8
  6
HIDDEN
 10
20.3743505486
 20
120.7301500594
 11
20.5209022836
 21
120.8186539437
  0
LINE
  8
0
 62
7
  6
CONTINUOUS
 10
19.1728262585
 20
124.8852662368
 11
24.3689786812
 21
124.8852662368
  0
LINE
  8
DEFAULT_2
 62
8
  6
HIDDEN
 10
23.0209024698
 20
120.8186536833
 11
23.0207392909
 21
120.8183745447
  0
LINE
  8
DEFAULT_2
 62
8
  6
HIDDEN
 10
23.0209024698
 20
120.8186536833
 11
23.0206879439
 21
120.8183118612
  0
LINE
  8
DEFAULT_2
 62
8
  6
HIDDEN
 10
23.0206748682
 20
120.8183061616
 11
23.0209024698
 21
120.8186536833
  0
LINE
  8
DEFAULT_2
 62
8
  6
HIDDEN
 10
23.0206264648
 20
120.8182494972
 11
23.0209024698
 21
120.8186536833
  0
LINE
  8
DEFAULT_2
 62
8
  6
HIDDEN
 10
23.0207392909
 20
120.8183745447
 11
23.0075294178
 21
120.8101780766
  0
LINE
  8
DEFAULT_2
 62
8
  6
HIDDEN
 10
22.8950043388
 20
120.7507676469
 11
23.0075294178
 21
120.8101780766
  0
LINE
  8
DEFAULT_2
 62
8
  6
HIDDEN
 10
22.8950041712
 20
120.750767562
 11
22.7945140371
 21
120.7039672704
  0
LINE
  8
DEFAULT_2
 62
8
  6
HIDDEN
 10
23.167454194
 20
120.7301498021
 11
23.1673009465
 21
120.7300692019
  0
POLYLINE
  8
DEFAULT_2
 62
8
  6
HIDDEN
 66
1
 70
0
  0
VERTEX
  8
DEFAULT_2
 62
8
  6
HIDDEN
 10
22.7933104579
 20
120.7036938211
  0
VERTEX
  8
DEFAULT_2
 62
8
  6
HIDDEN
 10
22.664908778
 20
120.6507632979
  0
VERTEX
  8
DEFAULT_2
 62
8
  6
HIDDEN
 10
22.5129600542
 20
120.5981266234
  0
SEQEND
  0
ARC
  8
02___PRT_ALL_AXES
 62
8
  6
HIDDEN
 10
259.9423328243
 20
123.3852662368
 40
3.0
 50
250.5466814855
 51
289.4600890527
  0
ARC
  8
02___PRT_ALL_AXES
 62
8
  6
HIDDEN
 10
259.9423328243
 20
123.3852662368
 40
3.0
 50
70.5394522145
 51
109.4602169697
  0
CIRCLE
  8
0
 62
7
  6
CONTINUOUS
 10
259.9423328243
 20
123.3852662368
 40
3.0
  0
ARC
  8
0
 62
7
  6
CONTINUOUS
 10
259.9423894704
 20
123.3854595543
 40
2.7499956786
 50
146.9482884944
 51
33.0529989416
  0
CIRCLE
  8
DEFAULT_2
 62
8
  6
HIDDEN
 10
259.9423328243
 20
123.3852662368
 40
2.4
  0
CIRCLE
  8
DEFAULT_2
 62
8
  6
HIDDEN
 10
259.9423328243
 20
123.3852662368
 40
2.25
  0
CIRCLE
  8
0
 62
7
  6
CONTINUOUS
 10
51.6606061866
 20
70.878669014
 40
1.25
  0
CIRCLE
  8
0
 62
7
  6
CONTINUOUS
 10
223.6606061866
 20
70.878669014
 40
1.25
  0
CIRCLE
  8
02___PRT_ALL_AXES
 62
7
  6
CONTINUOUS
 10
113.6606061866
 20
70.878669014
 40
1.0
  0
CIRCLE
  8
0
 62
7
  6
CONTINUOUS
 10
51.6606061866
 20
169.1489045155
 40
1.25
  0
CIRCLE
  8
0
 62
7
  6
CONTINUOUS
 10
223.6606061866
 20
169.1489045155
 40
1.25
  0
CIRCLE
  8
02___PRT_ALL_AXES
 62
7
  6
CONTINUOUS
 10
113.6606061866
 20
169.1489045155
 40
1.0
  0
ARC
  8
02___PRT_ALL_AXES
 62
8
  6
HIDDEN
 10
21.7709024698
 20
123.3852662368
 40
3.0
 50
70.5397830303
 51
109.4605477855
  0
ARC
  8
02___PRT_ALL_AXES
 62
8
  6
HIDDEN
 10
21.7709024698
 20
123.3852662368
 40
3.0
 50
250.5399109473
 51
289.4552778961
  0
CIRCLE
  8
0
 62
7
  6
CONTINUOUS
 10
21.7709024698
 20
123.3852662368
 40
3.0
  0
ARC
  8
0
 62
7
  6
CONTINUOUS
 10
21.7710756264
 20
123.3854707198
 40
2.7499496497
 50
146.9498073983
 51
33.0541280444
  0
CIRCLE
  8
DEFAULT_2
 62
8
  6
HIDDEN
 10
21.7709024698
 20
123.3852662368
 40
2.4
  0
CIRCLE
  8
DEFAULT_2
 62
8
  6
HIDDEN
 10
21.7709024698
 20
123.3852662368
 40
2.25
  0
ENDSEC
  0
EOF
