  0
SECTION
  2
HEADER
  9
$ACADVER
  1
AC1015
  9
$ACADMAINTVER
 70
     6
  9
$DWGCODEPAGE
  3
ANSI_1252
  9
$INSBASE
 10
0.0
 20
0.0
 30
0.0
  9
$EXTMIN
 10
0.0
 20
0.0
 30
0.0
  9
$EXTMAX
 10
594.0
 20
420.0
 30
0.0
  9
$LIMMIN
 10
0.0
 20
0.0
  9
$LIMMAX
 10
594.0
 20
420.0
  9
$ORTHOMODE
 70
     0
  9
$REGENMODE
 70
     1
  9
$FILLMODE
 70
     1
  9
$QTEXTMODE
 70
     0
  9
$MIRRTEXT
 70
     1
  9
$LTSCALE
 40
1.0
  9
$ATTMODE
 70
     1
  9
$TEXTSIZE
 40
3.5
  9
$TRACEWID
 40
1.0
  9
$TEXTSTYLE
  7
Standard
  9
$CLAYER
  8
0
  9
$CELTYPE
  6
ByLayer
  9
$CECOLOR
 62
   256
  9
$CELTSCALE
 40
1.0
  9
$DISPSILH
 70
     0
  9
$DIMSCALE
 40
1.0
  9
$DIMASZ
 40
3.302
  9
$DIMEXO
 40
1.0
  9
$DIMDLI
 40
3.75
  9
$DIMRND
 40
0.0
  9
$DIMDLE
 40
0.0
  9
$DIMEXE
 40
1.0
  9
$DIMTP
 40
0.0
  9
$DIMTM
 40
0.0
  9
$DIMTXT
 40
3.5
  9
$DIMCEN
 40
2.5
  9
$DIMTSZ
 40
0.0
  9
$DIMTOL
 70
     0
  9
$DIMLIM
 70
     0
  9
$DIMTIH
 70
     1
  9
$DIMTOH
 70
     1
  9
$DIMSE1
 70
     0
  9
$DIMSE2
 70
     0
  9
$DIMTAD
 70
     1
  9
$DIMZIN
 70
     0
  9
$DIMBLK
  1

  9
$DIMASO
 70
     1
  9
$DIMSHO
 70
     1
  9
$DIMPOST
  1

  9
$DIMAPOST
  1

  9
$DIMALT
 70
     0
  9
$DIMALTD
 70
     3
  9
$DIMALTF
 40
0.0393700787
  9
$DIMLFAC
 40
1.0
  9
$DIMTOFL
 70
     1
  9
$DIMTVP
 40
0.0
  9
$DIMTIX
 70
     0
  9
$DIMSOXD
 70
     0
  9
$DIMSAH
 70
     0
  9
$DIMBLK1
  1

  9
$DIMBLK2
  1

  9
$DIMSTYLE
  2
ISO-25
  9
$DIMCLRD
 70
     0
  9
$DIMCLRE
 70
     0
  9
$DIMCLRT
 70
     0
  9
$DIMTFAC
 40
1.0
  9
$DIMGAP
 40
1.524
  9
$DIMJUST
 70
     0
  9
$DIMSD1
 70
     0
  9
$DIMSD2
 70
     0
  9
$DIMTOLJ
 70
     0
  9
$DIMTZIN
 70
     0
  9
$DIMALTZ
 70
     0
  9
$DIMALTTZ
 70
     0
  9
$DIMUPT
 70
     0
  9
$DIMDEC
 70
     3
  9
$DIMTDEC
 70
     3
  9
$DIMALTU
 70
     2
  9
$DIMALTTD
 70
     3
  9
$DIMTXSTY
  7
Standard
  9
$DIMAUNIT
 70
     0
  9
$DIMADEC
 70
     2
  9
$DIMALTRND
 40
0.0
  9
$DIMAZIN
 70
     0
  9
$DIMDSEP
 70
    44
  9
$DIMATFIT
 70
     3
  9
$DIMFRAC
 70
     0
  9
$DIMLDRBLK
  1

  9
$DIMLUNIT
 70
     2
  9
$DIMLWD
 70
    -2
  9
$DIMLWE
 70
    -2
  9
$DIMTMOVE
 70
     0
  9
$LUNITS
 70
     2
  9
$LUPREC
 70
     2
  9
$SKETCHINC
 40
1.0
  9
$FILLETRAD
 40
10.0
  9
$AUNITS
 70
     0
  9
$AUPREC
 70
     2
  9
$MENU
  1
.
  9
$ELEVATION
 40
0.0
  9
$PELEVATION
 40
0.0
  9
$THICKNESS
 40
0.0
  9
$LIMCHECK
 70
     0
  9
$CHAMFERA
 40
10.0
  9
$CHAMFERB
 40
10.0
  9
$CHAMFERC
 40
20.0
  9
$CHAMFERD
 40
0.0
  9
$SKPOLY
 70
     0
  9
$TDCREATE
 40
2457810.711657477
  9
$TDUCREATE
 40
2457810.66999081
  9
$TDUPDATE
 40
2457810.711671157
  9
$TDUUPDATE
 40
2457810.670004491
  9
$TDINDWG
 40
0.0000000116
  9
$TDUSRTIMER
 40
0.0000000116
  9
$USRTIMER
 70
     1
  9
$ANGBASE
 50
0.0
  9
$ANGDIR
 70
     0
  9
$PDMODE
 70
     0
  9
$PDSIZE
 40
-1.0
  9
$PLINEWID
 40
0.0
  9
$SPLFRAME
 70
     0
  9
$SPLINETYPE
 70
     6
  9
$SPLINESEGS
 70
     8
  9
$HANDSEED
  5
18F
  9
$SURFTAB1
 70
     6
  9
$SURFTAB2
 70
     6
  9
$SURFTYPE
 70
     6
  9
$SURFU
 70
     6
  9
$SURFV
 70
     6
  9
$UCSBASE
  2

  9
$UCSNAME
  2

  9
$UCSORG
 10
0.0
 20
0.0
 30
0.0
  9
$UCSXDIR
 10
1.0
 20
0.0
 30
0.0
  9
$UCSYDIR
 10
0.0
 20
1.0
 30
0.0
  9
$UCSORTHOREF
  2

  9
$UCSORTHOVIEW
 70
     0
  9
$UCSORGTOP
 10
0.0
 20
0.0
 30
0.0
  9
$UCSORGBOTTOM
 10
0.0
 20
0.0
 30
0.0
  9
$UCSORGLEFT
 10
0.0
 20
0.0
 30
0.0
  9
$UCSORGRIGHT
 10
0.0
 20
0.0
 30
0.0
  9
$UCSORGFRONT
 10
0.0
 20
0.0
 30
0.0
  9
$UCSORGBACK
 10
0.0
 20
0.0
 30
0.0
  9
$PUCSBASE
  2

  9
$PUCSNAME
  2

  9
$PUCSORG
 10
0.0
 20
0.0
 30
0.0
  9
$PUCSXDIR
 10
1.0
 20
0.0
 30
0.0
  9
$PUCSYDIR
 10
0.0
 20
1.0
 30
0.0
  9
$PUCSORTHOREF
  2

  9
$PUCSORTHOVIEW
 70
     0
  9
$PUCSORGTOP
 10
0.0
 20
0.0
 30
0.0
  9
$PUCSORGBOTTOM
 10
0.0
 20
0.0
 30
0.0
  9
$PUCSORGLEFT
 10
0.0
 20
0.0
 30
0.0
  9
$PUCSORGRIGHT
 10
0.0
 20
0.0
 30
0.0
  9
$PUCSORGFRONT
 10
0.0
 20
0.0
 30
0.0
  9
$PUCSORGBACK
 10
0.0
 20
0.0
 30
0.0
  9
$USERI1
 70
     0
  9
$USERI2
 70
     0
  9
$USERI3
 70
     0
  9
$USERI4
 70
     0
  9
$USERI5
 70
     0
  9
$USERR1
 40
0.0
  9
$USERR2
 40
0.0
  9
$USERR3
 40
0.0
  9
$USERR4
 40
0.0
  9
$USERR5
 40
0.0
  9
$WORLDVIEW
 70
     1
  9
$SHADEDGE
 70
     3
  9
$SHADEDIF
 70
    70
  9
$TILEMODE
 70
     1
  9
$MAXACTVP
 70
    64
  9
$PINSBASE
 10
0.0
 20
0.0
 30
0.0
  9
$PLIMCHECK
 70
     0
  9
$PEXTMIN
 10
1.0000000000E+20
 20
1.0000000000E+20
 30
1.0000000000E+20
  9
$PEXTMAX
 10
-1.0000000000E+20
 20
-1.0000000000E+20
 30
-1.0000000000E+20
  9
$PLIMMIN
 10
0.0
 20
0.0
  9
$PLIMMAX
 10
420.0
 20
297.0
  9
$UNITMODE
 70
     0
  9
$VISRETAIN
 70
     1
  9
$PLINEGEN
 70
     0
  9
$PSLTSCALE
 70
     1
  9
$TREEDEPTH
 70
  3020
  9
$CMLSTYLE
  2
Standard
  9
$CMLJUST
 70
     0
  9
$CMLSCALE
 40
20.0
  9
$PROXYGRAPHICS
 70
     1
  9
$MEASUREMENT
 70
     1
  9
$CELWEIGHT
370
    -1
  9
$ENDCAPS
280
     0
  9
$JOINSTYLE
280
     0
  9
$LWDISPLAY
290
     1
  9
$INSUNITS
 70
     4
  9
$HYPERLINKBASE
  1

  9
$STYLESHEET
  1

  9
$XEDIT
290
     1
  9
$CEPSNTYPE
380
     0
  9
$PSTYLEMODE
290
     1
  9
$FINGERPRINTGUID
  2
{336D0BED-442A-49D4-AA4A-5C4723C2C7C5}
  9
$VERSIONGUID
  2
{FAEB1C32-E019-11D5-929B-00C0DF256EC4}
  9
$EXTNAMES
290
     1
  9
$PSVPSCALE
 40
0.0
  9
$OLESTARTUP
290
     0
  0
ENDSEC
  0
SECTION
  2
CLASSES
  0
CLASS
  1
ACDBDICTIONARYWDFLT
  2
AcDbDictionaryWithDefault
  3
ObjectDBX Classes
 90
        0
280
     0
281
     0
  0
CLASS
  1
VISUALSTYLE
  2
AcDbVisualStyle
  3
ObjectDBX Classes
 90
     4095
280
     0
281
     0
  0
CLASS
  1
MATERIAL
  2
AcDbMaterial
  3
ObjectDBX Classes
 90
     1153
280
     0
281
     0
  0
CLASS
  1
ACDBPLACEHOLDER
  2
AcDbPlaceHolder
  3
ObjectDBX Classes
 90
        0
280
     0
281
     0
  0
CLASS
  1
LAYOUT
  2
AcDbLayout
  3
ObjectDBX Classes
 90
        0
280
     0
281
     0
  0
ENDSEC
  0
SECTION
  2
TABLES
  0
TABLE
  2
VPORT
  5
8
330
0
100
AcDbSymbolTable
 70
     1
  0
VPORT
  5
29
330
8
100
AcDbSymbolTableRecord
100
AcDbViewportTableRecord
  2
*Active
 70
     0
 10
0.0
 20
0.0
 11
1.0
 21
1.0
 12
297.0
 22
210.0
 13
0.0
 23
0.0
 14
10.0
 24
10.0
 15
10.0
 25
10.0
 16
0.0
 26
0.0
 36
1.0
 17
0.0
 27
0.0
 37
0.0
 40
420.0
 41
1.4142857143
 42
50.0
 43
0.0
 44
0.0
 50
0.0
 51
0.0
 71
     0
 72
  2000
 73
     1
 74
     3
 75
     0
 76
     0
 77
     0
 78
     0
281
     0
 65
     1
110
0.0
120
0.0
130
0.0
111
1.0
121
0.0
131
0.0
112
0.0
122
1.0
132
0.0
 79
     0
146
0.0
  0
ENDTAB
  0
TABLE
  2
LTYPE
  5
5
330
0
100
AcDbSymbolTable
 70
     6
  0
LTYPE
  5
14
330
5
100
AcDbSymbolTableRecord
100
AcDbLinetypeTableRecord
  2
ByBlock
 70
     0
  3

 72
    65
 73
     0
 40
0.0
  0
LTYPE
  5
15
330
5
100
AcDbSymbolTableRecord
100
AcDbLinetypeTableRecord
  2
ByLayer
 70
     0
  3

 72
    65
 73
     0
 40
0.0
  0
LTYPE
  5
16
330
5
100
AcDbSymbolTableRecord
100
AcDbLinetypeTableRecord
  2
Continuous
 70
     0
  3
Solid line
 72
    65
 73
     0
 40
0.0
  0
LTYPE
  5
3F
330
5
100
AcDbSymbolTableRecord
100
AcDbLinetypeTableRecord
  2
HIDDEN
 70
     0
  3
Hidden __ __ __ __ __ __ __ __ __ __ __ __ __ __
 72
    65
 73
     2
 40
1.905
 49
1.27
 74
     0
 49
-0.635
 74
     0
  0
LTYPE
  5
40
330
5
100
AcDbSymbolTableRecord
100
AcDbLinetypeTableRecord
  2
PHANTOM
 70
     0
  3
Phantom ______  __  __  ______  __  __  ______
 72
    65
 73
     6
 40
12.7
 49
6.35
 74
     0
 49
-1.27
 74
     0
 49
1.27
 74
     0
 49
-1.27
 74
     0
 49
1.27
 74
     0
 49
-1.27
 74
     0
  0
LTYPE
  5
41
330
5
100
AcDbSymbolTableRecord
100
AcDbLinetypeTableRecord
  2
CENTER
 70
     0
  3
Center ____ _ ____ _ ____ _ ____ _ ____ _ ____
 72
    65
 73
     4
 40
10.16
 49
6.35
 74
     0
 49
-1.27
 74
     0
 49
1.27
 74
     0
 49
-1.27
 74
     0
  0
LTYPE
  5
42
330
5
100
AcDbSymbolTableRecord
100
AcDbLinetypeTableRecord
  2
CENTERX2
 70
     0
  3
Center (2x) ________  __  ________  __  _____
 72
    65
 73
     4
 40
20.32
 49
12.7
 74
     0
 49
-2.54
 74
     0
 49
2.54
 74
     0
 49
-2.54
 74
     0
  0
LTYPE
  5
43
330
5
100
AcDbSymbolTableRecord
100
AcDbLinetypeTableRecord
  2
DOT2
 70
     0
  3
Dot (.5x) ........................................
 72
    65
 73
     2
 40
0.635
 49
0.0
 74
     0
 49
-0.635
 74
     0
  0
ENDTAB
  0
TABLE
  2
LAYER
  5
2
330
0
100
AcDbSymbolTable
 70
     2
  0
LAYER
  5
10
330
2
100
AcDbSymbolTableRecord
100
AcDbLayerTableRecord
  2
0
 70
     0
 62
     7
  6
Continuous
370
    -3
390
F
  0
LAYER
  5
44
330
2
100
AcDbSymbolTableRecord
100
AcDbLayerTableRecord
  2
FORMAT
 70
     0
 62
     7
  6
Continuous
370
    -3
390
F
  0
ENDTAB
  0
TABLE
  2
STYLE
  5
3
330
0
100
AcDbSymbolTable
 70
     3
  0
STYLE
  5
11
330
3
100
AcDbSymbolTableRecord
100
AcDbTextStyleTableRecord
  2
Standard
 70
     0
 40
0.0
 41
1.0
 50
0.0
 71
     0
 42
3.5
  3
txt
  4

  0
STYLE
  5
66
330
3
100
AcDbSymbolTableRecord
100
AcDbTextStyleTableRecord
  2
SLDTEXTSTYLE0
 70
     0
 40
0.0
 41
0.75
 50
0.0
 71
     0
 42
0.2
  3
TXT
  4

  0
STYLE
  5
6C
330
3
100
AcDbSymbolTableRecord
100
AcDbTextStyleTableRecord
  2
SLDTEXTSTYLE1
 70
     0
 40
0.0
 41
0.7
 50
0.0
 71
     0
 42
0.2
  3
TXT
  4

  0
ENDTAB
  0
TABLE
  2
VIEW
  5
6
330
0
100
AcDbSymbolTable
 70
     0
  0
ENDTAB
  0
TABLE
  2
UCS
  5
7
330
0
100
AcDbSymbolTable
 70
     0
  0
ENDTAB
  0
TABLE
  2
APPID
  5
9
330
0
100
AcDbSymbolTable
 70
     1
  0
APPID
  5
12
330
9
100
AcDbSymbolTableRecord
100
AcDbRegAppTableRecord
  2
ACAD
 70
     0
  0
ENDTAB
  0
TABLE
  2
DIMSTYLE
  5
A
330
0
100
AcDbSymbolTable
 70
     7
100
AcDbDimStyleTable
  0
DIMSTYLE
105
27
330
A
100
AcDbSymbolTableRecord
100
AcDbDimStyleTableRecord
  2
ISO-25
 70
     0
 41
2.5
 42
0.625
 43
3.75
 44
1.25
 73
     0
 74
     0
 77
     1
 78
     8
140
2.5
141
2.5
143
0.0393700787
147
0.625
171
     3
172
     1
178
     0
271
     2
272
     2
274
     3
278
    44
283
     0
284
     8
340
11
  0
DIMSTYLE
105
94
102
{ACAD_REACTORS
330
93
102
}
330
A
100
AcDbSymbolTableRecord
100
AcDbDimStyleTableRecord
  2
SLDDIMSTYLE0
 70
     0
 41
3.302
 44
0.0
 45
0.000000001
 47
0.033
 71
     1
 78
    12
 79
     3
140
3.5
141
0.0
147
0.875
173
     1
178
     0
271
     3
272
     3
276
     2
284
     8
340
66
  0
DIMSTYLE
105
A3
102
{ACAD_REACTORS
330
A2
102
}
330
A
100
AcDbSymbolTableRecord
100
AcDbDimStyleTableRecord
  2
SLDDIMSTYLE1
 70
     0
 41
3.302
 44
0.0
 45
0.000000001
 47
0.015
 48
0.015
 71
     1
 73
     0
 74
     0
 77
     1
 78
    12
 79
     3
140
3.5
147
0.875
172
     1
173
     1
178
     0
271
     3
272
     3
276
     2
284
     8
289
     0
340
66
  0
DIMSTYLE
105
B5
102
{ACAD_REACTORS
330
B4
102
}
330
A
100
AcDbSymbolTableRecord
100
AcDbDimStyleTableRecord
  2
SLDDIMSTYLE2
 70
     0
 41
3.302
 44
0.0
 45
0.000000001
 47
0.1
 71
     1
 73
     0
 74
     0
 77
     1
 78
    12
 79
     3
140
3.5
147
0.875
173
     1
178
     0
271
     1
272
     1
276
     2
284
     8
340
66
  0
DIMSTYLE
105
10A
102
{ACAD_REACTORS
330
109
330
141
102
}
330
A
100
AcDbSymbolTableRecord
100
AcDbDimStyleTableRecord
  2
SLDDIMSTYLE3
 70
     0
 41
3.302
 44
0.0
 45
0.000000001
 73
     0
 74
     0
 77
     1
 78
    12
 79
     3
140
3.5
147
0.875
172
     1
173
     1
178
     0
271
     3
272
     3
276
     2
284
    12
289
     0
340
66
  0
DIMSTYLE
105
117
102
{ACAD_REACTORS
330
116
330
121
330
12B
330
136
330
157
330
162
102
}
330
A
100
AcDbSymbolTableRecord
100
AcDbDimStyleTableRecord
  2
SLDDIMSTYLE4
 70
     0
 41
3.302
 44
0.0
 45
0.000000001
 73
     0
 74
     0
 77
     1
 78
    12
 79
     3
140
3.5
147
0.875
173
     1
178
     0
271
     3
272
     3
276
     2
284
    12
340
66
  0
DIMSTYLE
105
14C
102
{ACAD_REACTORS
330
14B
102
}
330
A
100
AcDbSymbolTableRecord
100
AcDbDimStyleTableRecord
  2
SLDDIMSTYLE5
 70
     0
 41
3.302
 44
0.0
 78
    12
 79
     3
140
3.5
147
0.875
173
     1
178
     0
179
     2
272
     2
276
     2
284
    12
340
66
  0
ENDTAB
  0
TABLE
  2
BLOCK_RECORD
  5
1
330
0
100
AcDbSymbolTable
 70
    21
  0
BLOCK_RECORD
  5
1F
330
1
100
AcDbSymbolTableRecord
100
AcDbBlockTableRecord
  2
*Model_Space
340
22
  0
BLOCK_RECORD
  5
1B
330
1
100
AcDbSymbolTableRecord
100
AcDbBlockTableRecord
  2
*Paper_Space
340
1E
  0
BLOCK_RECORD
  5
23
330
1
100
AcDbSymbolTableRecord
100
AcDbBlockTableRecord
  2
*Paper_Space0
340
26
  0
BLOCK_RECORD
  5
73
330
1
100
AcDbSymbolTableRecord
100
AcDbBlockTableRecord
  2
SW_NOTE_0
340
0
102
{BLKREFS
331
78
102
}
  0
BLOCK_RECORD
  5
7C
330
1
100
AcDbSymbolTableRecord
100
AcDbBlockTableRecord
  2
SW_NOTE_1
340
0
102
{BLKREFS
331
81
102
}
  0
BLOCK_RECORD
  5
82
330
1
100
AcDbSymbolTableRecord
100
AcDbBlockTableRecord
  2
SW_NOTE_2
340
0
102
{BLKREFS
331
88
102
}
  0
BLOCK_RECORD
  5
95
330
1
100
AcDbSymbolTableRecord
100
AcDbBlockTableRecord
  2
_D
340
0
  0
BLOCK_RECORD
  5
A4
330
1
100
AcDbSymbolTableRecord
100
AcDbBlockTableRecord
  2
_D_1
340
0
  0
BLOCK_RECORD
  5
B6
330
1
100
AcDbSymbolTableRecord
100
AcDbBlockTableRecord
  2
_D_2
340
0
  0
BLOCK_RECORD
  5
C5
330
1
100
AcDbSymbolTableRecord
100
AcDbBlockTableRecord
  2
SW_CENTERMARKSYMBOL_0
340
0
102
{BLKREFS
331
D0
102
}
  0
BLOCK_RECORD
  5
D1
330
1
100
AcDbSymbolTableRecord
100
AcDbBlockTableRecord
  2
SW_CENTERMARKSYMBOL_1
340
0
102
{BLKREFS
331
DC
102
}
  0
BLOCK_RECORD
  5
E4
330
1
100
AcDbSymbolTableRecord
100
AcDbBlockTableRecord
  2
SW_SFSYMBOL_0
340
0
102
{BLKREFS
331
EA
102
}
  0
BLOCK_RECORD
  5
10B
330
1
100
AcDbSymbolTableRecord
100
AcDbBlockTableRecord
  2
_D_3
340
0
  0
BLOCK_RECORD
  5
118
330
1
100
AcDbSymbolTableRecord
100
AcDbBlockTableRecord
  2
_D_4
340
0
  0
BLOCK_RECORD
  5
122
330
1
100
AcDbSymbolTableRecord
100
AcDbBlockTableRecord
  2
_D_5
340
0
  0
BLOCK_RECORD
  5
12C
330
1
100
AcDbSymbolTableRecord
100
AcDbBlockTableRecord
  2
_D_6
340
0
  0
BLOCK_RECORD
  5
137
330
1
100
AcDbSymbolTableRecord
100
AcDbBlockTableRecord
  2
_D_7
340
0
  0
BLOCK_RECORD
  5
142
330
1
100
AcDbSymbolTableRecord
100
AcDbBlockTableRecord
  2
_D_8
340
0
  0
BLOCK_RECORD
  5
14D
330
1
100
AcDbSymbolTableRecord
100
AcDbBlockTableRecord
  2
_D_9
340
0
  0
BLOCK_RECORD
  5
158
330
1
100
AcDbSymbolTableRecord
100
AcDbBlockTableRecord
  2
_D_10
340
0
  0
BLOCK_RECORD
  5
163
330
1
100
AcDbSymbolTableRecord
100
AcDbBlockTableRecord
  2
_D_11
340
0
  0
BLOCK_RECORD
  5
16C
330
1
100
AcDbSymbolTableRecord
100
AcDbBlockTableRecord
  2
SW_NOTE_3
340
0
102
{BLKREFS
331
171
102
}
  0
BLOCK_RECORD
  5
172
330
1
100
AcDbSymbolTableRecord
100
AcDbBlockTableRecord
  2
SW_SFSYMBOL_1
340
0
102
{BLKREFS
331
177
102
}
  0
ENDTAB
  0
ENDSEC
  0
SECTION
  2
BLOCKS
  0
BLOCK
  5
20
330
1F
100
AcDbEntity
  8
0
100
AcDbBlockBegin
  2
*Model_Space
 70
     0
 10
0.0
 20
0.0
 30
0.0
  3
*Model_Space
  1

  0
ENDBLK
  5
21
330
1F
100
AcDbEntity
  8
0
100
AcDbBlockEnd
  0
BLOCK
  5
1C
330
1B
100
AcDbEntity
 67
     1
  8
0
100
AcDbBlockBegin
  2
*Paper_Space
 70
     0
 10
0.0
 20
0.0
 30
0.0
  3
*Paper_Space
  1

  0
ENDBLK
  5
1D
330
1B
100
AcDbEntity
 67
     1
  8
0
100
AcDbBlockEnd
  0
BLOCK
  5
24
330
23
100
AcDbEntity
  8
0
100
AcDbBlockBegin
  2
*Paper_Space0
 70
     0
 10
0.0
 20
0.0
 30
0.0
  3
*Paper_Space0
  1

  0
ENDBLK
  5
25
330
23
100
AcDbEntity
  8
0
100
AcDbBlockEnd
  0
BLOCK
  5
74
330
73
100
AcDbEntity
  8
0
100
AcDbBlockBegin
  2
SW_NOTE_0
 70
     0
 10
0.0
 20
0.0
 30
0.0
  3
SW_NOTE_0
  1

  0
MTEXT
  5
76
330
73
100
AcDbEntity
  8
0
  6
Continuous
 62
     0
370
     0
100
AcDbMText
 10
0.0
 20
1.9336016097
 30
0.0
 40
1.5
 41
0.0
 71
     1
 72
     1
  1
MATERIAU:
  7
SLDTEXTSTYLE0
 73
     1
 44
1.0
  0
MTEXT
  5
77
330
73
100
AcDbEntity
  8
0
  6
Continuous
 62
     0
370
     0
100
AcDbMText
 10
0.0
 20
-2.6288310439
 30
0.0
 40
2.9104166667
 41
0.0
 71
     1
 72
     1
  1
ALUMINIUM (EX : 2017)
  7
SLDTEXTSTYLE0
 73
     1
 44
1.0
  0
ENDBLK
  5
75
330
73
100
AcDbEntity
  8
0
100
AcDbBlockEnd
  0
BLOCK
  5
7D
330
7C
100
AcDbEntity
  8
0
100
AcDbBlockBegin
  2
SW_NOTE_1
 70
     0
 10
0.0
 20
0.0
 30
0.0
  3
SW_NOTE_1
  1

  0
MTEXT
  5
7F
330
7C
100
AcDbEntity
  8
0
  6
Continuous
 62
     0
370
     0
100
AcDbMText
 10
0.0
 20
1.9336016097
 30
0.0
 40
1.5
 41
0.0
 71
     1
 72
     1
  1
CASSER LES
  7
SLDTEXTSTYLE0
 73
     1
 44
1.0
  0
MTEXT
  5
80
330
7C
100
AcDbEntity
  8
0
  6
Continuous
 62
     0
370
     0
100
AcDbMText
 10
0.0
 20
-0.5663983345
 30
0.0
 40
1.5
 41
0.0
 71
     1
 72
     1
  1
ANGLES VIFS
  7
SLDTEXTSTYLE0
 73
     1
 44
1.0
  0
ENDBLK
  5
7E
330
7C
100
AcDbEntity
  8
0
100
AcDbBlockEnd
  0
BLOCK
  5
83
330
82
100
AcDbEntity
  8
0
100
AcDbBlockBegin
  2
SW_NOTE_2
 70
     0
 10
0.0
 20
0.0
 30
0.0
  3
SW_NOTE_2
  1

  0
MTEXT
  5
85
330
82
100
AcDbEntity
  8
0
  6
Continuous
 62
     0
370
     0
100
AcDbMText
 10
0.0
 20
1.9336016097
 30
0.0
 40
1.5
 41
0.0
 71
     1
 72
     1
  1
SAUF INDICATION CONTRAIRE:
  7
SLDTEXTSTYLE0
 73
     1
 44
1.0
  0
MTEXT
  5
86
330
82
100
AcDbEntity
  8
0
  6
Continuous
 62
     0
370
     0
100
AcDbMText
 10
0.0
 20
-0.5663983345
 30
0.0
 40
1.5
 41
0.0
 71
     1
 72
     1
  1
LES COTES SONT EN MILLIMETRES
  7
SLDTEXTSTYLE0
 73
     1
 44
1.0
  0
MTEXT
  5
87
330
82
100
AcDbEntity
  8
0
  6
Continuous
 62
     0
370
     0
100
AcDbMText
 10
0.0
 20
-3.0663982786
 30
0.0
 40
1.5
 41
0.0
 71
     1
 72
     1
  1
ETAT DE SURFACE:
  7
SLDTEXTSTYLE0
 73
     1
 44
1.0
  0
ENDBLK
  5
84
330
82
100
AcDbEntity
  8
0
100
AcDbBlockEnd
  0
BLOCK
  5
96
330
95
100
AcDbEntity
  8
0
100
AcDbBlockBegin
  2
_D
 70
     0
 10
0.0
 20
0.0
 30
0.0
  3
_D
  1

  0
SOLID
  5
98
330
95
100
AcDbEntity
  8
0
  6
Continuous
 62
     7
370
     0
100
AcDbTrace
 10
201.6597069678
 20
268.6230236789
 30
0.0
 11
203.6313763065
 21
265.9260275687
 31
0.0
 12
204.3508586361
 22
266.6433846467
 32
0.0
 13
204.3508586361
 23
266.6433846467
 33
0.0
  0
LINE
  5
99
330
95
100
AcDbEntity
  8
0
  6
Continuous
 62
     7
370
     0
100
AcDbLine
 10
201.6597069678
 20
268.6230236789
 30
0.0
 11
238.4335704983
 21
231.7402134118
 31
0.0
  0
LINE
  5
9A
330
95
100
AcDbEntity
  8
0
  6
Continuous
 62
     7
370
     0
100
AcDbLine
 10
238.4335704983
 20
231.7402134118
 30
0.0
 11
276.1432584703
 21
231.7402134118
 31
0.0
  0
MTEXT
  5
9B
330
95
100
AcDbEntity
  8
0
  6
Continuous
 62
     7
370
     0
100
AcDbMText
 10
240.0210704983
 20
236.251950501
 30
21.1
 40
3.5
 41
0.0
 71
     1
 72
     1
  1
%%c
  7
SLDTEXTSTYLE0
 73
     1
 44
1.0
  0
MTEXT
  5
9C
330
95
100
AcDbEntity
  8
0
  6
Continuous
 62
     7
370
     0
100
AcDbMText
 10
245.2995078966
 20
236.3054226777
 30
21.1
 40
3.5
 41
0.0
 71
     1
 72
     1
  1
19
  7
SLDTEXTSTYLE0
 73
     1
 44
1.0
  0
MTEXT
  5
9D
330
95
100
AcDbEntity
  8
0
  6
Continuous
 62
     7
370
     0
100
AcDbMText
 10
254.6279804588
 20
236.3054226777
 30
21.1
 40
3.5
 41
0.0
 71
     1
 72
     1
  1
H8
  7
SLDTEXTSTYLE0
 73
     1
 44
1.0
  0
MTEXT
  5
9E
330
95
100
AcDbEntity
  8
0
  6
Continuous
 62
     7
370
     0
100
AcDbMText
 10
261.6765909225
 20
240.7776450315
 30
21.1
 40
3.5
 41
0.0
 71
     1
 72
     1
  1
+
  7
SLDTEXTSTYLE0
 73
     1
 44
1.0
  0
MTEXT
  5
9F
330
95
100
AcDbEntity
  8
0
  6
Continuous
 62
     7
370
     0
100
AcDbMText
 10
263.7571464216
 20
236.251950501
 30
21.1
 40
3.5
 41
0.0
 71
     1
 72
     1
  1

  7
SLDTEXTSTYLE0
 73
     1
 44
1.0
  0
MTEXT
  5
A0
330
95
100
AcDbEntity
  8
0
  6
Continuous
 62
     7
370
     0
100
AcDbMText
 10
264.5057570517
 20
240.7776450315
 30
21.1
 40
3.5
 41
0.0
 71
     1
 72
     1
  1
0,033
  7
SLDTEXTSTYLE0
 73
     1
 44
1.0
  0
MTEXT
  5
A1
330
95
100
AcDbEntity
  8
0
  6
Continuous
 62
     7
370
     0
100
AcDbMText
 10
264.5057570517
 20
236.251950501
 30
21.1
 40
3.5
 41
0.0
 71
     1
 72
     1
  1
0
  7
SLDTEXTSTYLE0
 73
     1
 44
1.0
  0
ENDBLK
  5
97
330
95
100
AcDbEntity
  8
0
100
AcDbBlockEnd
  0
BLOCK
  5
A5
330
A4
100
AcDbEntity
  8
0
100
AcDbBlockBegin
  2
_D_1
 70
     0
 10
0.0
 20
0.0
 30
0.0
  3
_D_1
  1

  0
SOLID
  5
A7
330
A4
100
AcDbEntity
  8
0
  6
Continuous
 62
     7
370
     0
100
AcDbTrace
 10
191.9521358644
 20
350.8504667216
 30
0.0
 11
188.6501358644
 21
351.3584667216
 31
0.0
 12
188.6501358644
 22
350.3424667216
 32
0.0
 13
188.6501358644
 23
350.3424667216
 33
0.0
  0
SOLID
  5
A8
330
A4
100
AcDbEntity
  8
0
  6
Continuous
 62
     7
370
     0
100
AcDbTrace
 10
197.9521358644
 20
350.8504667216
 30
0.0
 11
201.2541358644
 21
350.3424667216
 31
0.0
 12
201.2541358644
 22
351.3584667216
 32
0.0
 13
201.2541358644
 23
351.3584667216
 33
0.0
  0
LINE
  5
A9
330
A4
100
AcDbEntity
  8
0
  6
Continuous
 62
     7
370
     0
100
AcDbLine
 10
191.9521358644
 20
288.6504667216
 30
0.0
 11
191.9521358644
 21
351.8504667216
 31
0.0
  0
LINE
  5
AA
330
A4
100
AcDbEntity
  8
0
  6
Continuous
 62
     7
370
     0
100
AcDbLine
 10
197.9521358644
 20
288.6504667216
 30
0.0
 11
197.9521358644
 21
351.8504667216
 31
0.0
  0
LINE
  5
AB
330
A4
100
AcDbEntity
  8
0
  6
Continuous
 62
     7
370
     0
100
AcDbLine
 10
191.9521358644
 20
350.8504667216
 30
0.0
 11
185.6021358644
 21
350.8504667216
 31
0.0
  0
LINE
  5
AC
330
A4
100
AcDbEntity
  8
0
  6
Continuous
 62
     7
370
     0
100
AcDbLine
 10
191.9521358644
 20
350.8504667216
 30
0.0
 11
197.9521358644
 21
350.8504667216
 31
0.0
  0
LINE
  5
AD
330
A4
100
AcDbEntity
  8
0
  6
Continuous
 62
     7
370
     0
100
AcDbLine
 10
197.9521358644
 20
350.8504667216
 30
0.0
 11
234.7218216894
 21
350.8504667216
 31
0.0
  0
MTEXT
  5
AE
330
A4
100
AcDbEntity
  8
0
  6
Continuous
 62
     7
370
     0
100
AcDbMText
 10
205.0787666379
 20
355.4156759875
 30
21.1
 40
3.5
 41
0.0
 71
     1
 72
     1
  1
6
  7
SLDTEXTSTYLE0
 73
     1
 44
1.0
  0
MTEXT
  5
AF
330
A4
100
AcDbEntity
  8
0
  6
Continuous
 62
     7
370
     0
100
AcDbMText
 10
211.8211277736
 20
355.4156759875
 30
21.1
 40
3.5
 41
0.0
 71
     1
 72
     1
  1
JS9
  7
SLDTEXTSTYLE0
 73
     1
 44
1.0
  0
MTEXT
  5
B0
330
A4
100
AcDbEntity
  8
0
  6
Continuous
 62
     7
370
     0
100
AcDbMText
 10
220.2551560043
 20
359.8878983413
 30
21.1
 40
3.5
 41
0.0
 71
     1
 72
     1
  1
+
  7
SLDTEXTSTYLE0
 73
     1
 44
1.0
  0
MTEXT
  5
B1
330
A4
100
AcDbEntity
  8
0
  6
Continuous
 62
     7
370
     0
100
AcDbMText
 10
220.8943920707
 20
355.3622038108
 30
21.1
 40
3.5
 41
0.0
 71
     1
 72
     1
  1
-
  7
SLDTEXTSTYLE0
 73
     1
 44
1.0
  0
MTEXT
  5
B2
330
A4
100
AcDbEntity
  8
0
  6
Continuous
 62
     7
370
     0
100
AcDbMText
 10
223.0843221335
 20
359.8878983413
 30
21.1
 40
3.5
 41
0.0
 71
     1
 72
     1
  1
0,015
  7
SLDTEXTSTYLE0
 73
     1
 44
1.0
  0
MTEXT
  5
B3
330
A4
100
AcDbEntity
  8
0
  6
Continuous
 62
     7
370
     0
100
AcDbMText
 10
223.0843221335
 20
355.3622038108
 30
21.1
 40
3.5
 41
0.0
 71
     1
 72
     1
  1
0,015
  7
SLDTEXTSTYLE0
 73
     1
 44
1.0
  0
ENDBLK
  5
A6
330
A4
100
AcDbEntity
  8
0
100
AcDbBlockEnd
  0
BLOCK
  5
B7
330
B6
100
AcDbEntity
  8
0
100
AcDbBlockBegin
  2
_D_2
 70
     0
 10
0.0
 20
0.0
 30
0.0
  3
_D_2
  1

  0
SOLID
  5
B9
330
B6
100
AcDbEntity
  8
0
  6
Continuous
 62
     7
370
     0
100
AcDbTrace
 10
270.4521358644
 20
287.6504667216
 30
0.0
 11
269.9441358644
 21
284.3484667216
 31
0.0
 12
270.9601358644
 22
284.3484667216
 32
0.0
 13
270.9601358644
 23
284.3484667216
 33
0.0
  0
SOLID
  5
BA
330
B6
100
AcDbEntity
  8
0
  6
Continuous
 62
     7
370
     0
100
AcDbTrace
 10
270.4521358644
 20
265.8504667216
 30
0.0
 11
270.9601358644
 21
269.1524667216
 31
0.0
 12
269.9441358644
 22
269.1524667216
 32
0.0
 13
269.9441358644
 23
269.1524667216
 33
0.0
  0
LINE
  5
BB
330
B6
100
AcDbEntity
  8
0
  6
Continuous
 62
     7
370
     0
100
AcDbLine
 10
198.9521358644
 20
287.6504667216
 30
0.0
 11
271.4521358644
 21
287.6504667216
 31
0.0
  0
LINE
  5
BC
330
B6
100
AcDbEntity
  8
0
  6
Continuous
 62
     7
370
     0
100
AcDbLine
 10
195.9521358644
 20
265.8504667216
 30
0.0
 11
271.4521358644
 21
265.8504667216
 31
0.0
  0
LINE
  5
BD
330
B6
100
AcDbEntity
  8
0
  6
Continuous
 62
     7
370
     0
100
AcDbLine
 10
270.4521358644
 20
287.6504667216
 30
0.0
 11
270.4521358644
 21
319.1239942634
 31
0.0
  0
LINE
  5
BE
330
B6
100
AcDbEntity
  8
0
  6
Continuous
 62
     7
370
     0
100
AcDbLine
 10
270.4521358644
 20
287.6504667216
 30
0.0
 11
270.4521358644
 21
265.8504667216
 31
0.0
  0
MTEXT
  5
BF
330
B6
100
AcDbEntity
  8
0
  6
Continuous
 62
     7
370
     0
100
AcDbMText
 10
265.8869265985
 20
296.6413569474
 30
21.1
 40
3.5
 41
0.0
 71
     1
 72
     1
  1
21,8
  7
SLDTEXTSTYLE0
 11
-7.044195017643634E-15
 21
1.0
 31
0.0
 73
     1
 44
1.0
  0
MTEXT
  5
C0
330
B6
100
AcDbEntity
  8
0
  6
Continuous
 62
     7
370
     0
100
AcDbMText
 10
265.8869265985
 20
309.8489957177
 30
21.1
 40
3.5
 41
0.0
 71
     1
 72
     1
  1

  7
SLDTEXTSTYLE0
 11
-7.044195017643634E-15
 21
1.0
 31
0.0
 73
     1
 44
1.0
  0
MTEXT
  5
C1
330
B6
100
AcDbEntity
  8
0
  6
Continuous
 62
     7
370
     0
100
AcDbMText
 10
261.4147042447
 20
309.8295514309
 30
21.1
 40
3.5
 41
0.0
 71
     1
 72
     1
  1
+
  7
SLDTEXTSTYLE0
 11
-7.044195017643634E-15
 21
1.0
 31
0.0
 73
     1
 44
1.0
  0
MTEXT
  5
C2
330
B6
100
AcDbEntity
  8
0
  6
Continuous
 62
     7
370
     0
100
AcDbMText
 10
265.9403987752
 20
311.91010693
 30
21.1
 40
3.5
 41
0.0
 71
     1
 72
     1
  1

  7
SLDTEXTSTYLE0
 11
-7.044195017643634E-15
 21
1.0
 31
0.0
 73
     1
 44
1.0
  0
MTEXT
  5
C3
330
B6
100
AcDbEntity
  8
0
  6
Continuous
 62
     7
370
     0
100
AcDbMText
 10
261.4147042447
 20
312.6587175602
 30
21.1
 40
3.5
 41
0.0
 71
     1
 72
     1
  1
0,1
  7
SLDTEXTSTYLE0
 11
-7.044195017643634E-15
 21
1.0
 31
0.0
 73
     1
 44
1.0
  0
MTEXT
  5
C4
330
B6
100
AcDbEntity
  8
0
  6
Continuous
 62
     7
370
     0
100
AcDbMText
 10
265.9403987752
 20
312.6587175602
 30
21.1
 40
3.5
 41
0.0
 71
     1
 72
     1
  1
0
  7
SLDTEXTSTYLE0
 11
-7.044195017643634E-15
 21
1.0
 31
0.0
 73
     1
 44
1.0
  0
ENDBLK
  5
B8
330
B6
100
AcDbEntity
  8
0
100
AcDbBlockEnd
  0
BLOCK
  5
C6
330
C5
100
AcDbEntity
  8
0
100
AcDbBlockBegin
  2
SW_CENTERMARKSYMBOL_0
 70
     0
 10
0.0
 20
0.0
 30
0.0
  3
SW_CENTERMARKSYMBOL_0
  1

  0
LINE
  5
C8
330
C5
100
AcDbEntity
  8
0
  6
Continuous
 62
     0
370
     0
100
AcDbLine
 10
0.0
 20
0.0
 30
0.0
 11
0.0
 21
2.5
 31
0.0
  0
LINE
  5
C9
330
C5
100
AcDbEntity
  8
0
  6
Continuous
 62
     0
370
     0
100
AcDbLine
 10
0.0
 20
0.0
 30
0.0
 11
-2.5
 21
0.0
 31
0.0
  0
LINE
  5
CA
330
C5
100
AcDbEntity
  8
0
  6
Continuous
 62
     0
370
     0
100
AcDbLine
 10
0.0
 20
0.0
 30
0.0
 11
0.0
 21
-2.5
 31
0.0
  0
LINE
  5
CB
330
C5
100
AcDbEntity
  8
0
  6
Continuous
 62
     0
370
     0
100
AcDbLine
 10
0.0
 20
0.0
 30
0.0
 11
2.5
 21
0.0
 31
0.0
  0
LINE
  5
CC
330
C5
100
AcDbEntity
  8
0
  6
Continuous
 62
     0
370
     0
100
AcDbLine
 10
0.0
 20
5.0
 30
0.0
 11
0.0
 21
50.0
 31
0.0
  0
LINE
  5
CD
330
C5
100
AcDbEntity
  8
0
  6
Continuous
 62
     0
370
     0
100
AcDbLine
 10
-5.0
 20
0.0
 30
0.0
 11
-50.0
 21
0.0
 31
0.0
  0
LINE
  5
CE
330
C5
100
AcDbEntity
  8
0
  6
Continuous
 62
     0
370
     0
100
AcDbLine
 10
0.0
 20
-5.0
 30
0.0
 11
0.0
 21
-50.0
 31
0.0
  0
LINE
  5
CF
330
C5
100
AcDbEntity
  8
0
  6
Continuous
 62
     0
370
     0
100
AcDbLine
 10
5.0
 20
0.0
 30
0.0
 11
50.0
 21
0.0
 31
0.0
  0
ENDBLK
  5
C7
330
C5
100
AcDbEntity
  8
0
100
AcDbBlockEnd
  0
BLOCK
  5
D2
330
D1
100
AcDbEntity
  8
0
100
AcDbBlockBegin
  2
SW_CENTERMARKSYMBOL_1
 70
     0
 10
0.0
 20
0.0
 30
0.0
  3
SW_CENTERMARKSYMBOL_1
  1

  0
LINE
  5
D4
330
D1
100
AcDbEntity
  8
0
  6
Continuous
 62
     0
370
     0
100
AcDbLine
 10
0.0
 20
0.0
 30
0.0
 11
0.0
 21
2.5
 31
0.0
  0
LINE
  5
D5
330
D1
100
AcDbEntity
  8
0
  6
Continuous
 62
     0
370
     0
100
AcDbLine
 10
0.0
 20
0.0
 30
0.0
 11
-2.5
 21
0.0
 31
0.0
  0
LINE
  5
D6
330
D1
100
AcDbEntity
  8
0
  6
Continuous
 62
     0
370
     0
100
AcDbLine
 10
0.0
 20
0.0
 30
0.0
 11
0.0
 21
-2.5
 31
0.0
  0
LINE
  5
D7
330
D1
100
AcDbEntity
  8
0
  6
Continuous
 62
     0
370
     0
100
AcDbLine
 10
0.0
 20
0.0
 30
0.0
 11
2.5
 21
0.0
 31
0.0
  0
LINE
  5
D8
330
D1
100
AcDbEntity
  8
0
  6
Continuous
 62
     0
370
     0
100
AcDbLine
 10
0.0
 20
5.0
 30
0.0
 11
0.0
 21
50.0
 31
0.0
  0
LINE
  5
D9
330
D1
100
AcDbEntity
  8
0
  6
Continuous
 62
     0
370
     0
100
AcDbLine
 10
-5.0
 20
0.0
 30
0.0
 11
-50.0
 21
0.0
 31
0.0
  0
LINE
  5
DA
330
D1
100
AcDbEntity
  8
0
  6
Continuous
 62
     0
370
     0
100
AcDbLine
 10
0.0
 20
-5.0
 30
0.0
 11
0.0
 21
-50.0
 31
0.0
  0
LINE
  5
DB
330
D1
100
AcDbEntity
  8
0
  6
Continuous
 62
     0
370
     0
100
AcDbLine
 10
5.0
 20
0.0
 30
0.0
 11
50.0
 21
0.0
 31
0.0
  0
ENDBLK
  5
D3
330
D1
100
AcDbEntity
  8
0
100
AcDbBlockEnd
  0
BLOCK
  5
E5
330
E4
100
AcDbEntity
  8
0
100
AcDbBlockBegin
  2
SW_SFSYMBOL_0
 70
     0
 10
0.0
 20
0.0
 30
0.0
  3
SW_SFSYMBOL_0
  1

  0
LINE
  5
E7
330
E4
100
AcDbEntity
  8
0
  6
Continuous
 62
     0
370
     0
100
AcDbLine
 10
-1.134492162
 20
-3.5162559596
 30
0.0
 11
0.2045866473
 21
-0.2711031341
 31
0.0
  0
LINE
  5
E8
330
E4
100
AcDbEntity
  8
0
  6
Continuous
 62
     0
370
     0
100
AcDbLine
 10
-1.134492162
 20
-3.5162559596
 30
0.0
 11
5.841491562
 21
-2.7211165036
 31
0.0
  0
MTEXT
  5
E9
330
E4
100
AcDbEntity
  8
0
  6
Continuous
 62
     0
370
     0
100
AcDbMText
 10
2.1779562758
 20
1.6435828241
 30
0.0
 40
2.1166666667
 41
0.0
 71
     1
 72
     1
  1
3.2
  7
SLDTEXTSTYLE0
 11
0.6023700682835982
 21
-0.7982169509826343
 31
0.0
 73
     1
 44
1.0
  0
ENDBLK
  5
E6
330
E4
100
AcDbEntity
  8
0
100
AcDbBlockEnd
  0
BLOCK
  5
10C
330
10B
100
AcDbEntity
  8
0
100
AcDbBlockBegin
  2
_D_3
 70
     0
 10
0.0
 20
0.0
 30
0.0
  3
_D_3
  1

  0
SOLID
  5
10E
330
10B
100
AcDbEntity
  8
0
  6
Continuous
 62
     7
370
     0
100
AcDbTrace
 10
412.1778218091
 20
338.8504667216
 30
0.0
 11
408.8758218091
 21
339.3584667216
 31
0.0
 12
408.8758218091
 22
338.3424667216
 32
0.0
 13
408.8758218091
 23
338.3424667216
 33
0.0
  0
SOLID
  5
10F
330
10B
100
AcDbEntity
  8
0
  6
Continuous
 62
     7
370
     0
100
AcDbTrace
 10
414.1778218091
 20
338.8504667216
 30
0.0
 11
417.4798218091
 21
338.3424667216
 31
0.0
 12
417.4798218091
 22
339.3584667216
 32
0.0
 13
417.4798218091
 23
339.3584667216
 33
0.0
  0
LINE
  5
110
330
10B
100
AcDbEntity
  8
0
  6
Continuous
 62
     7
370
     0
100
AcDbLine
 10
412.1778218091
 20
323.8504667216
 30
0.0
 11
412.1778218091
 21
339.8504667216
 31
0.0
  0
LINE
  5
111
330
10B
100
AcDbEntity
  8
0
  6
Continuous
 62
     7
370
     0
100
AcDbLine
 10
414.1778218091
 20
323.8504667216
 30
0.0
 11
414.1778218091
 21
339.8504667216
 31
0.0
  0
LINE
  5
112
330
10B
100
AcDbEntity
  8
0
  6
Continuous
 62
     7
370
     0
100
AcDbLine
 10
412.1778218091
 20
338.8504667216
 30
0.0
 11
400.4628912413
 21
338.8504667216
 31
0.0
  0
LINE
  5
113
330
10B
100
AcDbEntity
  8
0
  6
Continuous
 62
     7
370
     0
100
AcDbLine
 10
412.1778218091
 20
338.8504667216
 30
0.0
 11
414.1778218091
 21
338.8504667216
 31
0.0
  0
LINE
  5
114
330
10B
100
AcDbEntity
  8
0
  6
Continuous
 62
     7
370
     0
100
AcDbLine
 10
414.1778218091
 20
338.8504667216
 30
0.0
 11
420.5278218091
 21
338.8504667216
 31
0.0
  0
MTEXT
  5
115
330
10B
100
AcDbEntity
  8
0
  6
Continuous
 62
     7
370
     0
100
AcDbMText
 10
400.4628912413
 20
343.3622036362
 30
23.85
 40
3.5
 41
0.0
 71
     1
 72
     1
  1
2
  7
SLDTEXTSTYLE0
 73
     1
 44
1.0
  0
ENDBLK
  5
10D
330
10B
100
AcDbEntity
  8
0
100
AcDbBlockEnd
  0
BLOCK
  5
119
330
118
100
AcDbEntity
  8
0
100
AcDbBlockBegin
  2
_D_4
 70
     0
 10
0.0
 20
0.0
 30
0.0
  3
_D_4
  1

  0
SOLID
  5
11B
330
118
100
AcDbEntity
  8
0
  6
Continuous
 62
     7
370
     0
100
AcDbTrace
 10
414.1778218091
 20
330.9818034223
 30
0.0
 11
417.4798218091
 21
330.4738034223
 31
0.0
 12
417.4798218091
 22
331.4898034223
 32
0.0
 13
417.4798218091
 23
331.4898034223
 33
0.0
  0
SOLID
  5
11C
330
118
100
AcDbEntity
  8
0
  6
Continuous
 62
     7
370
     0
100
AcDbTrace
 10
434.1778218091
 20
330.9818034223
 30
0.0
 11
430.8758218091
 21
331.4898034223
 31
0.0
 12
430.8758218091
 22
330.4738034223
 32
0.0
 13
430.8758218091
 23
330.4738034223
 33
0.0
  0
LINE
  5
11D
330
118
100
AcDbEntity
  8
0
  6
Continuous
 62
     7
370
     0
100
AcDbLine
 10
414.1778218091
 20
323.8504667216
 30
0.0
 11
414.1778218091
 21
331.9818034223
 31
0.0
  0
LINE
  5
11E
330
118
100
AcDbEntity
  8
0
  6
Continuous
 62
     7
370
     0
100
AcDbLine
 10
434.1778218091
 20
323.8504667216
 30
0.0
 11
434.1778218091
 21
331.9818034223
 31
0.0
  0
LINE
  5
11F
330
118
100
AcDbEntity
  8
0
  6
Continuous
 62
     7
370
     0
100
AcDbLine
 10
414.1778218091
 20
330.9818034223
 30
0.0
 11
434.1778218091
 21
330.9818034223
 31
0.0
  0
MTEXT
  5
120
330
118
100
AcDbEntity
  8
0
  6
Continuous
 62
     7
370
     0
100
AcDbMText
 10
419.7979911122
 20
335.4935403369
 30
23.85
 40
3.5
 41
0.0
 71
     1
 72
     1
  1
20
  7
SLDTEXTSTYLE0
 73
     1
 44
1.0
  0
ENDBLK
  5
11A
330
118
100
AcDbEntity
  8
0
100
AcDbBlockEnd
  0
BLOCK
  5
123
330
122
100
AcDbEntity
  8
0
100
AcDbBlockBegin
  2
_D_5
 70
     0
 10
0.0
 20
0.0
 30
0.0
  3
_D_5
  1

  0
SOLID
  5
125
330
122
100
AcDbEntity
  8
0
  6
Continuous
 62
     7
370
     0
100
AcDbTrace
 10
436.1778218091
 20
362.8504667216
 30
0.0
 11
432.8758218091
 21
363.3584667216
 31
0.0
 12
432.8758218091
 22
362.3424667216
 32
0.0
 13
432.8758218091
 23
362.3424667216
 33
0.0
  0
SOLID
  5
126
330
122
100
AcDbEntity
  8
0
  6
Continuous
 62
     7
370
     0
100
AcDbTrace
 10
394.1778218091
 20
362.8504667216
 30
0.0
 11
397.4798218091
 21
362.3424667216
 31
0.0
 12
397.4798218091
 22
363.3584667216
 32
0.0
 13
397.4798218091
 23
363.3584667216
 33
0.0
  0
LINE
  5
127
330
122
100
AcDbEntity
  8
0
  6
Continuous
 62
     7
370
     0
100
AcDbLine
 10
436.1778218091
 20
323.8504667216
 30
0.0
 11
436.1778218091
 21
363.8504667216
 31
0.0
  0
LINE
  5
128
330
122
100
AcDbEntity
  8
0
  6
Continuous
 62
     7
370
     0
100
AcDbLine
 10
394.1778218091
 20
293.8504667216
 30
0.0
 11
394.1778218091
 21
363.8504667216
 31
0.0
  0
LINE
  5
129
330
122
100
AcDbEntity
  8
0
  6
Continuous
 62
     7
370
     0
100
AcDbLine
 10
436.1778218091
 20
362.8504667216
 30
0.0
 11
394.1778218091
 21
362.8504667216
 31
0.0
  0
MTEXT
  5
12A
330
122
100
AcDbEntity
  8
0
  6
Continuous
 62
     7
370
     0
100
AcDbMText
 10
411.7957207239
 20
367.3622036362
 30
23.85
 40
3.5
 41
0.0
 71
     1
 72
     1
  1
42
  7
SLDTEXTSTYLE0
 73
     1
 44
1.0
  0
ENDBLK
  5
124
330
122
100
AcDbEntity
  8
0
100
AcDbBlockEnd
  0
BLOCK
  5
12D
330
12C
100
AcDbEntity
  8
0
100
AcDbBlockBegin
  2
_D_6
 70
     0
 10
0.0
 20
0.0
 30
0.0
  3
_D_6
  1

  0
SOLID
  5
12F
330
12C
100
AcDbEntity
  8
0
  6
Continuous
 62
     7
370
     0
100
AcDbTrace
 10
464.1778218091
 20
320.3504667216
 30
0.0
 11
463.6698218091
 21
317.0484667216
 31
0.0
 12
464.6858218091
 22
317.0484667216
 32
0.0
 13
464.6858218091
 23
317.0484667216
 33
0.0
  0
SOLID
  5
130
330
12C
100
AcDbEntity
  8
0
  6
Continuous
 62
     7
370
     0
100
AcDbTrace
 10
464.1778218091
 20
230.3504667216
 30
0.0
 11
464.6858218091
 21
233.6524667216
 31
0.0
 12
463.6698218091
 22
233.6524667216
 32
0.0
 13
463.6698218091
 23
233.6524667216
 33
0.0
  0
LINE
  5
131
330
12C
100
AcDbEntity
  8
0
  6
Continuous
 62
     7
370
     0
100
AcDbLine
 10
435.1778218091
 20
320.3504667216
 30
0.0
 11
465.1778218091
 21
320.3504667216
 31
0.0
  0
LINE
  5
132
330
12C
100
AcDbEntity
  8
0
  6
Continuous
 62
     7
370
     0
100
AcDbLine
 10
435.1778218091
 20
230.3504667216
 30
0.0
 11
465.1778218091
 21
230.3504667216
 31
0.0
  0
LINE
  5
133
330
12C
100
AcDbEntity
  8
0
  6
Continuous
 62
     7
370
     0
100
AcDbLine
 10
464.1778218091
 20
320.3504667216
 30
0.0
 11
464.1778218091
 21
230.3504667216
 31
0.0
  0
MTEXT
  5
134
330
12C
100
AcDbEntity
  8
0
  6
Continuous
 62
     7
370
     0
100
AcDbMText
 10
459.6660847199
 20
268.7032617414
 30
23.85
 40
3.5
 41
0.0
 71
     1
 72
     1
  1
%%c
  7
SLDTEXTSTYLE0
 11
-7.044195017643634E-15
 21
1.0
 31
0.0
 73
     1
 44
1.0
  0
MTEXT
  5
135
330
12C
100
AcDbEntity
  8
0
  6
Continuous
 62
     7
370
     0
100
AcDbMText
 10
459.6126125433
 20
273.9816991397
 30
23.85
 40
3.5
 41
0.0
 71
     1
 72
     1
  1
90
  7
SLDTEXTSTYLE0
 11
-7.044195017643634E-15
 21
1.0
 31
0.0
 73
     1
 44
1.0
  0
ENDBLK
  5
12E
330
12C
100
AcDbEntity
  8
0
100
AcDbBlockEnd
  0
BLOCK
  5
138
330
137
100
AcDbEntity
  8
0
100
AcDbBlockBegin
  2
_D_7
 70
     0
 10
0.0
 20
0.0
 30
0.0
  3
_D_7
  1

  0
SOLID
  5
13A
330
137
100
AcDbEntity
  8
0
  6
Continuous
 62
     7
370
     0
100
AcDbTrace
 10
488.1778218091
 20
322.8504667216
 30
0.0
 11
487.6698218091
 21
319.5484667216
 31
0.0
 12
488.6858218091
 22
319.5484667216
 32
0.0
 13
488.6858218091
 23
319.5484667216
 33
0.0
  0
SOLID
  5
13B
330
137
100
AcDbEntity
  8
0
  6
Continuous
 62
     7
370
     0
100
AcDbTrace
 10
488.1778218091
 20
227.8504667216
 30
0.0
 11
488.6858218091
 21
231.1524667216
 31
0.0
 12
487.6698218091
 22
231.1524667216
 32
0.0
 13
487.6698218091
 23
231.1524667216
 33
0.0
  0
LINE
  5
13C
330
137
100
AcDbEntity
  8
0
  6
Continuous
 62
     7
370
     0
100
AcDbLine
 10
437.1778218091
 20
322.8504667216
 30
0.0
 11
489.1778218091
 21
322.8504667216
 31
0.0
  0
LINE
  5
13D
330
137
100
AcDbEntity
  8
0
  6
Continuous
 62
     7
370
     0
100
AcDbLine
 10
437.1778218091
 20
227.8504667216
 30
0.0
 11
489.1778218091
 21
227.8504667216
 31
0.0
  0
LINE
  5
13E
330
137
100
AcDbEntity
  8
0
  6
Continuous
 62
     7
370
     0
100
AcDbLine
 10
488.1778218091
 20
322.8504667216
 30
0.0
 11
488.1778218091
 21
227.8504667216
 31
0.0
  0
MTEXT
  5
13F
330
137
100
AcDbEntity
  8
0
  6
Continuous
 62
     7
370
     0
100
AcDbMText
 10
483.6660847199
 20
268.7032617414
 30
23.85
 40
3.5
 41
0.0
 71
     1
 72
     1
  1
%%c
  7
SLDTEXTSTYLE0
 11
-7.044195017643634E-15
 21
1.0
 31
0.0
 73
     1
 44
1.0
  0
MTEXT
  5
140
330
137
100
AcDbEntity
  8
0
  6
Continuous
 62
     7
370
     0
100
AcDbMText
 10
483.6126125433
 20
273.9816991397
 30
23.85
 40
3.5
 41
0.0
 71
     1
 72
     1
  1
95
  7
SLDTEXTSTYLE0
 11
-7.044195017643634E-15
 21
1.0
 31
0.0
 73
     1
 44
1.0
  0
ENDBLK
  5
139
330
137
100
AcDbEntity
  8
0
100
AcDbBlockEnd
  0
BLOCK
  5
143
330
142
100
AcDbEntity
  8
0
100
AcDbBlockBegin
  2
_D_8
 70
     0
 10
0.0
 20
0.0
 30
0.0
  3
_D_8
  1

  0
SOLID
  5
145
330
142
100
AcDbEntity
  8
0
  6
Continuous
 62
     7
370
     0
100
AcDbTrace
 10
395.1778218091
 20
279.2860599769
 30
0.0
 11
398.4798218091
 21
278.7780599769
 31
0.0
 12
398.4798218091
 22
279.7940599769
 32
0.0
 13
398.4798218091
 23
279.7940599769
 33
0.0
  0
SOLID
  5
146
330
142
100
AcDbEntity
  8
0
  6
Continuous
 62
     7
370
     0
100
AcDbTrace
 10
394.1778218091
 20
279.2860599769
 30
0.0
 11
390.8758218091
 21
279.7940599769
 31
0.0
 12
390.8758218091
 22
278.7780599769
 32
0.0
 13
390.8758218091
 23
278.7780599769
 33
0.0
  0
LINE
  5
147
330
142
100
AcDbEntity
  8
0
  6
Continuous
 62
     7
370
     0
100
AcDbLine
 10
395.1778218091
 20
279.2860599769
 30
0.0
 11
401.5278218091
 21
279.2860599769
 31
0.0
  0
LINE
  5
148
330
142
100
AcDbEntity
  8
0
  6
Continuous
 62
     7
370
     0
100
AcDbLine
 10
395.1778218091
 20
279.2860599769
 30
0.0
 11
394.1778218091
 21
279.2860599769
 31
0.0
  0
LINE
  5
149
330
142
100
AcDbEntity
  8
0
  6
Continuous
 62
     7
370
     0
100
AcDbLine
 10
394.1778218091
 20
279.2860599769
 30
0.0
 11
383.3985892657
 21
279.2860599769
 31
0.0
  0
MTEXT
  5
14A
330
142
100
AcDbEntity
  8
0
  6
Continuous
 62
     7
370
     0
100
AcDbMText
 10
383.3985892657
 20
283.7977968914
 30
23.85
 40
3.5
 41
0.0
 71
     1
 72
     1
  1
1
  7
SLDTEXTSTYLE0
 73
     1
 44
1.0
  0
ENDBLK
  5
144
330
142
100
AcDbEntity
  8
0
100
AcDbBlockEnd
  0
BLOCK
  5
14E
330
14D
100
AcDbEntity
  8
0
100
AcDbBlockBegin
  2
_D_9
 70
     0
 10
0.0
 20
0.0
 30
0.0
  3
_D_9
  1

  0
ARC
  5
150
330
14D
100
AcDbEntity
  8
0
  6
Continuous
 62
     7
370
     0
100
AcDbCircle
 10
395.1778218091
 20
265.8504667216
 30
0.0
 40
14.14095160092165
100
AcDbArc
 50
180.0
 51
210.0
  0
ARC
  5
151
330
14D
100
AcDbEntity
  8
0
  6
Continuous
 62
     7
370
     0
100
AcDbCircle
 10
395.1778218091
 20
265.8504667216
 30
0.0
 40
14.14095160092165
100
AcDbArc
 50
168.1840496324
 51
180.0
  0
SOLID
  5
152
330
14D
100
AcDbEntity
  8
0
  6
Continuous
 62
     7
370
     0
100
AcDbTrace
 10
381.0368702082
 20
265.8504667216
 30
0.0
 11
380.9101108013
 21
262.512023963
 31
0.0
 12
381.9194350713
 22
262.6283017255
 32
0.0
 13
381.9194350713
 23
262.6283017255
 33
0.0
  0
SOLID
  5
153
330
14D
100
AcDbEntity
  8
0
  6
Continuous
 62
     7
370
     0
100
AcDbTrace
 10
382.9313984891
 20
258.7799909212
 30
0.0
 11
382.0846395829
 21
262.0117500946
 31
0.0
 12
381.1524002432
 22
261.6077874558
 32
0.0
 13
381.1524002432
 23
261.6077874558
 33
0.0
  0
LINE
  5
154
330
14D
100
AcDbEntity
  8
0
  6
Continuous
 62
     7
370
     0
100
AcDbLine
 10
394.1778218091
 20
265.8504667216
 30
0.0
 11
380.0368702082
 21
265.8504667216
 31
0.0
  0
LINE
  5
155
330
14D
100
AcDbEntity
  8
0
  6
Continuous
 62
     7
370
     0
100
AcDbLine
 10
393.3117964054
 20
264.7731164524
 30
0.0
 11
382.0653730853
 21
258.2799909212
 31
0.0
  0
MTEXT
  5
156
330
14D
100
AcDbEntity
  8
0
  6
Continuous
 62
     7
370
     0
100
AcDbMText
 10
377.2836992154
 20
273.2578257532
 30
23.85
 40
3.5
 41
0.0
 71
     1
 72
     1
  1
30°
  7
SLDTEXTSTYLE0
 73
     1
 44
1.0
  0
ENDBLK
  5
14F
330
14D
100
AcDbEntity
  8
0
100
AcDbBlockEnd
  0
BLOCK
  5
159
330
158
100
AcDbEntity
  8
0
100
AcDbBlockBegin
  2
_D_10
 70
     0
 10
0.0
 20
0.0
 30
0.0
  3
_D_10
  1

  0
SOLID
  5
15B
330
158
100
AcDbEntity
  8
0
  6
Continuous
 62
     7
370
     0
100
AcDbTrace
 10
356.1897798687
 20
292.8504667216
 30
0.0
 11
355.6817798687
 21
289.5484667216
 31
0.0
 12
356.6977798687
 22
289.5484667216
 32
0.0
 13
356.6977798687
 23
289.5484667216
 33
0.0
  0
SOLID
  5
15C
330
158
100
AcDbEntity
  8
0
  6
Continuous
 62
     7
370
     0
100
AcDbTrace
 10
356.1897798687
 20
257.8504667216
 30
0.0
 11
356.6977798687
 21
261.1524667216
 31
0.0
 12
355.6817798687
 22
261.1524667216
 32
0.0
 13
355.6817798687
 23
261.1524667216
 33
0.0
  0
LINE
  5
15D
330
158
100
AcDbEntity
  8
0
  6
Continuous
 62
     7
370
     0
100
AcDbLine
 10
393.1778218091
 20
292.8504667216
 30
0.0
 11
355.1897798687
 21
292.8504667216
 31
0.0
  0
LINE
  5
15E
330
158
100
AcDbEntity
  8
0
  6
Continuous
 62
     7
370
     0
100
AcDbLine
 10
393.1778218091
 20
257.8504667216
 30
0.0
 11
355.1897798687
 21
257.8504667216
 31
0.0
  0
LINE
  5
15F
330
158
100
AcDbEntity
  8
0
  6
Continuous
 62
     7
370
     0
100
AcDbLine
 10
356.1897798687
 20
292.8504667216
 30
0.0
 11
356.1897798687
 21
257.8504667216
 31
0.0
  0
MTEXT
  5
160
330
158
100
AcDbEntity
  8
0
  6
Continuous
 62
     7
370
     0
100
AcDbMText
 10
351.6780427795
 20
268.7032617414
 30
23.85
 40
3.5
 41
0.0
 71
     1
 72
     1
  1
%%c
  7
SLDTEXTSTYLE0
 11
-7.044195017643634E-15
 21
1.0
 31
0.0
 73
     1
 44
1.0
  0
MTEXT
  5
161
330
158
100
AcDbEntity
  8
0
  6
Continuous
 62
     7
370
     0
100
AcDbMText
 10
351.6245706029
 20
273.9816991397
 30
23.85
 40
3.5
 41
0.0
 71
     1
 72
     1
  1
35
  7
SLDTEXTSTYLE0
 11
-7.044195017643634E-15
 21
1.0
 31
0.0
 73
     1
 44
1.0
  0
ENDBLK
  5
15A
330
158
100
AcDbEntity
  8
0
100
AcDbBlockEnd
  0
BLOCK
  5
164
330
163
100
AcDbEntity
  8
0
100
AcDbBlockBegin
  2
_D_11
 70
     0
 10
0.0
 20
0.0
 30
0.0
  3
_D_11
  1

  0
SOLID
  5
166
330
163
100
AcDbEntity
  8
0
  6
Continuous
 62
     7
370
     0
100
AcDbTrace
 10
394.1778218091
 20
350.8504667216
 30
0.0
 11
397.4798218091
 21
350.3424667216
 31
0.0
 12
397.4798218091
 22
351.3584667216
 32
0.0
 13
397.4798218091
 23
351.3584667216
 33
0.0
  0
SOLID
  5
167
330
163
100
AcDbEntity
  8
0
  6
Continuous
 62
     7
370
     0
100
AcDbTrace
 10
412.1778218091
 20
350.8504667216
 30
0.0
 11
408.8758218091
 21
351.3584667216
 31
0.0
 12
408.8758218091
 22
350.3424667216
 32
0.0
 13
408.8758218091
 23
350.3424667216
 33
0.0
  0
LINE
  5
168
330
163
100
AcDbEntity
  8
0
  6
Continuous
 62
     7
370
     0
100
AcDbLine
 10
394.1778218091
 20
293.8504667216
 30
0.0
 11
394.1778218091
 21
351.8504667216
 31
0.0
  0
LINE
  5
169
330
163
100
AcDbEntity
  8
0
  6
Continuous
 62
     7
370
     0
100
AcDbLine
 10
412.1778218091
 20
323.8504667216
 30
0.0
 11
412.1778218091
 21
351.8504667216
 31
0.0
  0
LINE
  5
16A
330
163
100
AcDbEntity
  8
0
  6
Continuous
 62
     7
370
     0
100
AcDbLine
 10
394.1778218091
 20
350.8504667216
 30
0.0
 11
412.1778218091
 21
350.8504667216
 31
0.0
  0
MTEXT
  5
16B
330
163
100
AcDbEntity
  8
0
  6
Continuous
 62
     7
370
     0
100
AcDbMText
 10
399.1698355281
 20
355.3622036362
 30
23.85
 40
3.5
 41
0.0
 71
     1
 72
     1
  1
18
  7
SLDTEXTSTYLE0
 73
     1
 44
1.0
  0
ENDBLK
  5
165
330
163
100
AcDbEntity
  8
0
100
AcDbBlockEnd
  0
BLOCK
  5
16D
330
16C
100
AcDbEntity
  8
0
100
AcDbBlockBegin
  2
SW_NOTE_3
 70
     0
 10
0.0
 20
0.0
 30
0.0
  3
SW_NOTE_3
  1

  0
MTEXT
  5
16F
330
16C
100
AcDbEntity
  8
0
  6
Continuous
 62
     0
370
     0
100
AcDbMText
 10
8.0390625
 20
4.5117370892
 30
0.0
 40
3.5
 41
0.0
 71
     2
 72
     1
  1
COUPE
  7
SLDTEXTSTYLE0
 73
     1
 44
1.0
  0
MTEXT
  5
170
330
16C
100
AcDbEntity
  8
0
  6
Continuous
 62
     0
370
     0
100
AcDbMText
 10
21.4180560559
 20
4.5117370892
 30
0.0
 40
3.5
 41
0.0
 71
     2
 72
     1
  1
A-A
  7
SLDTEXTSTYLE0
 73
     1
 44
1.0
  0
ENDBLK
  5
16E
330
16C
100
AcDbEntity
  8
0
100
AcDbBlockEnd
  0
BLOCK
  5
173
330
172
100
AcDbEntity
  8
0
100
AcDbBlockBegin
  2
SW_SFSYMBOL_1
 70
     0
 10
0.0
 20
0.0
 30
0.0
  3
SW_SFSYMBOL_1
  1

  0
ARC
  5
175
330
172
100
AcDbEntity
  8
0
  6
Continuous
 62
     0
370
     0
100
AcDbCircle
 10
0.0
 20
0.0
 30
0.0
 40
1.898871770288896
100
AcDbArc
 50
31.2184027643
 51
172.5868042913
  0
ARC
  5
176
330
172
100
AcDbEntity
  8
0
  6
Continuous
 62
     0
370
     0
100
AcDbCircle
 10
3.122
 20
2.1
 30
0.0
 40
1.936420667107237
100
AcDbArc
 50
216.656108416
 51
353.7741709356
  0
ENDBLK
  5
174
330
172
100
AcDbEntity
  8
0
100
AcDbBlockEnd
  0
ENDSEC
  0
SECTION
  2
ENTITIES
  0
LINE
  5
45
330
1F
100
AcDbEntity
  8
0
  6
Continuous
 62
     7
370
    40
100
AcDbLine
 10
25.0788435654
 20
10.2147801566
 30
0.0
 11
25.0788435654
 21
410.2147801566
 31
0.0
  0
LINE
  5
46
330
1F
100
AcDbEntity
  8
0
  6
Continuous
 62
     7
370
    40
100
AcDbLine
 10
0.0788435654
 20
0.2147801566
 30
0.0
 11
594.0788435654
 21
0.2147801566
 31
0.0
  0
LINE
  5
47
330
1F
100
AcDbEntity
  8
0
  6
Continuous
 62
     7
370
    40
100
AcDbLine
 10
0.0788435654
 20
0.2147801566
 30
0.0
 11
0.0788435654
 21
420.2147801566
 31
0.0
  0
LINE
  5
48
330
1F
100
AcDbEntity
  8
0
  6
Continuous
 62
     7
370
    40
100
AcDbLine
 10
0.0788435654
 20
420.2147801566
 30
0.0
 11
594.0788435654
 21
420.2147801566
 31
0.0
  0
LINE
  5
49
330
1F
100
AcDbEntity
  8
0
  6
Continuous
 62
     7
370
    40
100
AcDbLine
 10
594.0788435654
 20
0.2147801566
 30
0.0
 11
594.0788435654
 21
420.2147801566
 31
0.0
  0
LINE
  5
4A
330
1F
100
AcDbEntity
  8
0
  6
Continuous
 62
     7
370
    40
100
AcDbLine
 10
25.0788435654
 20
410.2147801566
 30
0.0
 11
584.0788435654
 21
410.2147801566
 31
0.0
  0
LINE
  5
4B
330
1F
100
AcDbEntity
  8
0
  6
Continuous
 62
     7
370
    40
100
AcDbLine
 10
25.0788435654
 20
10.2147801566
 30
0.0
 11
584.0788435654
 21
10.2147801566
 31
0.0
  0
LINE
  5
4C
330
1F
100
AcDbEntity
  8
0
  6
Continuous
 62
     7
370
    40
100
AcDbLine
 10
584.0788435654
 20
410.2147801566
 30
0.0
 11
584.0788435654
 21
10.2147801566
 31
0.0
  0
LINE
  5
4D
330
1F
100
AcDbEntity
  8
0
  6
Continuous
 62
     7
370
    40
100
AcDbLine
 10
396.8788435654
 20
14.4647801566
 30
0.0
 11
584.0788435654
 21
14.4647801566
 31
0.0
  0
LINE
  5
4E
330
1F
100
AcDbEntity
  8
0
  6
Continuous
 62
     7
370
    40
100
AcDbLine
 10
584.0788435654
 20
48.4647801566
 30
0.0
 11
396.8788435654
 21
48.4647801566
 31
0.0
  0
LINE
  5
4F
330
1F
100
AcDbEntity
  8
0
  6
Continuous
 62
     7
370
    40
100
AcDbLine
 10
396.8788435654
 20
65.4647801566
 30
0.0
 11
584.0788435654
 21
65.4647801566
 31
0.0
  0
LINE
  5
50
330
1F
100
AcDbEntity
  8
0
  6
Continuous
 62
     7
370
    40
100
AcDbLine
 10
423.8697959991
 20
48.4647801566
 30
0.0
 11
423.8697959991
 21
10.2147801566
 31
0.0
  0
LINE
  5
51
330
1F
100
AcDbEntity
  8
0
  6
Continuous
 62
     7
370
    40
100
AcDbLine
 10
495.6788435654
 20
31.4647801566
 30
0.0
 11
396.8788435654
 21
31.4647801566
 31
0.0
  0
LINE
  5
52
330
1F
100
AcDbEntity
  8
0
  6
Continuous
 62
     7
370
    40
100
AcDbLine
 10
495.6788435654
 20
35.7147801566
 30
0.0
 11
396.8788435654
 21
35.7147801566
 31
0.0
  0
LINE
  5
53
330
1F
100
AcDbEntity
  8
0
  6
Continuous
 62
     7
370
    40
100
AcDbLine
 10
495.6788435654
 20
39.9647801566
 30
0.0
 11
396.8788435654
 21
39.9647801566
 31
0.0
  0
LINE
  5
54
330
1F
100
AcDbEntity
  8
0
  6
Continuous
 62
     7
370
    40
100
AcDbLine
 10
495.6788435654
 20
44.2147801566
 30
0.0
 11
396.8788435654
 21
44.2147801566
 31
0.0
  0
LINE
  5
55
330
1F
100
AcDbEntity
  8
0
  6
Continuous
 62
     7
370
    40
100
AcDbLine
 10
451.4788435654
 20
10.2147801566
 30
0.0
 11
451.4788435654
 21
48.4647801566
 31
0.0
  0
LINE
  5
56
330
1F
100
AcDbEntity
  8
0
  6
Continuous
 62
     7
370
    40
100
AcDbLine
 10
396.8788435654
 20
65.4647801566
 30
0.0
 11
396.8788435654
 21
10.2147801566
 31
0.0
  0
LINE
  5
57
330
1F
100
AcDbEntity
  8
0
  6
Continuous
 62
     7
370
    40
100
AcDbLine
 10
404.6788435654
 20
48.4647801566
 30
0.0
 11
404.6788435654
 21
10.2147801566
 31
0.0
  0
LINE
  5
58
330
1F
100
AcDbEntity
  8
0
  6
Continuous
 62
     7
370
    40
100
AcDbLine
 10
430.6788435654
 20
48.4647801566
 30
0.0
 11
430.6788435654
 21
65.4647801566
 31
0.0
  0
LINE
  5
59
330
1F
100
AcDbEntity
  8
0
  6
Continuous
 62
     7
370
    40
100
AcDbLine
 10
441.2777697289
 20
48.4647801566
 30
0.0
 11
441.2777697289
 21
10.2147801566
 31
0.0
  0
LINE
  5
5A
330
1F
100
AcDbEntity
  8
0
  6
Continuous
 62
     7
370
    40
100
AcDbLine
 10
461.8788435654
 20
31.4647801566
 30
0.0
 11
461.8788435654
 21
48.4647801566
 31
0.0
  0
LINE
  5
5B
330
1F
100
AcDbEntity
  8
0
  6
Continuous
 62
     7
370
    40
100
AcDbLine
 10
451.4788435654
 20
18.7147801566
 30
0.0
 11
396.8788435654
 21
18.7147801566
 31
0.0
  0
LINE
  5
5C
330
1F
100
AcDbEntity
  8
0
  6
Continuous
 62
     7
370
    40
100
AcDbLine
 10
477.4788435654
 20
65.4647801566
 30
0.0
 11
477.4788435654
 21
27.2147801566
 31
0.0
  0
LINE
  5
5D
330
1F
100
AcDbEntity
  8
0
  6
Continuous
 62
     7
370
    40
100
AcDbLine
 10
451.4788435654
 20
22.9647081566
 30
0.0
 11
396.8788435654
 21
22.9647081566
 31
0.0
  0
LINE
  5
5E
330
1F
100
AcDbEntity
  8
0
  6
Continuous
 62
     7
370
    40
100
AcDbLine
 10
451.4788435654
 20
27.2147801566
 30
0.0
 11
396.8788435654
 21
27.2147801566
 31
0.0
  0
LINE
  5
5F
330
1F
100
AcDbEntity
  8
0
  6
Continuous
 62
     7
370
    40
100
AcDbLine
 10
451.4788435654
 20
27.2147801566
 30
0.0
 11
584.0788435654
 21
27.2147801566
 31
0.0
  0
LINE
  5
60
330
1F
100
AcDbEntity
  8
0
  6
Continuous
 62
     7
370
    40
100
AcDbLine
 10
495.6788435654
 20
65.4647801566
 30
0.0
 11
495.6788435654
 21
10.2147801566
 31
0.0
  0
LINE
  5
61
330
1F
100
AcDbEntity
  8
0
  6
Continuous
 62
     7
370
    40
100
AcDbLine
 10
539.8788435654
 20
10.2147801566
 30
0.0
 11
539.8788435654
 21
14.4647801566
 31
0.0
  0
LINE
  5
62
330
1F
100
AcDbEntity
  8
0
  6
Continuous
 62
     7
370
    40
100
AcDbLine
 10
547.6788435654
 20
59.0897801566
 30
0.0
 11
547.6788435654
 21
65.4647801566
 31
0.0
  0
LINE
  5
63
330
1F
100
AcDbEntity
  8
0
  6
Continuous
 62
     7
370
    40
100
AcDbLine
 10
571.0788435654
 20
14.4647801566
 30
0.0
 11
571.0788435654
 21
27.2147801566
 31
0.0
  0
LINE
  5
64
330
1F
100
AcDbEntity
  8
0
  6
Continuous
 62
     7
370
    40
100
AcDbLine
 10
584.0788435654
 20
59.0897801566
 30
0.0
 11
495.6788435654
 21
59.0897801566
 31
0.0
  0
LINE
  5
65
330
1F
100
AcDbEntity
  8
0
  6
Continuous
 62
     7
370
    40
100
AcDbLine
 10
584.0788435654
 20
18.7147801566
 30
0.0
 11
571.0788435654
 21
18.7147801566
 31
0.0
  0
MTEXT
  5
67
330
1F
100
AcDbEntity
  8
0
  6
Continuous
 62
     7
370
     0
100
AcDbMText
 10
543.6966273981
 20
41.2496795977
 30
0.0
 40
6.35
 41
0.0
 71
     2
 72
     1
  1
poulie_moteur
  7
SLDTEXTSTYLE0
 73
     1
 44
1.0
  0
MTEXT
  5
68
330
1F
100
AcDbEntity
  8
0
  6
Continuous
 62
     7
370
     0
100
AcDbMText
 10
446.5081072343
 20
42.773880237
 30
0.0
 40
1.4986
 41
0.0
 71
     2
 72
     1
  1
25/02/17
  7
SLDTEXTSTYLE0
 73
     1
 44
1.0
  0
MTEXT
  5
69
330
1F
100
AcDbEntity
  8
0
  6
Continuous
 62
     7
370
     0
100
AcDbMText
 10
414.0276693244
 20
42.5981456645
 30
0.0
 40
1.4986
 41
0.0
 71
     2
 72
     1
  1
MLN
  7
SLDTEXTSTYLE0
 73
     1
 44
1.0
  0
MTEXT
  5
6A
330
1F
100
AcDbEntity
  8
0
  6
Continuous
 62
     7
370
     0
100
AcDbMText
 10
452.4966546935
 20
13.1640920602
 30
0.0
 40
1.4986
 41
0.0
 71
     1
 72
     1
  1
MASSE:
  7
SLDTEXTSTYLE0
 73
     1
 44
1.0
  0
MTEXT
  5
6B
330
1F
100
AcDbEntity
  8
0
  6
Continuous
 62
     7
370
     0
100
AcDbMText
 10
574.9998284117
 20
24.5152246678
 30
0.0
 40
2.9104166667
 41
0.0
 71
     1
 72
     1
  1
A2
  7
SLDTEXTSTYLE0
 73
     1
 44
1.0
  0
MTEXT
  5
6D
330
1F
100
AcDbEntity
  8
0
  6
Continuous
 62
     7
370
     0
100
AcDbMText
 10
541.3571379932
 20
13.1148674312
 30
0.0
 40
1.5
 41
0.0
 71
     1
 72
     1
  1
FEUILLE 1 SUR 1
  7
SLDTEXTSTYLE1
 73
     1
 44
1.0
  0
MTEXT
  5
6E
330
1F
100
AcDbEntity
  8
0
  6
Continuous
 62
     7
370
     0
100
AcDbMText
 10
496.9528096828
 20
13.1148674312
 30
0.0
 40
1.5
 41
0.0
 71
     1
 72
     1
  1
ECHELLE:1:1
  7
SLDTEXTSTYLE0
 73
     1
 44
1.0
  0
MTEXT
  5
6F
330
1F
100
AcDbEntity
  8
0
  6
Continuous
 62
     7
370
     0
100
AcDbMText
 10
496.9528096828
 20
25.0834179837
 30
0.0
 40
1.5
 41
0.0
 71
     1
 72
     1
  1
No. DE PLAN
  7
SLDTEXTSTYLE0
 73
     1
 44
1.0
  0
MTEXT
  5
70
330
1F
100
AcDbEntity
  8
0
  6
Continuous
 62
     7
370
     0
100
AcDbMText
 10
496.835030502
 20
46.4931144426
 30
0.0
 40
1.5
 41
0.0
 71
     1
 72
     1
  1
TITRE:
  7
SLDTEXTSTYLE0
 73
     1
 44
1.0
  0
MTEXT
  5
71
330
1F
100
AcDbEntity
  8
0
  6
Continuous
 62
     7
370
     0
100
AcDbMText
 10
550.2064252647
 20
62.5496888371
 30
0.0
 40
1.5
 41
0.0
 71
     1
 72
     1
  1
REVISION
  7
SLDTEXTSTYLE0
 73
     1
 44
1.0
  0
MTEXT
  5
72
330
1F
100
AcDbEntity
  8
0
  6
Continuous
 62
     7
370
     0
100
AcDbMText
 10
509.4934840882
 20
62.7477737317
 30
0.0
 40
1.5
 41
0.0
 71
     1
 72
     1
  1
NE PAS CHANGER L'ECHELLE
  7
SLDTEXTSTYLE0
 73
     1
 44
1.0
  0
INSERT
  5
78
330
1F
100
AcDbEntity
  8
0
  6
Continuous
 62
     7
370
     0
100
AcDbBlockReference
  2
SW_NOTE_0
 10
452.5247058741
 20
24.2672348362
 30
0.0
  0
MTEXT
  5
79
330
1F
100
AcDbEntity
  8
0
  6
Continuous
 62
     7
370
     0
100
AcDbMText
 10
444.0935455311
 20
46.7909593779
 30
0.0
 40
1.5
 41
0.0
 71
     1
 72
     1
  1
DATE
  7
SLDTEXTSTYLE0
 73
     1
 44
1.0
  0
MTEXT
  5
7A
330
1F
100
AcDbEntity
  8
0
  6
Continuous
 62
     7
370
     0
100
AcDbMText
 10
426.9124311285
 20
46.7765365362
 30
0.0
 40
1.5
 41
0.0
 71
     1
 72
     1
  1
SIGNATURE
  7
SLDTEXTSTYLE0
 73
     1
 44
1.0
  0
MTEXT
  5
7B
330
1F
100
AcDbEntity
  8
0
  6
Continuous
 62
     7
370
     0
100
AcDbMText
 10
411.201082783
 20
46.7162627901
 30
0.0
 40
1.5
 41
0.0
 71
     1
 72
     1
  1
NOM
  7
SLDTEXTSTYLE0
 73
     1
 44
1.0
  0
INSERT
  5
81
330
1F
100
AcDbEntity
  8
0
  6
Continuous
 62
     7
370
     0
100
AcDbBlockReference
  2
SW_NOTE_1
 10
478.1880592516
 20
62.2842697997
 30
0.0
  0
INSERT
  5
88
330
1F
100
AcDbEntity
  8
0
  6
Continuous
 62
     7
370
     0
100
AcDbBlockReference
  2
SW_NOTE_2
 10
397.472512311
 20
62.2021500309
 30
0.0
  0
MTEXT
  5
89
330
1F
100
AcDbEntity
  8
0
  6
Continuous
 62
     7
370
     0
100
AcDbMText
 10
397.5478864275
 20
25.5644293639
 30
0.0
 40
1.5
 41
0.0
 71
     1
 72
     1
  1
QUAL.
  7
SLDTEXTSTYLE0
 73
     1
 44
1.0
  0
MTEXT
  5
8A
330
1F
100
AcDbEntity
  8
0
  6
Continuous
 62
     7
370
     0
100
AcDbMText
 10
397.3340300644
 20
29.9484848072
 30
0.0
 40
1.5
 41
0.0
 71
     1
 72
     1
  1
FAB.
  7
SLDTEXTSTYLE0
 73
     1
 44
1.0
  0
MTEXT
  5
8B
330
1F
100
AcDbEntity
  8
0
  6
Continuous
 62
     7
370
     0
100
AcDbMText
 10
397.2805659737
 20
34.2790761598
 30
0.0
 40
1.5
 41
0.0
 71
     1
 72
     1
  1
APPR.
  7
SLDTEXTSTYLE0
 73
     1
 44
1.0
  0
MTEXT
  5
8C
330
1F
100
AcDbEntity
  8
0
  6
Continuous
 62
     7
370
     0
100
AcDbMText
 10
397.289312433
 20
38.3691873166
 30
0.0
 40
1.5
 41
0.0
 71
     1
 72
     1
  1
VERIF.
  7
SLDTEXTSTYLE0
 73
     1
 44
1.0
  0
MTEXT
  5
8D
330
1F
100
AcDbEntity
  8
0
  6
Continuous
 62
     7
370
     0
100
AcDbMText
 10
397.0909928094
 20
42.6444950426
 30
0.0
 40
1.5
 41
0.0
 71
     1
 72
     1
  1
AUTEUR
  7
SLDTEXTSTYLE0
 73
     1
 44
1.0
  0
ARC
  5
8E
330
1F
100
AcDbEntity
  8
0
  6
Continuous
 62
     7
370
    15
100
AcDbCircle
 10
194.9521358644
 20
275.3504667216
 30
0.0
 40
9.49999999999996
100
AcDbArc
 50
108.4084801706
 51
71.5915198294
  0
CIRCLE
  5
8F
330
1F
100
AcDbEntity
  8
0
  6
Continuous
 62
     7
370
    15
100
AcDbCircle
 10
194.9521358644
 20
275.3504667216
 30
0.0
 40
47.49999999999997
  0
LINE
  5
90
330
1F
100
AcDbEntity
  8
0
  6
Continuous
 62
     7
370
    15
100
AcDbLine
 10
191.9521358644
 20
287.6504667216
 30
0.0
 11
197.9521358644
 21
287.6504667216
 31
0.0
  0
LINE
  5
91
330
1F
100
AcDbEntity
  8
0
  6
Continuous
 62
     7
370
    15
100
AcDbLine
 10
197.9521358644
 20
287.6504667216
 30
0.0
 11
197.9521358644
 21
284.3643449103
 31
0.0
  0
LINE
  5
92
330
1F
100
AcDbEntity
  8
0
  6
Continuous
 62
     7
370
    15
100
AcDbLine
 10
191.9521358644
 20
284.3643449103
 30
0.0
 11
191.9521358644
 21
287.6504667216
 31
0.0
  0
DIMENSION
  5
93
330
1F
100
AcDbEntity
  8
0
  6
Continuous
 62
     7
370
     0
100
AcDbDimension
  2
_D
 10
188.2445647609
 20
282.0779097643
 30
0.0
 11
258.0821644843
 21
236.2659079423
 31
0.0
 70
   163
  1
<>H8
 71
     1
 42
-1.0
  3
SLDDIMSTYLE0
100
AcDbDiametricDimension
 15
201.6597069678
 25
268.6230236789
 35
0.0
 40
0.0
  0
DIMENSION
  5
A2
330
1F
100
AcDbEntity
  8
0
  6
Continuous
 62
     7
370
     0
100
AcDbDimension
  2
_D_1
 10
197.9521358644
 20
350.8504667216
 30
0.0
 11
219.9002941637
 21
350.8504667216
 31
0.0
 70
   160
  1
<>JS9
 71
     2
 42
-1.0
  3
SLDDIMSTYLE1
100
AcDbAlignedDimension
 13
191.9521358644
 23
287.6504667216
 33
0.0
 14
197.9521358644
 24
287.6504667216
 34
0.0
100
AcDbRotatedDimension
  0
DIMENSION
  5
B4
330
1F
100
AcDbEntity
  8
0
  6
Continuous
 62
     7
370
     0
100
AcDbDimension
  2
_D_2
 10
270.4521358644
 20
265.8504667216
 30
0.0
 11
270.4521358644
 21
307.8826756054
 31
0.0
 70
   160
  1
<>
 71
     2
 42
-1.0
  3
SLDDIMSTYLE2
100
AcDbAlignedDimension
 13
197.9521358644
 23
287.6504667216
 33
0.0
 14
194.9521358644
 24
265.8504667216
 34
0.0
 50
90.0
100
AcDbRotatedDimension
  0
INSERT
  5
D0
330
1F
100
AcDbEntity
  8
0
  6
Continuous
 62
     7
370
     0
100
AcDbBlockReference
  2
SW_CENTERMARKSYMBOL_0
 10
194.9521358644
 20
275.3504667216
 30
0.0
  0
INSERT
  5
DC
330
1F
100
AcDbEntity
  8
0
  6
Continuous
 62
     7
370
     0
100
AcDbBlockReference
  2
SW_CENTERMARKSYMBOL_1
 10
194.9521358644
 20
275.3504667216
 30
0.0
  0
LINE
  5
DD
330
1F
100
AcDbEntity
  8
0
  6
CENTER
 62
     7
370
     0
100
AcDbLine
 10
194.9521358644
 20
334.2504667216
 30
0.0
 11
194.9521358644
 21
216.4504667216
 31
0.0
  0
LINE
  5
DE
330
1F
100
AcDbEntity
  8
0
  6
Continuous
 62
     7
370
     0
100
AcDbLine
 10
182.2521358644
 20
332.2504667216
 30
0.0
 11
194.9521358644
 21
332.2504667216
 31
0.0
  0
SOLID
  5
DF
330
1F
100
AcDbEntity
  8
0
  6
Continuous
 62
     7
370
     0
100
AcDbTrace
 10
194.9521358644
 20
332.2504667216
 30
0.0
 11
188.6021358644
 21
333.2664667216
 31
0.0
 12
188.6021358644
 22
331.2344667216
 32
0.0
 13
188.6021358644
 23
331.2344667216
 33
0.0
  0
LINE
  5
E0
330
1F
100
AcDbEntity
  8
0
  6
Continuous
 62
     7
370
     0
100
AcDbLine
 10
182.2521358644
 20
218.4504667216
 30
0.0
 11
194.9521358644
 21
218.4504667216
 31
0.0
  0
SOLID
  5
E1
330
1F
100
AcDbEntity
  8
0
  6
Continuous
 62
     7
370
     0
100
AcDbTrace
 10
194.9521358644
 20
218.4504667216
 30
0.0
 11
188.6021358644
 21
219.4664667216
 31
0.0
 12
188.6021358644
 22
217.4344667216
 32
0.0
 13
188.6021358644
 23
217.4344667216
 33
0.0
  0
MTEXT
  5
E2
330
1F
100
AcDbEntity
  8
0
  6
Continuous
 62
     7
100
AcDbMText
 10
182.2521358644
 20
337.8029946404
 30
0.0
 40
3.5
 41
0.0
 71
     1
 72
     1
  1
A
  7
SLDTEXTSTYLE0
 73
     1
 44
1.0
  0
MTEXT
  5
E3
330
1F
100
AcDbEntity
  8
0
  6
Continuous
 62
     7
100
AcDbMText
 10
182.2521358644
 20
224.0029946404
 30
0.0
 40
3.5
 41
0.0
 71
     1
 72
     1
  1
A
  7
SLDTEXTSTYLE0
 73
     1
 44
1.0
  0
INSERT
  5
EA
330
1F
100
AcDbEntity
  8
0
  6
Continuous
 62
     7
370
     0
100
AcDbBlockReference
  2
SW_SFSYMBOL_0
 10
188.503566992
 20
273.1442070325
 30
0.0
  0
LINE
  5
EB
330
1F
100
AcDbEntity
  8
0
  6
Continuous
 62
     7
370
    15
100
AcDbLine
 10
394.1778218091
 20
292.8504667216
 30
0.0
 11
412.1778218091
 21
292.8504667216
 31
0.0
  0
LINE
  5
EC
330
1F
100
AcDbEntity
  8
0
  6
Continuous
 62
     7
370
    15
100
AcDbLine
 10
412.1778218091
 20
292.8504667216
 30
0.0
 11
412.1778218091
 21
322.8504667216
 31
0.0
  0
LINE
  5
ED
330
1F
100
AcDbEntity
  8
0
  6
Continuous
 62
     7
370
    15
100
AcDbLine
 10
412.1778218091
 20
322.8504667216
 30
0.0
 11
414.1778218091
 21
322.8504667216
 31
0.0
  0
LINE
  5
EE
330
1F
100
AcDbEntity
  8
0
  6
Continuous
 62
     7
370
    15
100
AcDbLine
 10
414.1778218091
 20
322.8504667216
 30
0.0
 11
414.1778218091
 21
320.3504667216
 31
0.0
  0
LINE
  5
EF
330
1F
100
AcDbEntity
  8
0
  6
Continuous
 62
     7
370
    15
100
AcDbLine
 10
414.1778218091
 20
320.3504667216
 30
0.0
 11
434.1778218091
 21
320.3504667216
 31
0.0
  0
LINE
  5
F0
330
1F
100
AcDbEntity
  8
0
  6
Continuous
 62
     7
370
    15
100
AcDbLine
 10
434.1778218091
 20
320.3504667216
 30
0.0
 11
434.1778218091
 21
322.8504667216
 31
0.0
  0
LINE
  5
F1
330
1F
100
AcDbEntity
  8
0
  6
Continuous
 62
     7
370
    15
100
AcDbLine
 10
434.1778218091
 20
322.8504667216
 30
0.0
 11
436.1778218091
 21
322.8504667216
 31
0.0
  0
LINE
  5
F2
330
1F
100
AcDbEntity
  8
0
  6
Continuous
 62
     7
370
    15
100
AcDbLine
 10
436.1778218091
 20
322.8504667216
 30
0.0
 11
436.1778218091
 21
287.6504667216
 31
0.0
  0
LINE
  5
F3
330
1F
100
AcDbEntity
  8
0
  6
Continuous
 62
     7
370
    15
100
AcDbLine
 10
436.1778218091
 20
287.6504667216
 30
0.0
 11
394.1778218091
 21
287.6504667216
 31
0.0
  0
LINE
  5
F4
330
1F
100
AcDbEntity
  8
0
  6
Continuous
 62
     7
370
    15
100
AcDbLine
 10
394.1778218091
 20
287.6504667216
 30
0.0
 11
394.1778218091
 21
292.8504667216
 31
0.0
  0
LINE
  5
F5
330
1F
100
AcDbEntity
  8
0
  6
Continuous
 62
     7
370
    15
100
AcDbLine
 10
412.1778218091
 20
257.8504667216
 30
0.0
 11
394.1778218091
 21
257.8504667216
 31
0.0
  0
LINE
  5
F6
330
1F
100
AcDbEntity
  8
0
  6
Continuous
 62
     7
370
    15
100
AcDbLine
 10
395.1778218091
 20
265.8504667216
 30
0.0
 11
394.1778218091
 21
265.2731164524
 31
0.0
  0
LINE
  5
F7
330
1F
100
AcDbEntity
  8
0
  6
Continuous
 62
     7
370
    15
100
AcDbLine
 10
395.1778218091
 20
265.8504667216
 30
0.0
 11
436.1778218091
 21
265.8504667216
 31
0.0
  0
LINE
  5
F8
330
1F
100
AcDbEntity
  8
0
  6
Continuous
 62
     7
370
    15
100
AcDbLine
 10
436.1778218091
 20
265.8504667216
 30
0.0
 11
436.1778218091
 21
227.8504667216
 31
0.0
  0
LINE
  5
F9
330
1F
100
AcDbEntity
  8
0
  6
Continuous
 62
     7
370
    15
100
AcDbLine
 10
436.1778218091
 20
227.8504667216
 30
0.0
 11
434.1778218091
 21
227.8504667216
 31
0.0
  0
LINE
  5
FA
330
1F
100
AcDbEntity
  8
0
  6
Continuous
 62
     7
370
    15
100
AcDbLine
 10
434.1778218091
 20
227.8504667216
 30
0.0
 11
434.1778218091
 21
230.3504667216
 31
0.0
  0
LINE
  5
FB
330
1F
100
AcDbEntity
  8
0
  6
Continuous
 62
     7
370
    15
100
AcDbLine
 10
434.1778218091
 20
230.3504667216
 30
0.0
 11
414.1778218091
 21
230.3504667216
 31
0.0
  0
LINE
  5
FC
330
1F
100
AcDbEntity
  8
0
  6
Continuous
 62
     7
370
    15
100
AcDbLine
 10
414.1778218091
 20
230.3504667216
 30
0.0
 11
414.1778218091
 21
227.8504667216
 31
0.0
  0
LINE
  5
FD
330
1F
100
AcDbEntity
  8
0
  6
Continuous
 62
     7
370
    15
100
AcDbLine
 10
414.1778218091
 20
227.8504667216
 30
0.0
 11
412.1778218091
 21
227.8504667216
 31
0.0
  0
LINE
  5
FE
330
1F
100
AcDbEntity
  8
0
  6
Continuous
 62
     7
370
    15
100
AcDbLine
 10
412.1778218091
 20
227.8504667216
 30
0.0
 11
412.1778218091
 21
257.8504667216
 31
0.0
  0
LINE
  5
FF
330
1F
100
AcDbEntity
  8
0
  6
Continuous
 62
     7
370
    15
100
AcDbLine
 10
394.1778218091
 20
257.8504667216
 30
0.0
 11
394.1778218091
 21
265.2731164524
 31
0.0
  0
LINE
  5
100
330
1F
100
AcDbEntity
  8
0
  6
Continuous
 62
     7
370
    15
100
AcDbLine
 10
394.1778218091
 20
284.9709130963
 30
0.0
 11
395.1778218091
 21
284.3643449103
 31
0.0
  0
LINE
  5
101
330
1F
100
AcDbEntity
  8
0
  6
Continuous
 62
     7
370
    15
100
AcDbLine
 10
395.1778218091
 20
284.3643449103
 30
0.0
 11
395.1778218091
 21
265.8504667216
 31
0.0
  0
LINE
  5
102
330
1F
100
AcDbEntity
  8
0
  6
Continuous
 62
     7
370
    15
100
AcDbLine
 10
394.1778218091
 20
265.2731164524
 30
0.0
 11
394.1778218091
 21
284.9709130963
 31
0.0
  0
LINE
  5
103
330
1F
100
AcDbEntity
  8
0
  6
Continuous
 62
     7
370
    15
100
AcDbLine
 10
436.1778218091
 20
284.3643449103
 30
0.0
 11
395.1778218091
 21
284.3643449103
 31
0.0
  0
LINE
  5
104
330
1F
100
AcDbEntity
  8
0
  6
Continuous
 62
     7
370
    15
100
AcDbLine
 10
436.1778218091
 20
265.8504667216
 30
0.0
 11
436.1778218091
 21
284.3643449103
 31
0.0
  0
LINE
  5
105
330
1F
100
AcDbEntity
  8
0
  6
Continuous
 62
     7
370
    15
100
AcDbLine
 10
436.1778218091
 20
287.6504667216
 30
0.0
 11
436.1778218091
 21
284.3643449103
 31
0.0
  0
LINE
  5
106
330
1F
100
AcDbEntity
  8
0
  6
Continuous
 62
     7
370
    15
100
AcDbLine
 10
394.1778218091
 20
287.6504667216
 30
0.0
 11
394.1778218091
 21
284.9709130963
 31
0.0
  0
HATCH
  5
107
330
1F
100
AcDbEntity
  8
0
  6
Continuous
 62
     7
370
     0
100
AcDbHatch
 10
0.0
 20
0.0
 30
0.0
210
0.0
220
0.0
230
1.0
  2
ANSI32
 70
     0
 71
     0
 91
        1
 92
        0
 93
       11
 72
     1
 10
394.1778218091483
 20
257.850466721627
 11
412.1778218091483
 21
257.850466721627
 72
     1
 10
412.1778218091483
 20
257.850466721627
 11
412.1778218091483
 21
227.8504667216271
 72
     1
 10
412.1778218091483
 20
227.8504667216271
 11
414.1778218091483
 21
227.8504667216271
 72
     1
 10
414.1778218091483
 20
227.8504667216271
 11
414.1778218091483
 21
230.3504667216271
 72
     1
 10
414.1778218091483
 20
230.3504667216271
 11
434.1778218091483
 21
230.3504667216271
 72
     1
 10
434.1778218091483
 20
230.3504667216271
 11
434.1778218091483
 21
227.8504667216271
 72
     1
 10
434.1778218091483
 20
227.8504667216271
 11
436.1778218091483
 21
227.8504667216271
 72
     1
 10
436.1778218091483
 20
227.8504667216271
 11
436.1778218091483
 21
265.8504667216271
 72
     1
 10
436.1778218091483
 20
265.8504667216271
 11
395.1778218091483
 21
265.8504667216271
 72
     1
 10
395.1778218091483
 20
265.8504667216271
 11
394.1778218091483
 21
265.2731164524375
 72
     1
 10
394.1778218091483
 20
265.2731164524375
 11
394.1778218091483
 21
257.850466721627
 97
        0
 75
     0
 76
     1
 52
0.0
 41
1.0
 77
     0
 78
     2
 53
45.0
 43
0.0
 44
0.0
 45
-6.735192090801865
 46
6.735192090801866
 79
     0
 53
45.0
 43
4.49013
 44
0.0
 45
-6.735192090801865
 46
6.735192090801866
 79
     0
 98
        1
 10
0.0
 20
0.0
  0
HATCH
  5
108
330
1F
100
AcDbEntity
  8
0
  6
Continuous
 62
     7
370
     0
100
AcDbHatch
 10
0.0
 20
0.0
 30
0.0
210
0.0
220
0.0
230
1.0
  2
ANSI32
 70
     0
 71
     0
 91
        1
 92
        0
 93
       10
 72
     1
 10
394.1778218091483
 20
292.8504667216271
 11
394.1778218091483
 21
287.650466721627
 72
     1
 10
394.1778218091483
 20
287.650466721627
 11
436.1778218091483
 21
287.650466721627
 72
     1
 10
436.1778218091483
 20
287.650466721627
 11
436.1778218091483
 21
322.850466721627
 72
     1
 10
436.1778218091483
 20
322.850466721627
 11
434.1778218091483
 21
322.850466721627
 72
     1
 10
434.1778218091483
 20
322.850466721627
 11
434.1778218091483
 21
320.350466721627
 72
     1
 10
434.1778218091483
 20
320.350466721627
 11
414.1778218091483
 21
320.350466721627
 72
     1
 10
414.1778218091483
 20
320.350466721627
 11
414.1778218091483
 21
322.850466721627
 72
     1
 10
414.1778218091483
 20
322.850466721627
 11
412.1778218091483
 21
322.850466721627
 72
     1
 10
412.1778218091483
 20
322.850466721627
 11
412.1778218091483
 21
292.8504667216271
 72
     1
 10
412.1778218091483
 20
292.8504667216271
 11
394.1778218091483
 21
292.8504667216271
 97
        0
 75
     0
 76
     1
 52
0.0
 41
1.0
 77
     0
 78
     2
 53
45.0
 43
0.0
 44
0.0
 45
-6.735192090801865
 46
6.735192090801866
 79
     0
 53
45.0
 43
4.49013
 44
0.0
 45
-6.735192090801865
 46
6.735192090801866
 79
     0
 98
        1
 10
0.0
 20
0.0
  0
DIMENSION
  5
109
330
1F
100
AcDbEntity
  8
0
  6
Continuous
 62
     7
370
     0
100
AcDbDimension
  2
_D_3
 10
414.1778218091
 20
338.8504667216
 30
0.0
 11
403.1778218091
 21
338.8504667216
 31
0.0
 70
   160
  1
<>
 71
     2
 42
-1.0
  3
SLDDIMSTYLE3
100
AcDbAlignedDimension
 13
412.1778218091
 23
322.8504667216
 33
0.0
 14
414.1778218091
 24
322.8504667216
 34
0.0
100
AcDbRotatedDimension
  0
DIMENSION
  5
116
330
1F
100
AcDbEntity
  8
0
  6
Continuous
 62
     7
370
     0
100
AcDbDimension
  2
_D_4
 10
434.1778218091
 20
330.9818034223
 30
0.0
 11
423.8059773932
 21
330.9818034223
 31
0.0
 70
   160
  1
<>
 71
     2
 42
-1.0
  3
SLDDIMSTYLE4
100
AcDbAlignedDimension
 13
414.1778218091
 23
322.8504667216
 33
0.0
 14
434.1778218091
 24
322.8504667216
 34
0.0
100
AcDbRotatedDimension
  0
DIMENSION
  5
121
330
1F
100
AcDbEntity
  8
0
  6
Continuous
 62
     7
370
     0
100
AcDbDimension
  2
_D_5
 10
394.1778218091
 20
362.8504667216
 30
0.0
 11
415.8037070049
 21
362.8504667216
 31
0.0
 70
   160
  1
<>
 71
     2
 42
-1.0
  3
SLDDIMSTYLE4
100
AcDbAlignedDimension
 13
436.1778218091
 23
322.8504667216
 33
0.0
 14
394.1778218091
 24
292.8504667216
 34
0.0
100
AcDbRotatedDimension
  0
DIMENSION
  5
12B
330
1F
100
AcDbEntity
  8
0
  6
Continuous
 62
     7
370
     0
100
AcDbDimension
  2
_D_6
 10
464.1778218091
 20
230.3504667216
 30
0.0
 11
464.1778218091
 21
275.3504667216
 31
0.0
 70
   160
  1
%%c<>
 71
     2
 42
-1.0
  3
SLDDIMSTYLE4
100
AcDbAlignedDimension
 13
434.1778218091
 23
320.3504667216
 33
0.0
 14
434.1778218091
 24
230.3504667216
 34
0.0
 50
90.0
100
AcDbRotatedDimension
  0
DIMENSION
  5
136
330
1F
100
AcDbEntity
  8
0
  6
Continuous
 62
     7
370
     0
100
AcDbDimension
  2
_D_7
 10
488.1778218091
 20
227.8504667216
 30
0.0
 11
488.1778218091
 21
275.3504667216
 31
0.0
 70
   160
  1
%%c<>
 71
     2
 42
-1.0
  3
SLDDIMSTYLE4
100
AcDbAlignedDimension
 13
436.1778218091
 23
322.8504667216
 33
0.0
 14
436.1778218091
 24
227.8504667216
 34
0.0
 50
90.0
100
AcDbRotatedDimension
  0
DIMENSION
  5
141
330
1F
100
AcDbEntity
  8
0
  6
Continuous
 62
     7
370
     0
100
AcDbDimension
  2
_D_8
 10
394.1778218091
 20
279.2860599769
 30
0.0
 11
386.1135198336
 21
279.2860599769
 31
0.0
 70
   160
  1
<>
 71
     2
 42
-1.0
  3
SLDDIMSTYLE3
100
AcDbAlignedDimension
 13
395.1778218091
 23
284.3643449103
 33
0.0
 14
394.1778218091
 24
292.8504667216
 34
0.0
100
AcDbRotatedDimension
  0
DIMENSION
  5
14B
330
1F
100
AcDbEntity
  8
0
  6
Continuous
 62
     7
370
     0
100
AcDbDimension
  2
_D_9
 10
395.1778218091
 20
265.8504667216
 30
0.0
 11
382.2250187965
 21
271.5242138341
 31
0.0
 70
   162
  1
<>
 71
     1
 42
-1.0
  3
SLDDIMSTYLE5
100
AcDb2LineAngularDimension
 13
395.1778218091
 23
265.8504667216
 33
0.0
 14
394.1778218091
 24
265.2731164524
 34
0.0
 15
436.1778218091
 25
265.8504667216
 35
0.0
 16
381.5187114495
 26
262.1905191314
 36
0.0
  0
DIMENSION
  5
157
330
1F
100
AcDbEntity
  8
0
  6
Continuous
 62
     7
370
     0
100
AcDbDimension
  2
_D_10
 10
356.1897798687
 20
257.8504667216
 30
0.0
 11
356.1897798687
 21
275.3504667216
 31
0.0
 70
   160
  1
%%c<>
 71
     2
 42
-1.0
  3
SLDDIMSTYLE4
100
AcDbAlignedDimension
 13
394.1778218091
 23
292.8504667216
 33
0.0
 14
394.1778218091
 24
257.8504667216
 34
0.0
 50
90.0
100
AcDbRotatedDimension
  0
DIMENSION
  5
162
330
1F
100
AcDbEntity
  8
0
  6
Continuous
 62
     7
370
     0
100
AcDbDimension
  2
_D_11
 10
412.1778218091
 20
350.8504667216
 30
0.0
 11
403.1778218091
 21
350.8504667216
 31
0.0
 70
   160
  1
<>
 71
     2
 42
-1.0
  3
SLDDIMSTYLE4
100
AcDbAlignedDimension
 13
394.1778218091
 23
292.8504667216
 33
0.0
 14
412.1778218091
 24
322.8504667216
 34
0.0
100
AcDbRotatedDimension
  0
INSERT
  5
171
330
1F
100
AcDbEntity
  8
0
  6
Continuous
 62
     7
370
     0
100
AcDbBlockReference
  2
SW_NOTE_3
 10
402.2205301316
 20
212.0747721912
 30
0.0
  0
INSERT
  5
177
330
1F
100
AcDbEntity
  8
0
  6
Continuous
 62
     7
370
     0
100
AcDbBlockReference
  2
SW_SFSYMBOL_1
 10
460.2361023926
 20
322.6054667216
 30
0.0
  0
LINE
  5
178
330
1F
100
AcDbEntity
  8
0
  6
CENTERX2
 62
     7
370
     0
100
AcDbLine
 10
438.8287346813
 20
275.3504667216
 30
0.0
 11
392.0550644697
 21
275.3504667216
 31
0.0
  0
LINE
  5
179
330
1F
100
AcDbEntity
  8
0
  6
Continuous
 62
     7
370
    15
100
AcDbLine
 10
170.5171561437
 20
137.4950813312
 30
0.0
 11
169.2082647408
 21
136.804257181
 31
0.0
  0
LINE
  5
17A
330
1F
100
AcDbEntity
  8
0
  6
Continuous
 62
     7
370
    15
100
AcDbLine
 10
213.5513554666
 20
52.7882449876
 30
0.0
 11
214.8602468696
 21
53.4790691378
 31
0.0
  0
LINE
  5
17B
330
1F
100
AcDbEntity
  8
0
  6
Continuous
 62
     7
370
    15
100
AcDbLine
 10
184.7729936133
 20
142.1923751444
 30
0.0
 11
180.7296604855
 21
140.0583308945
 31
0.0
  0
LINE
  5
17C
330
1F
100
AcDbEntity
  8
0
  6
Continuous
 62
     7
370
    15
100
AcDbLine
 10
222.738904331
 20
60.4642140797
 30
0.0
 11
226.7822374589
 21
62.5982583296
 31
0.0
  0
LINE
  5
17D
330
1F
100
AcDbEntity
  8
0
  6
Continuous
 62
     7
370
    15
100
AcDbLine
 10
184.9149615761
 20
145.094146984
 30
0.0
 11
183.6060701732
 21
144.4033228337
 31
0.0
  0
LINE
  5
17E
330
1F
100
AcDbEntity
  8
0
  6
Continuous
 62
     7
370
    15
100
AcDbLine
 10
227.949160899
 20
60.3873106403
 30
0.0
 11
229.258052302
 21
61.0781347906
 31
0.0
  0
LINE
  5
17F
330
1F
100
AcDbEntity
  8
0
  6
Continuous
 62
     7
370
    15
100
AcDbLine
 10
183.2113460226
 20
110.2728849094
 30
0.0
 11
171.4313233961
 21
104.0554675571
 31
0.0
  0
LINE
  5
180
330
1F
100
AcDbEntity
  8
0
  6
Continuous
 62
     7
370
    15
100
AcDbLine
 10
187.7682515583
 20
73.1021999069
 30
0.0
 11
199.5482741848
 21
79.3196172592
 31
0.0
  0
LWPOLYLINE
  5
181
330
1F
100
AcDbEntity
  8
0
  6
Continuous
 62
     7
370
    15
100
AcDbPolyline
 90
       44
 70
   128
 43
0.0
 10
183.2113460226
 20
110.2728849094
 10
183.7747135628
 20
110.5423975973
 10
184.6051574434
 20
110.8470490177
 10
185.4734879297
 20
111.0619378654
 10
186.3748489655
 20
111.1858623946
 10
187.3041997742
 20
111.218129569
 10
188.256343049
 20
111.1585589377
 10
189.2259540187
 20
111.0074836437
 10
190.2076102252
 20
110.7657485613
 10
191.1958218489
 20
110.4347055712
 10
192.1850624096
 20
110.0162060001
 10
193.1697996728
 20
109.5125902673
 10
194.1445265882
 20
108.9266747963
 10
195.1037920875
 20
108.261736264
 10
196.042231569
 20
107.5214932766
 10
196.9545968984
 20
106.7100855729
 10
197.8357857587
 20
105.8320508741
 10
198.6808701844
 20
104.8922995063
 10
199.4851241205
 20
103.8960869404
 10
200.2440498528
 20
102.8489844012
 10
200.9534031608
 20
101.7568477108
 10
201.6092170529
 20
100.6257845405
 10
202.207823952
 20
99.4621202545
 10
202.7458762054
 20
98.2723625354
 10
203.2203648067
 20
97.0631649911
 10
203.628636223
 20
95.8412899446
 10
203.9684072352
 20
94.613570617
 10
204.2377777057
 20
93.3868729126
 10
204.4352412058
 20
92.1680570226
 10
204.5596934394
 20
90.9639390599
 10
204.610438419
 20
89.7812529406
 10
204.5871923584
 20
88.6266127252
 10
204.4900852587
 20
87.5064756301
 10
204.3196601823
 20
86.4271059164
 10
204.0768702154
 20
85.3945398573
 10
203.763073138
 20
84.4145519811
 10
203.3800238306
 20
83.4926227774
 10
202.9298644602
 20
82.6339080484
 10
202.4151125008
 20
81.8432100752
 10
201.838646654
 20
81.1249507616
 10
201.2036907507
 20
80.4831469049
 10
200.513795722
 20
79.9213877328
 10
199.7728197405
 20
79.4428148303
 10
199.5482741848
 20
79.3196172592
  0
LWPOLYLINE
  5
182
330
1F
100
AcDbEntity
  8
0
  6
Continuous
 62
     7
370
    15
100
AcDbPolyline
 90
      140
 70
   128
 43
0.0
 10
155.4681046764
 20
108.4083889027
 10
155.4822210266
 20
110.3125637619
 10
155.5696740944
 20
112.1850396833
 10
155.7302852181
 20
114.0219913059
 10
155.9637262785
 20
115.819665843
 10
156.2695203687
 20
117.5743907483
 10
156.6470427691
 20
119.2825812195
 10
157.0955222229
 20
120.9407475212
 10
157.6140425124
 20
122.5455021149
 10
158.2015443303
 20
124.0935665787
 10
158.8568274441
 20
125.5817783057
 10
159.5785531478
 20
127.0070969646
 10
160.3652469973
 20
128.3666107111
 10
161.2153018221
 20
129.6575421364
 10
162.1269810089
 20
130.8772539416
 10
163.0984220494
 20
132.0232543255
 10
164.1276403451
 20
133.0932020748
 10
165.2125332621
 20
134.0849113477
 10
166.3508844262
 20
134.9963561389
 10
167.5403682514
 20
135.825674419
 10
168.7785546903
 20
136.5711719381
 10
170.0629141989
 20
137.2313256877
 10
171.3908229045
 20
137.8047870114
 10
172.7595679654
 20
138.2903843606
 10
174.1663531142
 20
138.6871256877
 10
175.6083043692
 20
138.9942004729
 10
177.0824759068
 20
139.2109813801
 10
178.5858560788
 20
139.3370255383
 10
180.1153735659
 20
139.3720754464
 10
181.6679036513
 20
139.3160594996
 10
183.2402746051
 20
139.1690921352
 10
184.8292741636
 20
138.931473599
 10
186.4316560916
 20
138.6036893323
 10
188.0441468148
 20
138.1864089793
 10
189.6634521069
 20
137.68048502
 10
191.2862638201
 20
137.0869510281
 10
192.9092666429
 20
136.4070195594
 10
194.5291448737
 20
135.6420796751
 10
196.142589194
 20
134.7936941034
 10
197.7463034296
 20
133.8635960474
 10
199.337011284
 20
132.8536856443
 10
200.9114630324
 20
131.7660260831
 10
202.4664421601
 20
130.6028393899
 10
203.9987719337
 20
129.3665018885
 10
205.5053218913
 20
128.0595393456
 10
206.9830142378
 20
126.6846218108
 10
208.4288301323
 20
125.2445581617
 10
209.8398158558
 20
123.742290366
 10
211.2130888453
 20
122.1808874707
 10
212.5458435827
 20
120.5635393324
 10
213.8353573266
 20
118.8935501006
 10
215.0789956742
 20
117.1743314678
 10
216.2742179437
 20
115.4093956989
 10
217.4185823644
 20
113.6023484568
 10
218.5097510654
 20
111.7568814353
 10
219.5454948515
 20
109.8767648179
 10
220.5236977576
 20
107.965839575
 10
221.4423613712
 20
106.0280096175
 10
222.2996089151
 20
104.0672338208
 10
223.0936890818
 20
102.0875179376
 10
223.8229796109
 20
100.0929064141
 10
224.4859906037
 20
98.0874741272
 10
225.0813675667
 20
96.0753180602
 10
225.6078941789
 20
94.0605489327
 10
226.0644947767
 20
92.0472828025
 10
226.450236551
 20
90.039632657
 10
226.7643314537
 20
88.0417000104
 10
227.0061378068
 20
86.0575665246
 10
227.1751616138
 20
84.0912856706
 10
227.2710575688
 20
82.1468744476
 10
227.2936297617
 20
80.2283051763
 10
227.242832079
 20
78.3394973836
 10
227.1187682973
 20
76.4843097959
 10
226.9216918718
 20
74.6665324549
 10
226.6520054185
 20
72.8898789756
 10
226.3102598912
 20
71.1579789593
 10
225.8971534565
 20
69.4743705785
 10
225.4135300672
 20
67.8424933486
 10
224.8603777382
 20
66.2656811013
 10
224.2388265279
 20
64.7471551737
 10
223.5501462299
 20
63.2900178272
 10
222.7957437785
 20
61.8972459099
 10
221.9771603748
 20
60.5716847751
 10
221.0960683377
 20
59.3160424682
 10
220.1542676877
 20
58.1328841945
 10
219.1536824697
 20
57.0246270785
 10
218.096356822
 20
55.9935352261
 10
216.9844508001
 20
55.0417150988
 10
215.8202359644
 20
54.1711112105
 10
214.6060907391
 20
53.3835021552
 10
213.3444955534
 20
52.680496973
 10
212.0380277738
 20
52.0635318632
 10
210.6893564393
 20
51.5338672501
 10
209.3012368081
 20
51.0925852084
 10
207.876504729
 20
50.7405872517
 10
206.418070848
 20
50.4785924919
 10
204.928914662
 20
50.3071361692
 10
203.4120784318
 20
50.2265685591
 10
201.8706609669
 20
50.2370542565
 10
200.3078112947
 20
50.3385718398
 10
198.7267222277
 20
50.5309139143
 10
197.1306238402
 20
50.8136875363
 10
195.5227768698
 20
51.1863150154
 10
193.9064660556
 20
51.648035095
 10
192.2849934281
 20
52.1979045075
 10
190.661671563
 20
52.8347999012
 10
189.0398168137
 20
53.5574201352
 10
187.4227425367
 20
54.3642889379
 10
185.8137523219
 20
55.2537579225
 10
184.2161332443
 20
56.2240099548
 10
182.633149148
 20
57.2730628656
 10
181.0680339789
 20
58.3987734998
 10
179.5239851775
 20
59.5988420952
 10
178.0041571471
 20
60.8708169803
 10
176.5116548092
 20
62.2120995833
 10
175.0495272607
 20
63.6199497408
 10
173.6207615443
 20
65.0914912956
 10
172.2282765466
 20
66.6237179725
 10
170.8749170344
 20
68.2134995202
 10
169.5634478439
 20
69.8575881062
 10
168.2965482315
 20
71.5526249517
 10
167.0768064003
 20
73.2951471935
 10
165.9067142132
 20
75.0815949586
 10
164.7886621013
 20
76.9083186364
 10
163.7249341812
 20
78.7715863353
 10
162.7177035879
 20
80.667591506
 10
161.7690280359
 20
82.5924607187
 10
160.8808456149
 20
84.5422615759
 10
160.0549708309
 20
86.513010746
 10
159.2930908985
 20
88.5006821015
 10
158.5967622949
 20
90.5012149437
 10
157.9674075795
 20
92.5105222987
 10
157.406312488
 20
94.5244992665
 10
156.9146233053
 20
96.5390314078
 10
156.4933445245
 20
98.5500031487
 10
156.1433367938
 20
100.5533061893
 10
155.8653151591
 20
102.5448478961
 10
155.6598476025
 20
104.5205596637
 10
155.5273538826
 20
106.476405226
 10
155.4681046764
 20
108.4083889027
  0
LWPOLYLINE
  5
183
330
1F
100
AcDbEntity
  8
0
  6
Continuous
 62
     7
370
    15
100
AcDbPolyline
 90
       71
 70
   128
 43
0.0
 10
170.5171561437
 20
137.4950813312
 10
171.3718056019
 20
137.922149838
 10
172.6997143074
 20
138.4956111617
 10
174.0684593684
 20
138.9812085108
 10
175.4752445171
 20
139.3779498379
 10
176.9171957722
 20
139.6850246232
 10
178.3913673097
 20
139.9018055304
 10
179.8947474818
 20
140.0278496886
 10
181.4242649688
 20
140.0628995967
 10
182.9767950543
 20
140.0068836499
 10
184.5491660081
 20
139.8599162854
 10
186.1381655665
 20
139.6222977493
 10
187.7405474946
 20
139.2945134825
 10
189.3530382177
 20
138.8772331296
 10
190.9723435099
 20
138.3713091703
 10
192.595155223
 20
137.7777751783
 10
194.2181580459
 20
137.0978437097
 10
195.8380362767
 20
136.3329038253
 10
197.451480597
 20
135.4845182536
 10
199.0551948325
 20
134.5544201977
 10
200.645902687
 20
133.5445097946
 10
202.2203544354
 20
132.4568502333
 10
203.775333563
 20
131.2936635401
 10
205.3076633366
 20
130.0573260387
 10
206.8142132943
 20
128.7503634958
 10
208.2919056408
 20
127.375445961
 10
209.7377215353
 20
125.935382312
 10
211.1487072587
 20
124.4331145163
 10
212.5219802482
 20
122.871711621
 10
213.8547349857
 20
121.2543634826
 10
215.1442487296
 20
119.5843742509
 10
216.3878870772
 20
117.865155618
 10
217.5831093466
 20
116.1002198492
 10
218.7274737673
 20
114.2931726071
 10
219.8186424683
 20
112.4477055856
 10
220.8543862545
 20
110.5675889681
 10
221.8325891606
 20
108.6566637253
 10
222.7512527741
 20
106.7188337677
 10
223.6085003181
 20
104.758057971
 10
224.4025804847
 20
102.7783420879
 10
225.1318710138
 20
100.7837305643
 10
225.7948820066
 20
98.7782982774
 10
226.3902589696
 20
96.7661422105
 10
226.9167855819
 20
94.7513730829
 10
227.3733861796
 20
92.7381069528
 10
227.759127954
 20
90.7304568073
 10
228.0732228567
 20
88.7325241607
 10
228.3150292098
 20
86.7483906749
 10
228.4840530168
 20
84.7821098209
 10
228.5799489717
 20
82.8376985979
 10
228.6025211647
 20
80.9191293265
 10
228.5517234819
 20
79.0303215339
 10
228.4276597002
 20
77.1751339461
 10
228.2305832747
 20
75.3573566051
 10
227.9608968214
 20
73.5807031258
 10
227.6191512941
 20
71.8488031095
 10
227.2060448595
 20
70.1651947287
 10
226.7224214702
 20
68.5333174988
 10
226.1692691411
 20
66.9565052515
 10
225.5477179308
 20
65.4379793239
 10
224.8590376328
 20
63.9808419774
 10
224.1046351814
 20
62.5880700602
 10
223.2860517777
 20
61.2625089254
 10
222.4049597406
 20
60.0068666185
 10
221.4631590907
 20
58.8237083448
 10
220.4625738727
 20
57.7154512288
 10
219.4052482249
 20
56.6843593763
 10
218.293342203
 20
55.732539249
 10
217.1291273673
 20
54.8619353607
 10
215.9149821421
 20
54.0743263054
 10
214.8602468696
 20
53.4790691378
  0
LWPOLYLINE
  5
184
330
1F
100
AcDbEntity
  8
0
  6
Continuous
 62
     7
370
    15
100
AcDbPolyline
 90
       70
 70
   128
 43
0.0
 10
184.7729936133
 20
142.1923751444
 10
185.0818208028
 20
142.3520157214
 10
186.3607413227
 20
142.9447337294
 10
187.6817144685
 20
143.4496307295
 10
189.0418793064
 20
143.8656132275
 10
190.4382900224
 20
144.1917802977
 10
191.8679223017
 20
144.4274255349
 10
193.3276798791
 20
144.5720385841
 10
194.8144012449
 20
144.6253062456
 10
196.3248664916
 20
144.5871131534
 10
197.8558042878
 20
144.4575420253
 10
199.4038989632
 20
144.2368734836
 10
200.9657976894
 20
143.9255854471
 10
202.5381177415
 20
143.5243520964
 10
204.1174538245
 20
143.0340424136
 10
205.7003854481
 20
142.4557183003
 10
207.2834843349
 20
141.7906322777
 10
208.8633218452
 20
141.0402247742
 10
210.4364764027
 20
140.2061210051
 10
211.999540905
 20
139.2901274536
 10
213.5491301025
 20
138.2942279577
 10
215.0818879299
 20
137.220579414
 10
216.5944947752
 20
136.0715071061
 10
218.0836746687
 20
134.8494996688
 10
219.5462023784
 20
133.557203698
 10
220.978910395
 20
132.1974180191
 10
222.3786957918
 20
130.7730876251
 10
223.7425269456
 20
129.2872972985
 10
225.0674501015
 20
127.7432649301
 10
226.3505957713
 20
126.1443345504
 10
227.5891849469
 20
124.4939690865
 10
228.7805351202
 20
122.7957428624
 10
229.9220660918
 20
121.0533338581
 10
231.01130556
 20
119.2705157433
 10
232.0458944745
 20
117.4511497053
 10
233.0235921462
 20
115.5991760856
 10
233.9422810996
 20
113.7186058468
 10
234.799971659
 20
111.8135118852
 10
235.5948062577
 20
109.8880202101
 10
236.3250634609
 20
107.9463010078
 10
236.9891616941
 20
105.9925596096
 10
237.5856626684
 20
104.0310273844
 10
238.1132744955
 20
102.0659525741
 10
238.5708544858
 20
100.1015910933
 10
238.9574116227
 20
98.1421973114
 10
239.2721087098
 20
96.1920148392
 10
239.5142641831
 20
94.2552673375
 10
239.6833535877
 20
92.3361493703
 10
239.7790107138
 20
90.4388173196
 10
239.8010283893
 20
88.5673803842
 10
239.7493589288
 20
86.7258916798
 10
239.6241142368
 20
84.9183394608
 10
239.4255655654
 20
83.1486384829
 10
239.1541429269
 20
81.4206215243
 10
238.8104341623
 20
79.738031085
 10
238.3951836682
 20
78.1045112811
 10
237.9092907847
 20
76.5235999528
 10
237.3538078475
 20
74.998721002
 10
236.7299379092
 20
73.533176977
 10
236.0390321329
 20
72.1301419198
 10
235.2825868668
 20
70.7926544919
 10
234.4622404029
 20
69.5236113933
 10
233.579769429
 20
68.3257610886
 10
232.6370851806
 20
67.2016978549
 10
231.6362293019
 20
66.153856163
 10
230.579369424
 20
65.1845054045
 10
229.4687944699
 20
64.2957449773
 10
228.3069096977
 20
63.4894997387
 10
227.0962314912
 20
62.7675158363
 10
226.7822374589
 20
62.5982583296
  0
LWPOLYLINE
  5
185
330
1F
100
AcDbEntity
  8
0
  6
Continuous
 62
     7
370
    15
100
AcDbPolyline
 90
       82
 70
   128
 43
0.0
 10
177.6645621597
 20
139.8068060561
 10
178.5254457775
 20
140.6922677276
 10
179.6103386944
 20
141.6839770005
 10
180.7486898586
 20
142.5954217917
 10
181.9381736838
 20
143.4247400717
 10
183.1763601227
 20
144.1702375909
 10
184.4607196313
 20
144.8303913405
 10
185.7886283368
 20
145.4038526642
 10
187.1573733978
 20
145.8894500133
 10
188.5641585466
 20
146.2861913405
 10
190.0061098016
 20
146.5932661257
 10
191.4802813391
 20
146.8100470329
 10
192.9836615112
 20
146.9360911911
 10
194.5131789983
 20
146.9711410992
 10
196.0657090837
 20
146.9151251524
 10
197.6380800375
 20
146.7681577879
 10
199.227079596
 20
146.5305392518
 10
200.829461524
 20
146.202754985
 10
202.4419522472
 20
145.7854746321
 10
204.0612575393
 20
145.2795506728
 10
205.6840692525
 20
144.6860166809
 10
207.3070720753
 20
144.0060852122
 10
208.9269503061
 20
143.2411453278
 10
210.5403946264
 20
142.3927597561
 10
212.1441088619
 20
141.4626617002
 10
213.7348167164
 20
140.4527512971
 10
215.3092684648
 20
139.3650917358
 10
216.8642475925
 20
138.2019050426
 10
218.3965773661
 20
136.9655675412
 10
219.9031273237
 20
135.6586049983
 10
221.3808196702
 20
134.2836874635
 10
222.8266355647
 20
132.8436238145
 10
224.2376212882
 20
131.3413560188
 10
225.6108942777
 20
129.7799531235
 10
226.9436490151
 20
128.1626049851
 10
228.233162759
 20
126.4926157534
 10
229.4768011066
 20
124.7733971205
 10
230.6720233761
 20
123.0084613517
 10
231.8163877968
 20
121.2014141096
 10
232.9075564977
 20
119.3559470881
 10
233.9433002839
 20
117.4758304707
 10
234.92150319
 20
115.5649052278
 10
235.8401668036
 20
113.6270752702
 10
236.6974143475
 20
111.6662994736
 10
237.4914945141
 20
109.6865835904
 10
238.2207850432
 20
107.6919720669
 10
238.883796036
 20
105.68653978
 10
239.4791729991
 20
103.674383713
 10
240.0056996113
 20
101.6596145855
 10
240.462300209
 20
99.6463484553
 10
240.8480419834
 20
97.6386983098
 10
241.1621368861
 20
95.6407656632
 10
241.4039432392
 20
93.6566321774
 10
241.5729670462
 20
91.6903513234
 10
241.6688630012
 20
89.7459401004
 10
241.6914351941
 20
87.827370829
 10
241.6406375113
 20
85.9385630364
 10
241.5165737296
 20
84.0833754486
 10
241.3194973042
 20
82.2655981076
 10
241.0498108508
 20
80.4889446283
 10
240.7080653236
 20
78.757044612
 10
240.2949588889
 20
77.0734362312
 10
239.8113354996
 20
75.4415590013
 10
239.2581831705
 20
73.864746754
 10
238.6366319603
 20
72.3462208264
 10
237.9479516622
 20
70.8890834799
 10
237.1935492109
 20
69.4963115627
 10
236.3749658071
 20
68.1707504279
 10
235.49387377
 20
66.915108121
 10
234.5520731201
 20
65.7319498473
 10
233.5514879021
 20
64.6236927313
 10
232.4941622543
 20
63.5926008789
 10
231.3822562324
 20
62.6407807515
 10
230.2180413968
 20
61.7701768633
 10
229.0038961715
 20
60.9825678079
 10
227.7423009858
 20
60.2795626257
 10
226.4358332062
 20
59.6625975159
 10
225.0871618717
 20
59.1329329029
 10
223.6990422405
 20
58.6916508611
 10
222.2743101614
 20
58.3396529045
 10
220.8158762804
 20
58.0776581447
 10
220.801754883
 20
58.0755859154
  0
LWPOLYLINE
  5
186
330
1F
100
AcDbEntity
  8
0
  6
Continuous
 62
     7
370
    15
100
AcDbPolyline
 90
       71
 70
   128
 43
0.0
 10
184.9149615761
 20
145.094146984
 10
185.7696110343
 20
145.5212154907
 10
187.0975197398
 20
146.0946768144
 10
188.4662648008
 20
146.5802741636
 10
189.8730499495
 20
146.9770154907
 10
191.3150012045
 20
147.284090276
 10
192.7891727421
 20
147.5008711832
 10
194.2925529141
 20
147.6269153413
 10
195.8220704012
 20
147.6619652495
 10
197.3746004866
 20
147.6059493026
 10
198.9469714405
 20
147.4589819382
 10
200.5359709989
 20
147.2213634021
 10
202.138352927
 20
146.8935791353
 10
203.7508436501
 20
146.4762987823
 10
205.3701489422
 20
145.9703748231
 10
206.9929606554
 20
145.3768408311
 10
208.6159634783
 20
144.6969093625
 10
210.235841709
 20
143.9319694781
 10
211.8492860294
 20
143.0835839064
 10
213.4530002649
 20
142.1534858505
 10
215.0437081194
 20
141.1435754473
 10
216.6181598678
 20
140.0559158861
 10
218.1731389954
 20
138.8927291929
 10
219.705468769
 20
137.6563916915
 10
221.2120187267
 20
136.3494291486
 10
222.6897110731
 20
134.9745116138
 10
224.1355269676
 20
133.5344479647
 10
225.5465126911
 20
132.0321801691
 10
226.9197856806
 20
130.4707772737
 10
228.2525404181
 20
128.8534291354
 10
229.5420541619
 20
127.1834399036
 10
230.7856925096
 20
125.4642212708
 10
231.980914779
 20
123.699285502
 10
233.1252791997
 20
121.8922382598
 10
234.2164479007
 20
120.0467712383
 10
235.2521916868
 20
118.1666546209
 10
236.2303945929
 20
116.255729378
 10
237.1490582065
 20
114.3178994205
 10
238.0063057504
 20
112.3571236238
 10
238.8003859171
 20
110.3774077407
 10
239.5296764462
 20
108.3827962171
 10
240.192687439
 20
106.3773639302
 10
240.788064402
 20
104.3652078632
 10
241.3145910142
 20
102.3504387357
 10
241.771191612
 20
100.3371726055
 10
242.1569333864
 20
98.32952246
 10
242.4710282891
 20
96.3315898134
 10
242.7128346422
 20
94.3474563276
 10
242.8818584492
 20
92.3811754737
 10
242.9777544041
 20
90.4367642506
 10
243.000326597
 20
88.5181949793
 10
242.9495289143
 20
86.6293871867
 10
242.8254651326
 20
84.7741995989
 10
242.6283887071
 20
82.9564222579
 10
242.3587022538
 20
81.1797687786
 10
242.0169567265
 20
79.4478687623
 10
241.6038502918
 20
77.7642603815
 10
241.1202269025
 20
76.1323831516
 10
240.5670745735
 20
74.5555709043
 10
239.9455233632
 20
73.0370449767
 10
239.2568430652
 20
71.5799076302
 10
238.5024406138
 20
70.1871357129
 10
237.6838572101
 20
68.8615745781
 10
236.802765173
 20
67.6059322712
 10
235.8609645231
 20
66.4227739975
 10
234.8603793051
 20
65.3145168816
 10
233.8030536573
 20
64.2834250291
 10
232.6911476354
 20
63.3316049018
 10
231.5269327997
 20
62.4610010135
 10
230.3127875744
 20
61.6733919582
 10
229.258052302
 20
61.0781347906
  0
LINE
  5
187
330
1F
100
AcDbEntity
  8
0
  6
Continuous
 62
     7
370
    15
100
AcDbLine
 10
181.7385777293
 20
98.7107192039
 30
0.0
 11
177.2023623069
 21
100.4301471389
 31
0.0
  0
LINE
  5
188
330
1F
100
AcDbEntity
  8
0
  6
Continuous
 62
     7
370
    15
100
AcDbLine
 10
177.2023623069
 20
100.4301471389
 30
0.0
 11
177.2305341009
 21
98.0356284295
 31
0.0
  0
LWPOLYLINE
  5
189
330
1F
100
AcDbEntity
  8
0
  6
Continuous
 62
     7
370
    15
100
AcDbPolyline
 90
       59
 70
   128
 43
0.0
 10
181.7667495233
 20
96.3162004945
 10
182.4704372703
 20
95.7475929762
 10
183.1466293794
 20
95.110321698
 10
183.7888491521
 20
94.4104905674
 10
184.3909452835
 20
93.6548027018
 10
184.9471507806
 20
92.8504962257
 10
185.4521381997
 20
92.0052749416
 10
185.901070674
 20
91.1272345423
 10
186.2896482414
 20
90.224785068
 10
186.6141490311
 20
89.3065703541
 10
186.8714649119
 20
88.3813852384
 10
187.0591312625
 20
87.4580913225
 10
187.1753505785
 20
86.5455320937
 10
187.2190096888
 20
85.6524482205
 10
187.189690418
 20
84.7873938326
 10
187.0876735917
 20
83.9586545879
 10
186.9139363468
 20
83.1741683109
 10
186.6701427723
 20
82.4414489626
 10
186.3586279699
 20
81.7675146703
 10
185.9823756886
 20
81.1588205067
 10
185.5449897454
 20
80.6211966622
 10
185.0506595072
 20
80.1597926015
 10
184.5041197646
 20
79.7790277419
 10
183.9106053806
 20
79.4825491227
 10
183.2758011506
 20
79.2731964734
 10
182.6057873521
 20
79.152975014
 10
181.9069815066
 20
79.1230362489
 10
181.1860769112
 20
79.1836669373
 10
180.4499785295
 20
79.3342863469
 10
179.7057368537
 20
79.5734518158
 10
178.9604803744
 20
79.898872571
 10
178.2213473019
 20
80.3074316697
 10
177.4954171955
 20
80.7952158539
 10
176.7896431538
 20
81.3575530327
 10
176.110785217
 20
81.989057032
 10
175.4653456172
 20
82.6836791845
 10
174.8595064997
 20
83.4347662652
 10
174.2990707084
 20
84.2351242171
 10
173.7894062055
 20
85.0770870572
 10
173.335394656
 20
85.9525903028
 10
172.9413846701
 20
86.853248215
 10
172.6111501517
 20
87.7704341184
 10
172.3478541505
 20
88.6953630293
 10
172.1540185666
 20
89.6191758001
 10
172.0314999946
 20
90.5330239737
 10
171.981471941
 20
91.428154536
 10
172.0044135842
 20
92.2959937536
 10
172.1001051846
 20
93.1282292951
 10
172.2676301898
 20
93.9168898476
 10
172.5053840127
 20
94.6544214683
 10
172.8110894015
 20
95.3337599368
 10
173.1818182509
 20
95.9483984183
 10
173.6140196483
 20
96.4924497866
 10
174.1035538855
 20
96.9607030128
 10
174.645732109
 20
97.3486730771
 10
175.2353612311
 20
97.6526439272
 10
175.8667936702
 20
97.8697040718
 10
176.5339814446
 20
97.9977744669
 10
177.2305341009
 20
98.0356284295
  0
LINE
  5
18A
330
1F
100
AcDbEntity
  8
0
  6
Continuous
 62
     7
370
    15
100
AcDbLine
 10
181.7667495233
 20
96.3162004945
 30
0.0
 11
181.7385777293
 21
98.7107192039
 31
0.0
  0
LWPOLYLINE
  5
18B
330
1F
100
AcDbEntity
  8
0
  6
Continuous
 62
     7
370
    15
100
AcDbPolyline
 90
       85
 70
   128
 43
0.0
 10
166.3691591619
 20
93.5938318757
 10
166.3924052226
 20
94.7484720911
 10
166.4895123222
 20
95.8686091861
 10
166.6599373986
 20
96.9479788999
 10
166.9027273655
 20
97.980544959
 10
167.2165244429
 20
98.9605328352
 10
167.5995737504
 20
99.8824620389
 10
168.0497331207
 20
100.7411767678
 10
168.5644850801
 20
101.531874741
 10
169.1409509269
 20
102.2501340547
 10
169.7759068302
 20
102.8919379113
 10
170.465801859
 20
103.4536970835
 10
171.2067778404
 20
103.932269986
 10
171.9946909363
 20
104.324980245
 10
172.8251348169
 20
104.6296316655
 10
173.6934653033
 20
104.8445205131
 10
174.594826339
 20
104.9684450423
 10
175.5241771477
 20
105.0007122168
 10
176.4763204225
 20
104.9411415855
 10
177.4459313922
 20
104.7900662914
 10
178.4275875987
 20
104.5483312091
 10
179.4157992224
 20
104.217288219
 10
180.4050397831
 20
103.7987886479
 10
181.3897770463
 20
103.295172915
 10
182.3645039617
 20
102.709257444
 10
183.323769461
 20
102.0443189118
 10
184.2622089425
 20
101.3040759243
 10
185.1745742719
 20
100.4926682206
 10
186.0557631322
 20
99.6146335218
 10
186.9008475579
 20
98.674882154
 10
187.705101494
 20
97.6786695882
 10
188.4640272263
 20
96.6315670489
 10
189.1733805343
 20
95.5394303585
 10
189.8291944265
 20
94.4083671882
 10
190.4278013255
 20
93.2447029022
 10
190.9658535789
 20
92.0549451832
 10
191.4403421802
 20
90.8457476388
 10
191.8486135966
 20
89.6238725924
 10
192.1883846087
 20
88.3961532647
 10
192.4577550792
 20
87.1694555603
 10
192.6552185793
 20
85.9506396703
 10
192.7796708129
 20
84.7465217077
 10
192.8304157926
 20
83.5638355884
 10
192.8071697319
 20
82.4091953729
 10
192.7100626322
 20
81.2890582779
 10
192.5396375558
 20
80.2096885641
 10
192.2968475889
 20
79.177122505
 10
191.9830505115
 20
78.1971346288
 10
191.6000012041
 20
77.2752054252
 10
191.1498418337
 20
76.4164906962
 10
190.6350898743
 20
75.625792723
 10
190.0586240275
 20
74.9075334093
 10
189.4236681242
 20
74.2657295527
 10
188.7337730955
 20
73.7039703805
 10
187.992797114
 20
73.225397478
 10
187.2048840182
 20
72.832687219
 10
186.3744401375
 20
72.5280357985
 10
185.5061096512
 20
72.3131469509
 10
184.6047486154
 20
72.1892224217
 10
183.6753978067
 20
72.1569552472
 10
182.7232545319
 20
72.2165258786
 10
181.7536435623
 20
72.3676011726
 10
180.7719873557
 20
72.6093362549
 10
179.783775732
 20
72.940379245
 10
178.7945351713
 20
73.3588788162
 10
177.8097979082
 20
73.862494549
 10
176.8350709928
 20
74.44841002
 10
175.8758054934
 20
75.1133485522
 10
174.9373660119
 20
75.8535915397
 10
174.0250006825
 20
76.6649992434
 10
173.1438118222
 20
77.5430339422
 10
172.2987273965
 20
78.48278531
 10
171.4944734604
 20
79.4789978759
 10
170.7355477281
 20
80.5261004151
 10
170.0261944202
 20
81.6182371055
 10
169.370380528
 20
82.7493002758
 10
168.7717736289
 20
83.9129645618
 10
168.2337213755
 20
85.1027222809
 10
167.7592327743
 20
86.3119198252
 10
167.3509613579
 20
87.5337948717
 10
167.0111903457
 20
88.7615141993
 10
166.7418198752
 20
89.9882119037
 10
166.5443563751
 20
91.2070277937
 10
166.4199041416
 20
92.4111457564
 10
166.3691591619
 20
93.5938318757
  0
SPLINE
  5
18C
330
1F
100
AcDbEntity
  8
0
  6
Continuous
 62
     7
370
    15
100
AcDbSpline
210
0.0
220
0.0
230
1.0
 70
     8
 71
     3
 72
     8
 73
     4
 74
     0
 42
0.00000001
 43
0.00000001
 12
1.0
 22
0.0
 32
0.0
 13
1.0
 23
0.0
 33
0.0
 40
0.0
 40
0.0
 40
0.0
 40
0.0
 40
0.0011695832438444
 40
0.0011695832438444
 40
0.0011695832438444
 40
0.0011695832438444
 10
177.2305341009403
 20
98.03562842947022
 30
0.0
 10
177.4509776543422
 20
97.97056780931128
 30
0.0
 10
177.6712634737225
 20
97.9050550486344
 30
0.0
 10
177.8913570265239
 20
97.8389954205849
 30
0.0
  0
LWPOLYLINE
  5
18D
330
1F
100
AcDbEntity
  8
0
  6
Continuous
 62
     7
370
    15
100
AcDbPolyline
 90
       41
 70
   128
 43
0.0
 10
177.8913570265
 20
97.8389954206
 10
177.221241645
 20
97.7839809614
 10
176.5818716383
 20
97.6391555435
 10
175.9797282873
 20
97.4059872593
 10
175.4209155072
 20
97.0868397309
 10
174.9110979721
 20
96.6849481505
 10
174.4554436921
 20
96.2043864852
 10
174.0585716256
 20
95.6500261788
 10
173.7245048569
 20
95.0274867707
 10
173.456629814
 20
94.3430789307
 10
173.257661941
 20
93.6037404872
 10
173.1296181713
 20
92.8169660994
 10
173.0737964819
 20
91.9907312835
 10
173.0907627363
 20
91.1334115655
 10
173.1803449478
 20
90.2536975781
 10
173.3416350233
 20
89.3605069647
 10
173.5729979687
 20
88.4628939806
 10
173.8720884623
 20
87.5699577108
 10
174.2358746297
 20
86.6907498324
 10
174.6606687778
 20
85.8341828582
 10
175.1421647768
 20
85.0089397906
 10
175.6754817113
 20
84.2233861021
 10
176.2552133582
 20
83.4854849347
 10
176.8754829894
 20
82.8027163779
 10
177.5300029439
 20
82.182001643
 10
178.2121383661
 20
81.6296329028
 10
178.9149744626
 20
81.1512095084
 10
179.6313865981
 20
80.751581228
 10
180.354112517
 20
80.4347990856
 10
181.075825961
 20
80.2040742955
 10
181.7892109354
 20
80.0617457103
 10
182.4870358708
 20
80.009256112
 10
183.1622269298
 20
80.0471375866
 10
183.807939714
 20
80.1750061304
 10
184.417628646
 20
80.3915655425
 10
184.985113321
 20
80.6946205644
 10
185.5046411583
 20
81.0810991334
 10
185.9709457145
 20
81.547083524
 10
186.3793000696
 20
82.0878500617
 10
186.7255647437
 20
82.6979170068
 10
186.8657594216
 20
83.0066694638
  0
LINE
  5
18E
330
1F
100
AcDbEntity
  8
0
  6
Continuous
 62
     7
370
    15
100
AcDbLine
 10
180.460715823
 20
99.195085852
 30
0.0
 11
177.8913570265
 21
97.8389954206
 31
0.0
  0
ENDSEC
  0
SECTION
  2
OBJECTS
  0
DICTIONARY
  5
C
330
0
100
AcDbDictionary
281
     1
  3
ACAD_GROUP
350
D
  3
ACAD_LAYOUT
350
1A
  3
ACAD_MLINESTYLE
350
17
  3
ACAD_PLOTSETTINGS
350
19
  3
ACAD_PLOTSTYLENAME
350
E
  0
DICTIONARY
  5
D
102
{ACAD_REACTORS
330
C
102
}
330
C
100
AcDbDictionary
281
     1
  0
DICTIONARY
  5
1A
102
{ACAD_REACTORS
330
C
102
}
330
C
100
AcDbDictionary
281
     1
  3
Layout1
350
1E
  3
Layout2
350
26
  3
Model
350
22
  0
DICTIONARY
  5
17
102
{ACAD_REACTORS
330
C
102
}
330
C
100
AcDbDictionary
281
     1
  3
Standard
350
18
  0
DICTIONARY
  5
19
102
{ACAD_REACTORS
330
C
102
}
330
C
100
AcDbDictionary
281
     1
  0
ACDBDICTIONARYWDFLT
  5
E
102
{ACAD_REACTORS
330
C
102
}
330
C
100
AcDbDictionary
281
     1
  3
Normal
350
F
100
AcDbDictionaryWithDefault
340
F
  0
LAYOUT
  5
1E
102
{ACAD_REACTORS
330
1A
102
}
330
1A
100
AcDbPlotSettings
  1

  2
none_device
  4

  6

 40
0.0
 41
0.0
 42
0.0
 43
0.0
 44
0.0
 45
0.0
 46
0.0
 47
0.0
 48
0.0
 49
0.0
140
0.0
141
0.0
142
1.0
143
1.0
 70
   688
 72
     0
 73
     0
 74
     5
  7

 75
    16
147
1.0
148
0.0
149
0.0
100
AcDbLayout
  1
Layout1
 70
     1
 71
     1
 10
0.0
 20
0.0
 11
420.0
 21
297.0
 12
0.0
 22
0.0
 32
0.0
 14
1.0000000000E+20
 24
1.0000000000E+20
 34
1.0000000000E+20
 15
-1.0000000000E+20
 25
-1.0000000000E+20
 35
-1.0000000000E+20
146
0.0
 13
0.0
 23
0.0
 33
0.0
 16
1.0
 26
0.0
 36
0.0
 17
0.0
 27
1.0
 37
0.0
 76
     0
330
1B
  0
LAYOUT
  5
26
102
{ACAD_REACTORS
330
1A
102
}
330
1A
100
AcDbPlotSettings
  1

  2
none_device
  4

  6

 40
0.0
 41
0.0
 42
0.0
 43
0.0
 44
0.0
 45
0.0
 46
0.0
 47
0.0
 48
0.0
 49
0.0
140
0.0
141
0.0
142
1.0
143
1.0
 70
   688
 72
     0
 73
     0
 74
     5
  7

 75
    16
147
1.0
148
0.0
149
0.0
100
AcDbLayout
  1
Layout2
 70
     1
 71
     2
 10
0.0
 20
0.0
 11
0.0
 21
0.0
 12
0.0
 22
0.0
 32
0.0
 14
0.0
 24
0.0
 34
0.0
 15
0.0
 25
0.0
 35
0.0
146
0.0
 13
0.0
 23
0.0
 33
0.0
 16
1.0
 26
0.0
 36
0.0
 17
0.0
 27
1.0
 37
0.0
 76
     0
330
23
  0
LAYOUT
  5
22
102
{ACAD_REACTORS
330
1A
102
}
330
1A
100
AcDbPlotSettings
  1

  2
none_device
  4

  6

 40
0.0
 41
0.0
 42
0.0
 43
0.0
 44
0.0
 45
0.0
 46
0.0
 47
0.0
 48
0.0
 49
0.0
140
0.0
141
0.0
142
1.0
143
1.0
 70
  1712
 72
     0
 73
     0
 74
     0
  7

 75
     0
147
1.0
148
0.0
149
0.0
100
AcDbLayout
  1
Model
 70
     1
 71
     0
 10
0.0
 20
0.0
 11
594.0
 21
420.0
 12
0.0
 22
0.0
 32
0.0
 14
0.0
 24
0.0
 34
0.0
 15
594.0
 25
420.0
 35
0.0
146
0.0
 13
0.0
 23
0.0
 33
0.0
 16
1.0
 26
0.0
 36
0.0
 17
0.0
 27
1.0
 37
0.0
 76
     0
330
1F
331
29
  0
MLINESTYLE
  5
18
102
{ACAD_REACTORS
330
17
102
}
330
17
100
AcDbMlineStyle
  2
Standard
 70
     0
  3

 62
   256
 51
90.0
 52
90.0
 71
     2
 49
0.5
 62
   256
  6
BYLAYER
 49
-0.5
 62
   256
  6
BYLAYER
  0
ACDBPLACEHOLDER
  5
F
102
{ACAD_REACTORS
330
E
102
}
330
E
  0
ENDSEC
  0
EOF
