  0
SECTION
  2
HEADER
  9
$ACADVER
  1
AC1014
  9
$ACADMAINTVER
 70
     9
  9
$DWGCODEPAGE
  3
ANSI_1251
  9
$INSBASE
 10
0.0
 20
0.0
 30
0.0
  9
$EXTMIN
 10
-1.410438
 20
-3.064086
 30
0.0
  9
$EXTMAX
 10
108.368526
 20
88.969363
 30
0.0
  9
$LIMMIN
 10
0.0
 20
0.0
  9
$LIMMAX
 10
420.0
 20
297.0
  9
$ORTHOMODE
 70
     0
  9
$REGENMODE
 70
     1
  9
$FILLMODE
 70
     1
  9
$QTEXTMODE
 70
     0
  9
$MIRRTEXT
 70
     0
  9
$DRAGMODE
 70
     2
  9
$LTSCALE
 40
1.0
  9
$OSMODE
 70
    37
  9
$ATTMODE
 70
     1
  9
$TEXTSIZE
 40
2.5
  9
$TRACEWID
 40
1.0
  9
$TEXTSTYLE
  7
STANDARD
  9
$CLAYER
  8
0
  9
$CELTYPE
  6
BYLAYER
  9
$CECOLOR
 62
   256
  9
$CELTSCALE
 40
1.0
  9
$DELOBJ
 70
     1
  9
$DISPSILH
 70
     0
  9
$DIMSCALE
 40
1.0
  9
$DIMASZ
 40
2.5
  9
$DIMEXO
 40
0.5
  9
$DIMDLI
 40
6.0
  9
$DIMRND
 40
0.0
  9
$DIMDLE
 40
0.0
  9
$DIMEXE
 40
0.0
  9
$DIMTP
 40
0.0
  9
$DIMTM
 40
0.0
  9
$DIMTXT
 40
2.5
  9
$DIMCEN
 40
2.5
  9
$DIMTSZ
 40
0.0
  9
$DIMTOL
 70
     0
  9
$DIMLIM
 70
     0
  9
$DIMTIH
 70
     0
  9
$DIMTOH
 70
     1
  9
$DIMSE1
 70
     0
  9
$DIMSE2
 70
     0
  9
$DIMTAD
 70
     0
  9
$DIMZIN
 70
     0
  9
$DIMBLK
  1

  9
$DIMASO
 70
     1
  9
$DIMSHO
 70
     1
  9
$DIMPOST
  1

  9
$DIMAPOST
  1

  9
$DIMALT
 70
     0
  9
$DIMALTD
 70
     2
  9
$DIMALTF
 40
25.4
  9
$DIMLFAC
 40
1.0
  9
$DIMTOFL
 70
     0
  9
$DIMTVP
 40
0.0
  9
$DIMTIX
 70
     0
  9
$DIMSOXD
 70
     0
  9
$DIMSAH
 70
     0
  9
$DIMBLK1
  1

  9
$DIMBLK2
  1

  9
$DIMSTYLE
  2
STANDARD
  9
$DIMCLRD
 70
     0
  9
$DIMCLRE
 70
     0
  9
$DIMCLRT
 70
     0
  9
$DIMTFAC
 40
1.0
  9
$DIMGAP
 40
1.0
  9
$DIMJUST
 70
     0
  9
$DIMSD1
 70
     0
  9
$DIMSD2
 70
     0
  9
$DIMTOLJ
 70
     1
  9
$DIMTZIN
 70
     0
  9
$DIMALTZ
 70
     0
  9
$DIMALTTZ
 70
     0
  9
$DIMFIT
 70
     5
  9
$DIMUPT
 70
     0
  9
$DIMUNIT
 70
     2
  9
$DIMDEC
 70
     4
  9
$DIMTDEC
 70
     4
  9
$DIMALTU
 70
     2
  9
$DIMALTTD
 70
     2
  9
$DIMTXSTY
  7
STANDARD
  9
$DIMAUNIT
 70
     0
  9
$LUNITS
 70
     2
  9
$LUPREC
 70
     4
  9
$SKETCHINC
 40
1.0
  9
$FILLETRAD
 40
0.0
  9
$AUNITS
 70
     0
  9
$AUPREC
 70
     0
  9
$MENU
  1
.
  9
$ELEVATION
 40
0.0
  9
$PELEVATION
 40
0.0
  9
$THICKNESS
 40
0.0
  9
$LIMCHECK
 70
     0
  9
$CHAMFERA
 40
0.0
  9
$CHAMFERB
 40
0.0
  9
$CHAMFERC
 40
0.0
  9
$CHAMFERD
 40
0.0
  9
$SKPOLY
 70
     0
  9
$TDCREATE
 40
2454082.950050035
  9
$TDUPDATE
 40
2457736.347875359
  9
$TDINDWG
 40
0.0105753588
  9
$TDUSRTIMER
 40
0.010575162
  9
$USRTIMER
 70
     1
  9
$ANGBASE
 50
0.0
  9
$ANGDIR
 70
     0
  9
$PDMODE
 70
     0
  9
$PDSIZE
 40
0.0
  9
$PLINEWID
 40
0.0
  9
$COORDS
 70
     1
  9
$SPLFRAME
 70
     0
  9
$SPLINETYPE
 70
     6
  9
$SPLINESEGS
 70
     8
  9
$ATTDIA
 70
     0
  9
$ATTREQ
 70
     1
  9
$HANDLING
 70
     1
  9
$HANDSEED
  5
B3F
  9
$SURFTAB1
 70
     6
  9
$SURFTAB2
 70
     6
  9
$SURFTYPE
 70
     6
  9
$SURFU
 70
     6
  9
$SURFV
 70
     6
  9
$UCSNAME
  2

  9
$UCSORG
 10
0.0
 20
0.0
 30
0.0
  9
$UCSXDIR
 10
1.0
 20
0.0
 30
0.0
  9
$UCSYDIR
 10
0.0
 20
1.0
 30
0.0
  9
$PUCSNAME
  2

  9
$PUCSORG
 10
0.0
 20
0.0
 30
0.0
  9
$PUCSXDIR
 10
1.0
 20
0.0
 30
0.0
  9
$PUCSYDIR
 10
0.0
 20
1.0
 30
0.0
  9
$USERI1
 70
     0
  9
$USERI2
 70
     0
  9
$USERI3
 70
     0
  9
$USERI4
 70
     0
  9
$USERI5
 70
     0
  9
$USERR1
 40
0.0
  9
$USERR2
 40
0.0
  9
$USERR3
 40
0.0
  9
$USERR4
 40
0.0
  9
$USERR5
 40
0.0
  9
$WORLDVIEW
 70
     1
  9
$SHADEDGE
 70
     3
  9
$SHADEDIF
 70
    70
  9
$TILEMODE
 70
     1
  9
$MAXACTVP
 70
    64
  9
$PINSBASE
 10
0.0
 20
0.0
 30
0.0
  9
$PLIMCHECK
 70
     0
  9
$PEXTMIN
 10
0.0
 20
0.0
 30
0.0
  9
$PEXTMAX
 10
0.0
 20
0.0
 30
0.0
  9
$PLIMMIN
 10
-20.0
 20
-7.5
  9
$PLIMMAX
 10
277.0
 20
202.5
  9
$UNITMODE
 70
     0
  9
$VISRETAIN
 70
     1
  9
$PLINEGEN
 70
     0
  9
$PSLTSCALE
 70
     0
  9
$TREEDEPTH
 70
  3020
  9
$PICKSTYLE
 70
     1
  9
$CMLSTYLE
  2
STANDARD
  9
$CMLJUST
 70
     0
  9
$CMLSCALE
 40
20.0
  9
$PROXYGRAPHICS
 70
     1
  9
$MEASUREMENT
 70
     1
  0
ENDSEC
  0
SECTION
  2
CLASSES
  0
CLASS
  1
ACDBDICTIONARYWDFLT
  2
AcDbDictionaryWithDefault
  3
ObjectDBX Classes
 90
        0
280
     0
281
     0
  0
CLASS
  1
ACDBPLACEHOLDER
  2
AcDbPlaceHolder
  3
ObjectDBX Classes
 90
        0
280
     0
281
     0
  0
CLASS
  1
LAYOUT
  2
AcDbLayout
  3
ObjectDBX Classes
 90
        0
280
     0
281
     0
  0
CLASS
  1
DICTIONARYVAR
  2
AcDbDictionaryVar
  3
ObjectDBX Classes
 90
        0
280
     0
281
     0
  0
CLASS
  1
TABLESTYLE
  2
AcDbTableStyle
  3
ObjectDBX Classes
 90
     4095
280
     0
281
     0
  0
CLASS
  1
MATERIAL
  2
AcDbMaterial
  3
ObjectDBX Classes
 90
     1153
280
     0
281
     0
  0
CLASS
  1
VISUALSTYLE
  2
AcDbVisualStyle
  3
ObjectDBX Classes
 90
     4095
280
     0
281
     0
  0
CLASS
  1
SCALE
  2
AcDbScale
  3
ObjectDBX Classes
 90
     1153
280
     0
281
     0
  0
CLASS
  1
MLEADERSTYLE
  2
AcDbMLeaderStyle
  3
ACDB_MLEADERSTYLE_CLASS
 90
     4095
280
     0
281
     0
  0
CLASS
  1
CELLSTYLEMAP
  2
AcDbCellStyleMap
  3
ObjectDBX Classes
 90
     1152
280
     0
281
     0
  0
CLASS
  1
EXACXREFPANELOBJECT
  2
ExAcXREFPanelObject
  3
EXAC_ESW
 90
     1025
280
     1
281
     0
  0
CLASS
  1
NPOCOLLECTION
  2
AcDbImpNonPersistentObjectsCollection
  3
ObjectDBX Classes
 90
     1153
280
     1
281
     0
  0
CLASS
  1
LAYER_INDEX
  2
AcDbLayerIndex
  3
ObjectDBX Classes
 90
        0
280
     0
281
     0
  0
CLASS
  1
SPATIAL_INDEX
  2
AcDbSpatialIndex
  3
AutoCAD 2000
 90
        0
280
     0
281
     0
  0
CLASS
  1
IDBUFFER
  2
AcDbIdBuffer
  3
ObjectDBX Classes
 90
        0
280
     0
281
     0
  0
CLASS
  1
Wall
  2
PtDbWall
  3
NanoSPDS
 90
      893
280
     1
281
     1
  0
CLASS
  1
SORTENTSTABLE
  2
AcDbSortentsTable
  3
ObjectDBX Classes
 90
        0
280
     0
281
     0
  0
CLASS
  1
Format
  2
mcsDbObjectFormat
  3
NanoSPDS
 90
      893
280
     1
281
     1
  0
CLASS
  1
NOTEPOSITION
  2
mcsDbObjectNotePosition
  3
NanoSPDS
 90
      893
280
     0
281
     1
  0
CLASS
  1
mcsDbObject
  2
mcsDbObject
  3
NanoSPDS
 90
      893
280
     0
281
     1
  0
CLASS
  1
McDbContainer2
  2
McDbContainer2
  3
NanoSPDS
 90
      893
280
     0
281
     0
  0
CLASS
  1
spdsLevelMark
  2
mcsDbObjectLevelMark
  3
NanoSPDS
 90
      893
280
     1
281
     1
  0
CLASS
  1
spdsRelationMark
  2
mcsDbObjectRelationMark
  3
NanoSPDS
 90
      893
280
     1
281
     1
  0
CLASS
  1
LAYOUTPRINTCONFIG
  2
CAcLayoutPrintConfig
  3
"CSD_APP"
 90
     4095
280
     0
281
     1
  0
CLASS
  1
SUN
  2
AcDbSun
  3
SCENEOE
 90
     1153
280
     0
281
     0
  0
CLASS
  1
XRECORD
  2
AcDbXrecord
  3
ObjectDBX Classes
 90
        0
280
     0
281
     0
  0
CLASS
  1
LWPOLYLINE
  2
AcDbPolyline
  3
ObjectDBX Classes
 90
        0
280
     0
281
     1
  0
CLASS
  1
HATCH
  2
AcDbHatch
  3
ObjectDBX Classes
 90
        0
280
     0
281
     1
  0
ENDSEC
  0
SECTION
  2
TABLES
  0
TABLE
  2
VPORT
  5
8
102
{ACAD_XDICTIONARY
360
B37
102
}
330
0
100
AcDbSymbolTable
 70
     1
  0
VPORT
  5
EA
330
8
100
AcDbSymbolTableRecord
100
AcDbViewportTableRecord
  2
*ACTIVE
 70
     0
 10
0.0
 20
0.0
 11
1.0
 21
1.0
 12
-156.520956
 22
-105.547362
 13
0.0
 23
0.0
 14
10.0
 24
10.0
 15
10.0
 25
10.0
 16
0.0
 26
0.0
 36
1.0
 17
210.0
 27
148.5
 37
0.0
 40
93.874118
 41
1.833116
 42
50.0
 43
0.0
 44
0.0
 50
0.0
 51
0.0
 71
    16
 72
  1000
 73
     1
 74
     3
 75
     0
 76
     0
 77
     0
 78
     0
  0
ENDTAB
  0
TABLE
  2
LTYPE
  5
5
330
0
100
AcDbSymbolTable
 70
     1
  0
LTYPE
  5
14
330
5
100
AcDbSymbolTableRecord
100
AcDbLinetypeTableRecord
  2
BYBLOCK
 70
     0
  3

 72
    65
 73
     0
 40
0.0
  0
LTYPE
  5
15
330
5
100
AcDbSymbolTableRecord
100
AcDbLinetypeTableRecord
  2
BYLAYER
 70
     0
  3

 72
    65
 73
     0
 40
0.0
  0
LTYPE
  5
16
330
5
100
AcDbSymbolTableRecord
100
AcDbLinetypeTableRecord
  2
CONTINUOUS
 70
     0
  3
Solid line
 72
    65
 73
     0
 40
0.0
  0
ENDTAB
  0
TABLE
  2
LAYER
  5
2
330
0
100
AcDbSymbolTable
 70
     5
  0
LAYER
  5
10
330
2
100
AcDbSymbolTableRecord
100
AcDbLayerTableRecord
  2
0
 70
     0
 62
     7
  6
CONTINUOUS
  0
LAYER
  5
22D
330
2
100
AcDbSymbolTableRecord
100
AcDbLayerTableRecord
  2
DEFPOINTS
 70
     0
 62
     7
  6
CONTINUOUS
  0
LAYER
  5
3A6
330
2
100
AcDbSymbolTableRecord
100
AcDbLayerTableRecord
  2
DETOURAGE
 70
     0
 62
     6
  6
CONTINUOUS
  0
LAYER
  5
3A8
330
2
100
AcDbSymbolTableRecord
100
AcDbLayerTableRecord
  2
AXES
 70
     0
 62
     4
  6
CONTINUOUS
  0
LAYER
  5
3FD
330
2
100
AcDbSymbolTableRecord
100
AcDbLayerTableRecord
  2
DIMENSION
 70
     0
 62
     3
  6
CONTINUOUS
  0
ENDTAB
  0
TABLE
  2
STYLE
  5
3
330
0
100
AcDbSymbolTable
 70
     2
  0
STYLE
  5
11
330
3
100
AcDbSymbolTableRecord
100
AcDbTextStyleTableRecord
  2
STANDARD
 70
     0
 40
0.0
 41
1.0
 50
0.0
 71
     0
 42
2.5
  3
txt.shx
  4

  0
STYLE
  5
1E3
330
3
100
AcDbSymbolTableRecord
100
AcDbTextStyleTableRecord
  2

 70
     1
 40
0.0
 41
1.0
 50
0.0
 71
     0
 42
0.2
  3
GOST 2.303-68.shx
  4

  0
ENDTAB
  0
TABLE
  2
VIEW
  5
6
330
0
100
AcDbSymbolTable
 70
     0
  0
ENDTAB
  0
TABLE
  2
UCS
  5
7
330
0
100
AcDbSymbolTable
 70
     0
  0
ENDTAB
  0
TABLE
  2
APPID
  5
9
330
0
100
AcDbSymbolTable
 70
    16
  0
APPID
  5
12
330
9
100
AcDbSymbolTableRecord
100
AcDbRegAppTableRecord
  2
ACAD
 70
     0
  0
APPID
  5
9E
330
9
100
AcDbSymbolTableRecord
100
AcDbRegAppTableRecord
  2
ACAD_PSEXT
 70
     0
  0
APPID
  5
133
330
9
100
AcDbSymbolTableRecord
100
AcDbRegAppTableRecord
  2
ACADANNOPO
 70
     0
  0
APPID
  5
134
330
9
100
AcDbSymbolTableRecord
100
AcDbRegAppTableRecord
  2
ACADANNOTATIVE
 70
     0
  0
APPID
  5
135
330
9
100
AcDbSymbolTableRecord
100
AcDbRegAppTableRecord
  2
ACAD_DSTYLE_DIMJAG
 70
     0
  0
APPID
  5
136
330
9
100
AcDbSymbolTableRecord
100
AcDbRegAppTableRecord
  2
ACAD_DSTYLE_DIMTALN
 70
     0
  0
APPID
  5
165
330
9
100
AcDbSymbolTableRecord
100
AcDbRegAppTableRecord
  2
ACAD_MLEADERVER
 70
     0
  0
APPID
  5
1E1
330
9
100
AcDbSymbolTableRecord
100
AcDbRegAppTableRecord
  2
MCS_DIM1
 70
     0
  0
APPID
  5
1E2
330
9
100
AcDbSymbolTableRecord
100
AcDbRegAppTableRecord
  2
MCSXDATA5
 70
     0
  0
APPID
  5
209
330
9
100
AcDbSymbolTableRecord
100
AcDbRegAppTableRecord
  2
MCS_PARAMS_DATA
 70
     0
  0
APPID
  5
20C
330
9
100
AcDbSymbolTableRecord
100
AcDbRegAppTableRecord
  2
MCS_PARAMS_HIDDEN_DATA
 70
     0
  0
APPID
  5
34D
330
9
100
AcDbSymbolTableRecord
100
AcDbRegAppTableRecord
  2
MCS_DOCUMENT_ID
 70
     0
  0
APPID
  5
353
330
9
100
AcDbSymbolTableRecord
100
AcDbRegAppTableRecord
  2
MCSUBENTIDENTIFICATION
 70
     0
  0
APPID
  5
355
330
9
100
AcDbSymbolTableRecord
100
AcDbRegAppTableRecord
  2
MC_VERSION_DATA
 70
     0
  0
APPID
  5
3EE
330
9
100
AcDbSymbolTableRecord
100
AcDbRegAppTableRecord
  2
ACAD_DSTYLE_DIMRADIAL_EXTE
 70
     0
  0
APPID
  5
5F2
330
9
100
AcDbSymbolTableRecord
100
AcDbRegAppTableRecord
  2
ACAD_DSTYLE_DIMRADIAL_EXT0
 70
     0
  0
ENDTAB
  0
TABLE
  2
DIMSTYLE
  5
A
330
0
100
AcDbSymbolTable
 70
     1
  0
DIMSTYLE
105
1B0
102
{ACAD_REACTORS
330
431
330
5F1
330
654
330
76B
330
7B0
330
8E1
330
91B
330
94F
330
982
330
992
330
9A5
330
9B7
330
9EE
330
A11
102
}
330
A
100
AcDbSymbolTableRecord
100
AcDbDimStyleTableRecord
  2
STANDARD
 70
     0
  3

  4

  5

  6

  7

 40
100.0
 41
2.5
 42
0.5
 43
6.0
 44
0.0
 45
0.0
 46
0.0
 47
0.0
 48
0.0
140
2.5
141
2.5
142
0.0
143
25.4
144
1.0
145
0.0
146
1.0
147
1.0
 71
     0
 72
     0
 73
     0
 74
     1
 75
     0
 76
     0
 77
     0
 78
     0
170
     0
171
     2
172
     0
173
     0
174
     0
175
     0
176
     0
177
     0
178
     0
270
     2
271
     4
272
     4
273
     2
274
     2
340
11
275
     0
280
     0
281
     0
282
     0
283
     1
284
     0
285
     0
286
     0
287
     3
288
     0
  0
ENDTAB
  0
TABLE
  2
BLOCK_RECORD
  5
1
330
0
100
AcDbSymbolTable
 70
    41
  0
BLOCK_RECORD
  5
1F
102
{ACAD_XDICTIONARY
360
234
102
}
330
1
100
AcDbSymbolTableRecord
100
AcDbBlockTableRecord
  2
*MODEL_SPACE
  0
BLOCK_RECORD
  5
D6
330
1
100
AcDbSymbolTableRecord
100
AcDbBlockTableRecord
  2
*PAPER_SPACE
  0
BLOCK_RECORD
  5
1EC
330
1
100
AcDbSymbolTableRecord
100
AcDbBlockTableRecord
  2
_ARCHTICK
  0
BLOCK_RECORD
  5
1F4
330
1
100
AcDbSymbolTableRecord
100
AcDbBlockTableRecord
  2
_OPEN30
  0
BLOCK_RECORD
  5
1FC
330
1
100
AcDbSymbolTableRecord
100
AcDbBlockTableRecord
  2
_DOT
  0
BLOCK_RECORD
  5
3EF
330
1
100
AcDbSymbolTableRecord
100
AcDbBlockTableRecord
  2
*D3
  0
BLOCK_RECORD
  5
3FA
330
1
100
AcDbSymbolTableRecord
100
AcDbBlockTableRecord
  2
_NONE
  0
BLOCK_RECORD
  5
432
330
1
100
AcDbSymbolTableRecord
100
AcDbBlockTableRecord
  2
*D5
  0
BLOCK_RECORD
  5
509
330
1
100
AcDbSymbolTableRecord
100
AcDbBlockTableRecord
  2
*D6
  0
BLOCK_RECORD
  5
587
330
1
100
AcDbSymbolTableRecord
100
AcDbBlockTableRecord
  2
*D7
  0
BLOCK_RECORD
  5
59C
330
1
100
AcDbSymbolTableRecord
100
AcDbBlockTableRecord
  2
*D8
  0
BLOCK_RECORD
  5
5B0
330
1
100
AcDbSymbolTableRecord
100
AcDbBlockTableRecord
  2
*D9
  0
BLOCK_RECORD
  5
5F3
330
1
100
AcDbSymbolTableRecord
100
AcDbBlockTableRecord
  2
*D10
  0
BLOCK_RECORD
  5
655
330
1
100
AcDbSymbolTableRecord
100
AcDbBlockTableRecord
  2
*D11
  0
BLOCK_RECORD
  5
6FB
330
1
100
AcDbSymbolTableRecord
100
AcDbBlockTableRecord
  2
*D12
  0
BLOCK_RECORD
  5
76C
330
1
100
AcDbSymbolTableRecord
100
AcDbBlockTableRecord
  2
*D13
  0
BLOCK_RECORD
  5
7B1
330
1
100
AcDbSymbolTableRecord
100
AcDbBlockTableRecord
  2
*D14
  0
BLOCK_RECORD
  5
81C
330
1
100
AcDbSymbolTableRecord
100
AcDbBlockTableRecord
  2
*D15
  0
BLOCK_RECORD
  5
859
330
1
100
AcDbSymbolTableRecord
100
AcDbBlockTableRecord
  2
*D16
  0
BLOCK_RECORD
  5
86A
330
1
100
AcDbSymbolTableRecord
100
AcDbBlockTableRecord
  2
*D17
  0
BLOCK_RECORD
  5
87C
330
1
100
AcDbSymbolTableRecord
100
AcDbBlockTableRecord
  2
*D18
  0
BLOCK_RECORD
  5
88C
330
1
100
AcDbSymbolTableRecord
100
AcDbBlockTableRecord
  2
*D19
  0
BLOCK_RECORD
  5
89E
330
1
100
AcDbSymbolTableRecord
100
AcDbBlockTableRecord
  2
*D20
  0
BLOCK_RECORD
  5
8AE
330
1
100
AcDbSymbolTableRecord
100
AcDbBlockTableRecord
  2
*D21
  0
BLOCK_RECORD
  5
8C0
330
1
100
AcDbSymbolTableRecord
100
AcDbBlockTableRecord
  2
*D22
  0
BLOCK_RECORD
  5
8D0
330
1
100
AcDbSymbolTableRecord
100
AcDbBlockTableRecord
  2
*D23
  0
BLOCK_RECORD
  5
8E2
330
1
100
AcDbSymbolTableRecord
100
AcDbBlockTableRecord
  2
*D24
  0
BLOCK_RECORD
  5
8F2
330
1
100
AcDbSymbolTableRecord
100
AcDbBlockTableRecord
  2
*D25
  0
BLOCK_RECORD
  5
908
330
1
100
AcDbSymbolTableRecord
100
AcDbBlockTableRecord
  2
*D26
  0
BLOCK_RECORD
  5
91C
330
1
100
AcDbSymbolTableRecord
100
AcDbBlockTableRecord
  2
*D27
  0
BLOCK_RECORD
  5
92C
330
1
100
AcDbSymbolTableRecord
100
AcDbBlockTableRecord
  2
*D28
  0
BLOCK_RECORD
  5
93E
330
1
100
AcDbSymbolTableRecord
100
AcDbBlockTableRecord
  2
*D29
  0
BLOCK_RECORD
  5
950
330
1
100
AcDbSymbolTableRecord
100
AcDbBlockTableRecord
  2
*D30
  0
BLOCK_RECORD
  5
960
330
1
100
AcDbSymbolTableRecord
100
AcDbBlockTableRecord
  2
*D31
  0
BLOCK_RECORD
  5
971
330
1
100
AcDbSymbolTableRecord
100
AcDbBlockTableRecord
  2
*D32
  0
BLOCK_RECORD
  5
983
330
1
100
AcDbSymbolTableRecord
100
AcDbBlockTableRecord
  2
*D33
  0
BLOCK_RECORD
  5
993
330
1
100
AcDbSymbolTableRecord
100
AcDbBlockTableRecord
  2
*D34
  0
BLOCK_RECORD
  5
9A6
330
1
100
AcDbSymbolTableRecord
100
AcDbBlockTableRecord
  2
*D35
  0
BLOCK_RECORD
  5
9B8
330
1
100
AcDbSymbolTableRecord
100
AcDbBlockTableRecord
  2
*D36
  0
BLOCK_RECORD
  5
9EF
330
1
100
AcDbSymbolTableRecord
100
AcDbBlockTableRecord
  2
*D37
  0
BLOCK_RECORD
  5
A01
330
1
100
AcDbSymbolTableRecord
100
AcDbBlockTableRecord
  2
*D38
  0
BLOCK_RECORD
  5
A12
330
1
100
AcDbSymbolTableRecord
100
AcDbBlockTableRecord
  2
*D39
  0
BLOCK_RECORD
  5
AD0
330
1
100
AcDbSymbolTableRecord
100
AcDbBlockTableRecord
  2
*D40
  0
ENDTAB
  0
ENDSEC
  0
SECTION
  2
BLOCKS
  0
BLOCK
  5
20
330
1F
100
AcDbEntity
  8
0
100
AcDbBlockBegin
  2
*MODEL_SPACE
 70
     0
 10
0.0
 20
0.0
 30
0.0
  3
*MODEL_SPACE
  1

  0
ENDBLK
  5
21
330
1F
100
AcDbEntity
  8
0
100
AcDbBlockEnd
  0
BLOCK
  5
D8
330
D6
100
AcDbEntity
 67
     1
  8
0
100
AcDbBlockBegin
  2
*PAPER_SPACE
 70
     0
 10
0.0
 20
0.0
 30
0.0
  3
*PAPER_SPACE
  1

  0
ENDBLK
  5
D9
330
D6
100
AcDbEntity
 67
     1
  8
0
100
AcDbBlockEnd
  0
BLOCK
  5
1ED
330
1EC
100
AcDbEntity
  8
0
100
AcDbBlockBegin
  2
_ARCHTICK
 70
     0
 10
0.0
 20
0.0
 30
0.0
  3
_ARCHTICK
  1
_ARCHTICK
  0
LWPOLYLINE
  5
1EF
330
1EC
100
AcDbEntity
  8
0
  6
BYBLOCK
 62
     0
100
AcDbPolyline
 90
        2
 70
     0
 43
0.15
 10
-0.5
 20
-0.5
 10
0.5
 20
0.5
  0
ENDBLK
  5
1EE
330
1EC
100
AcDbEntity
  8
0
100
AcDbBlockEnd
  0
BLOCK
  5
1F5
330
1F4
100
AcDbEntity
  8
0
100
AcDbBlockBegin
  2
_OPEN30
 70
     0
 10
0.0
 20
0.0
 30
0.0
  3
_OPEN30
  1
_OPEN30
  0
LINE
  5
1F7
330
1F4
100
AcDbEntity
  8
0
  6
BYBLOCK
 62
     0
100
AcDbLine
 10
-1.0
 20
0.267949
 30
0.0
 11
0.0
 21
0.0
 31
0.0
  0
LINE
  5
1F8
330
1F4
100
AcDbEntity
  8
0
  6
BYBLOCK
 62
     0
100
AcDbLine
 10
0.0
 20
0.0
 30
0.0
 11
-1.0
 21
-0.267949
 31
0.0
  0
LINE
  5
1F9
330
1F4
100
AcDbEntity
  8
0
  6
BYBLOCK
 62
     0
100
AcDbLine
 10
0.0
 20
0.0
 30
0.0
 11
-1.0
 21
0.0
 31
0.0
  0
ENDBLK
  5
1F6
330
1F4
100
AcDbEntity
  8
0
100
AcDbBlockEnd
  0
BLOCK
  5
1FD
330
1FC
100
AcDbEntity
  8
0
100
AcDbBlockBegin
  2
_DOT
 70
     0
 10
0.0
 20
0.0
 30
0.0
  3
_DOT
  1
_DOT
  0
LWPOLYLINE
  5
1FF
330
1FC
100
AcDbEntity
  8
0
  6
BYBLOCK
 62
     0
100
AcDbPolyline
 90
        2
 70
     1
 43
0.5
 10
-0.25
 20
0.0
 42
1.0
 10
0.25
 20
0.0
 42
1.0
  0
LINE
  5
200
330
1FC
100
AcDbEntity
  8
0
  6
BYBLOCK
 62
     0
100
AcDbLine
 10
-0.5
 20
0.0
 30
0.0
 11
-1.0
 21
0.0
 31
0.0
  0
ENDBLK
  5
1FE
330
1FC
100
AcDbEntity
  8
0
100
AcDbBlockEnd
  0
BLOCK
  5
3F0
330
3EF
100
AcDbEntity
  8
0
100
AcDbBlockBegin
  2
*D3
 70
     1
 10
0.0
 20
0.0
 30
0.0
  3
*D3
  1
*D9
  0
LINE
  5
3F2
330
3EF
100
AcDbEntity
  8
DIMENSION
 62
     0
100
AcDbLine
 10
80.435706
 20
53.461187
 30
0.0
 11
77.935706
 21
53.461187
 31
0.0
  0
LINE
  5
3F3
330
3EF
100
AcDbEntity
  8
DIMENSION
 62
     0
100
AcDbLine
 10
73.622622
 20
50.931897
 30
0.0
 11
77.935706
 21
53.461187
 31
0.0
  0
MTEXT
  5
3F4
330
3EF
100
AcDbEntity
  8
DIMENSION
 62
     0
100
AcDbMText
 10
87.685706
 20
53.461187
 30
0.0
 40
2.5
 41
0.0
 71
     5
 72
     1
  1
\A1;R1.0000
  0
SOLID
  5
3F5
330
3EF
100
AcDbEntity
  8
DIMENSION
 62
     0
100
AcDbTrace
 10
75.568389
 20
52.555965
 30
0.0
 11
75.989938
 21
51.837118
 31
0.0
 12
73.622622
 22
50.931897
 32
0.0
 13
73.622622
 23
50.931897
 33
0.0
  0
LINE
  5
3F6
330
3EF
100
AcDbEntity
  8
DIMENSION
 62
     0
100
AcDbLine
 10
70.260005
 20
50.426039
 30
0.0
 11
75.260005
 21
50.426039
 31
0.0
  0
LINE
  5
3F7
330
3EF
100
AcDbEntity
  8
DIMENSION
 62
     0
100
AcDbLine
 10
72.760005
 20
47.926039
 30
0.0
 11
72.760005
 21
52.926039
 31
0.0
  0
POINT
  5
3F8
330
3EF
100
AcDbEntity
  8
DEFPOINTS
 62
     0
100
AcDbPoint
 10
73.622622
 20
50.931897
 30
0.0
  0
POINT
  5
3F9
330
3EF
100
AcDbEntity
  8
DEFPOINTS
 62
     0
100
AcDbPoint
 10
72.760005
 20
50.426039
 30
0.0
  0
ENDBLK
  5
3F1
330
3EF
100
AcDbEntity
  8
0
100
AcDbBlockEnd
  0
BLOCK
  5
3FB
330
3FA
100
AcDbEntity
  8
0
100
AcDbBlockBegin
  2
_NONE
 70
     0
 10
0.0
 20
0.0
 30
0.0
  3
_NONE
  1
_NONE
  0
ENDBLK
  5
3FC
330
3FA
100
AcDbEntity
  8
0
100
AcDbBlockEnd
  0
BLOCK
  5
433
330
432
100
AcDbEntity
  8
0
100
AcDbBlockBegin
  2
*D5
 70
     1
 10
0.0
 20
0.0
 30
0.0
  3
*D5
  1
*D11
  0
LINE
  5
435
330
432
100
AcDbEntity
  8
DIMENSION
 62
     0
100
AcDbLine
 10
42.59852
 20
28.88815
 30
0.0
 11
25.602157
 21
28.536524
 31
0.0
  0
MTEXT
  5
436
330
432
100
AcDbEntity
  8
DIMENSION
 62
     0
100
AcDbMText
 10
45.046275
 20
31.439324
 30
0.0
 40
2.5
 41
0.0
 71
     5
 72
     1
  1
\A1;{\Q0;%%C}22H7
 11
0.9997860666968655
 21
0.02068383037086816
 31
0.0
  0
SOLID
  5
437
330
432
100
AcDbEntity
  8
DIMENSION
 62
     0
100
AcDbTrace
 10
25.593538
 20
28.953102
 30
0.0
 11
25.610775
 21
28.119947
 31
0.0
 12
23.102692
 22
28.484815
 32
0.0
 13
23.102692
 23
28.484815
 33
0.0
  0
SOLID
  5
438
330
432
100
AcDbEntity
  8
DIMENSION
 62
     0
100
AcDbTrace
 10
42.607138
 20
28.471572
 30
0.0
 11
42.589902
 21
29.304727
 31
0.0
 12
45.097985
 22
28.939859
 32
0.0
 13
45.097985
 23
28.939859
 33
0.0
  0
POINT
  5
439
330
432
100
AcDbEntity
  8
DEFPOINTS
 62
     0
100
AcDbPoint
 10
45.097985
 20
28.939859
 30
0.0
  0
POINT
  5
43A
330
432
100
AcDbEntity
  8
DEFPOINTS
 62
     0
100
AcDbPoint
 10
23.102692
 20
28.484815
 30
0.0
  0
ENDBLK
  5
434
330
432
100
AcDbEntity
  8
0
100
AcDbBlockEnd
  0
BLOCK
  5
50A
330
509
100
AcDbEntity
  8
0
100
AcDbBlockBegin
  2
*D6
 70
     1
 10
0.0
 20
0.0
 30
0.0
  3
*D6
  1
*D12
  0
LINE
  5
50C
330
509
100
AcDbEntity
  8
DIMENSION
 62
     0
100
AcDbLine
 10
64.290985
 20
18.440234
 30
0.0
 11
60.755451
 21
21.975767
 31
0.0
  0
MTEXT
  5
50D
330
509
100
AcDbEntity
  8
DIMENSION
 62
     0
100
AcDbMText
 10
67.826519
 20
18.440234
 30
0.0
 40
2.5
 41
0.0
 71
     5
 72
     1
  1
\A1;{\Q0;%%c}10.0000
 11
0.7071067811865476
 21
-0.7071067811865476
 31
0.0
  0
SOLID
  5
50E
330
509
100
AcDbEntity
  8
DIMENSION
 62
     0
100
AcDbTrace
 10
61.050079
 20
22.270395
 30
0.0
 11
60.460824
 21
21.68114
 31
0.0
 12
58.987684
 22
23.743534
 32
0.0
 13
58.987684
 23
23.743534
 33
0.0
  0
SOLID
  5
50F
330
509
100
AcDbEntity
  8
DIMENSION
 62
     0
100
AcDbTrace
 10
63.996357
 20
18.145606
 30
0.0
 11
64.585613
 21
18.734861
 31
0.0
 12
66.058752
 22
16.672467
 32
0.0
 13
66.058752
 23
16.672467
 33
0.0
  0
POINT
  5
510
330
509
100
AcDbEntity
  8
DEFPOINTS
 62
     0
100
AcDbPoint
 10
66.058752
 20
16.672467
 30
0.0
  0
POINT
  5
511
330
509
100
AcDbEntity
  8
DEFPOINTS
 62
     0
100
AcDbPoint
 10
58.987684
 20
23.743534
 30
0.0
  0
ENDBLK
  5
50B
330
509
100
AcDbEntity
  8
0
100
AcDbBlockEnd
  0
BLOCK
  5
588
330
587
100
AcDbEntity
  8
0
100
AcDbBlockBegin
  2
*D7
 70
     1
 10
0.0
 20
0.0
 30
0.0
  3
*D7
  1
*D13
  0
LINE
  5
58A
330
587
100
AcDbEntity
  8
DIMENSION
 62
     0
100
AcDbLine
 10
34.430311
 20
65.591825
 30
0.0
 11
21.099531
 21
65.591825
 31
0.0
  0
LINE
  5
58B
330
587
100
AcDbEntity
  8
DIMENSION
 62
     0
100
AcDbLine
 10
20.599531
 20
11.711934
 30
0.0
 11
21.099531
 21
11.711934
 31
0.0
  0
LINE
  5
58C
330
587
100
AcDbEntity
  8
DIMENSION
 62
     0
100
AcDbLine
 10
21.099531
 20
63.091825
 30
0.0
 11
21.099531
 21
47.151879
 31
0.0
  0
LINE
  5
58D
330
587
100
AcDbEntity
  8
DIMENSION
 62
     0
100
AcDbLine
 10
21.099531
 20
14.211934
 30
0.0
 11
21.099531
 21
30.151879
 31
0.0
  0
SOLID
  5
58E
330
587
100
AcDbEntity
  8
DIMENSION
 62
     0
100
AcDbTrace
 10
21.516198
 20
63.091825
 30
0.0
 11
20.682865
 21
63.091825
 31
0.0
 12
21.099531
 22
65.591825
 32
0.0
 13
21.099531
 23
65.591825
 33
0.0
  0
SOLID
  5
58F
330
587
100
AcDbEntity
  8
DIMENSION
 62
     0
100
AcDbTrace
 10
20.682865
 20
14.211934
 30
0.0
 11
21.516198
 21
14.211934
 31
0.0
 12
21.099531
 22
11.711934
 32
0.0
 13
21.099531
 23
11.711934
 33
0.0
  0
MTEXT
  5
590
330
587
100
AcDbEntity
  8
DIMENSION
 62
     0
100
AcDbMText
 10
21.099531
 20
38.651879
 30
0.0
 40
2.5
 41
0.0
 71
     5
 72
     1
  1
\A1;53.8799
 11
6.593765527106334E-17
 21
1.0
 31
0.0
  0
POINT
  5
591
330
587
100
AcDbEntity
  8
DEFPOINTS
 62
     0
100
AcDbPoint
 10
34.930311
 20
65.591825
 30
0.0
  0
POINT
  5
592
330
587
100
AcDbEntity
  8
DEFPOINTS
 62
     0
100
AcDbPoint
 10
21.099531
 20
11.711934
 30
0.0
  0
POINT
  5
597
330
587
100
AcDbEntity
  8
DEFPOINTS
 62
     0
100
AcDbPoint
 10
21.099531
 20
11.711934
 30
0.0
  0
ENDBLK
  5
589
330
587
100
AcDbEntity
  8
0
100
AcDbBlockEnd
  0
BLOCK
  5
59D
330
59C
100
AcDbEntity
  8
0
100
AcDbBlockBegin
  2
*D8
 70
     1
 10
0.0
 20
0.0
 30
0.0
  3
*D8
  1
*D14
  0
LINE
  5
59F
330
59C
100
AcDbEntity
  8
DIMENSION
 62
     0
100
AcDbLine
 10
23.599531
 20
6.711934
 30
0.0
 11
21.099531
 21
6.711934
 31
0.0
  0
LINE
  5
5A0
330
59C
100
AcDbEntity
  8
DIMENSION
 62
     0
100
AcDbLine
 10
21.099531
 20
6.711934
 30
0.0
 11
21.099531
 21
11.711934
 31
0.0
  0
LINE
  5
5A1
330
59C
100
AcDbEntity
  8
DIMENSION
 62
     0
100
AcDbLine
 10
34.805994
 20
65.107526
 30
0.0
 11
21.099531
 21
11.711934
 31
0.0
  0
LINE
  5
5A2
330
59C
100
AcDbEntity
  8
DIMENSION
 62
     0
100
AcDbLine
 10
21.099531
 20
12.211934
 30
0.0
 11
21.099531
 21
11.711934
 31
0.0
  0
ARC
  5
5A3
330
59C
100
AcDbEntity
  8
DIMENSION
 62
     0
100
AcDbCircle
 10
21.099531
 20
11.711934
 30
0.0
 40
0.0
100
AcDbArc
 50
0.0
 51
180.0
  0
ARC
  5
5A4
330
59C
100
AcDbEntity
  8
DIMENSION
 62
     0
100
AcDbCircle
 10
21.099531
 20
11.711934
 30
0.0
 40
0.0
100
AcDbArc
 50
180.0
 51
0.0
  0
ARC
  5
5A5
330
59C
100
AcDbEntity
  8
DIMENSION
 62
     0
100
AcDbCircle
 10
21.099531
 20
11.711934
 30
0.0
 40
0.0
100
AcDbArc
 50
0.0
 51
0.0
  0
SOLID
  5
5A6
330
59C
100
AcDbEntity
  8
DIMENSION
 62
     0
100
AcDbTrace
 10
21.516198
 20
9.211934
 30
0.0
 11
20.682865
 21
9.211934
 31
0.0
 12
21.099531
 22
11.711934
 32
0.0
 13
21.099531
 23
11.711934
 33
0.0
  0
SOLID
  5
5A7
330
59C
100
AcDbEntity
  8
DIMENSION
 62
     0
100
AcDbTrace
 10
21.516198
 20
9.211934
 30
0.0
 11
20.682865
 21
9.211934
 31
0.0
 12
21.099531
 22
11.711934
 32
0.0
 13
21.099531
 23
11.711934
 33
0.0
  0
MTEXT
  5
5A8
330
59C
100
AcDbEntity
  8
DIMENSION
 62
     0
100
AcDbMText
 10
26.057865
 20
6.711934
 30
0.0
 40
2.5
 41
0.0
 71
     5
 72
     1
  1
\A1;0%%d
  0
POINT
  5
5A9
330
59C
100
AcDbEntity
  8
DEFPOINTS
 62
     0
100
AcDbPoint
 10
21.099531
 20
11.711934
 30
0.0
  0
POINT
  5
5AA
330
59C
100
AcDbEntity
  8
DEFPOINTS
 62
     0
100
AcDbPoint
 10
34.930311
 20
65.591825
 30
0.0
  0
POINT
  5
5AD
330
59C
100
AcDbEntity
  8
DEFPOINTS
 62
     0
100
AcDbPoint
 10
21.099531
 20
11.711934
 30
0.0
  0
POINT
  5
5AE
330
59C
100
AcDbEntity
  8
DEFPOINTS
 62
     0
100
AcDbPoint
 10
21.099531
 20
11.711934
 30
0.0
  0
ENDBLK
  5
59E
330
59C
100
AcDbEntity
  8
0
100
AcDbBlockEnd
  0
BLOCK
  5
5B1
330
5B0
100
AcDbEntity
  8
0
100
AcDbBlockBegin
  2
*D9
 70
     1
 10
0.0
 20
0.0
 30
0.0
  3
*D9
  1
*D15
  0
LINE
  5
5B3
330
5B0
100
AcDbEntity
  8
DIMENSION
 62
     0
100
AcDbLine
 10
34.430311
 20
65.591825
 30
0.0
 11
6.099531
 21
65.591825
 31
0.0
  0
LINE
  5
5B4
330
5B0
100
AcDbEntity
  8
DIMENSION
 62
     0
100
AcDbLine
 10
20.599531
 20
11.711934
 30
0.0
 11
6.099531
 21
11.711934
 31
0.0
  0
LINE
  5
5B5
330
5B0
100
AcDbEntity
  8
DIMENSION
 62
     0
100
AcDbLine
 10
6.099531
 20
63.091825
 30
0.0
 11
6.099531
 21
47.151879
 31
0.0
  0
LINE
  5
5B6
330
5B0
100
AcDbEntity
  8
DIMENSION
 62
     0
100
AcDbLine
 10
6.099531
 20
14.211934
 30
0.0
 11
6.099531
 21
30.151879
 31
0.0
  0
SOLID
  5
5B7
330
5B0
100
AcDbEntity
  8
DIMENSION
 62
     0
100
AcDbTrace
 10
6.516198
 20
63.091825
 30
0.0
 11
5.682865
 21
63.091825
 31
0.0
 12
6.099531
 22
65.591825
 32
0.0
 13
6.099531
 23
65.591825
 33
0.0
  0
SOLID
  5
5B8
330
5B0
100
AcDbEntity
  8
DIMENSION
 62
     0
100
AcDbTrace
 10
5.682865
 20
14.211934
 30
0.0
 11
6.516198
 21
14.211934
 31
0.0
 12
6.099531
 22
11.711934
 32
0.0
 13
6.099531
 23
11.711934
 33
0.0
  0
MTEXT
  5
5B9
330
5B0
100
AcDbEntity
  8
DIMENSION
 62
     0
100
AcDbMText
 10
6.099531
 20
38.651879
 30
0.0
 40
2.5
 41
0.0
 71
     5
 72
     1
  1
\A1;53.8799
 11
6.593765527106334E-17
 21
1.0
 31
0.0
  0
POINT
  5
5BA
330
5B0
100
AcDbEntity
  8
DEFPOINTS
 62
     0
100
AcDbPoint
 10
34.930311
 20
65.591825
 30
0.0
  0
POINT
  5
5BB
330
5B0
100
AcDbEntity
  8
DEFPOINTS
 62
     0
100
AcDbPoint
 10
21.099531
 20
11.711934
 30
0.0
  0
POINT
  5
5BC
330
5B0
100
AcDbEntity
  8
DEFPOINTS
 62
     0
100
AcDbPoint
 10
6.099531
 20
11.711934
 30
0.0
  0
ENDBLK
  5
5B2
330
5B0
100
AcDbEntity
  8
0
100
AcDbBlockEnd
  0
BLOCK
  5
5F4
330
5F3
100
AcDbEntity
  8
0
100
AcDbBlockBegin
  2
*D10
 70
     1
 10
0.0
 20
0.0
 30
0.0
  3
*D10
  1
*D10
  0
LINE
  5
5F6
330
5F3
100
AcDbEntity
  8
DIMENSION
 62
     0
100
AcDbLine
 10
50.132585
 20
39.889107
 30
0.0
 11
52.578999
 21
39.374271
 31
0.0
  0
LINE
  5
5F7
330
5F3
100
AcDbEntity
  8
DIMENSION
 62
     0
100
AcDbLine
 10
42.108345
 20
41.577769
 30
0.0
 11
39.661931
 21
42.092605
 31
0.0
  0
MTEXT
  5
5F8
330
5F3
100
AcDbEntity
  8
DIMENSION
 62
     0
100
AcDbMText
 10
48.201006
 20
42.850358
 30
0.0
 40
2.5
 41
0.0
 71
     5
 72
     1
  1
\A1;{\Q0;%%C}3.2
 11
0.9785658130520369
 21
-0.2059343330428565
 31
0.0
  0
SOLID
  5
5F9
330
5F3
100
AcDbEntity
  8
DIMENSION
 62
     0
100
AcDbTrace
 10
42.022539
 20
41.170033
 30
0.0
 11
42.194151
 21
41.985505
 31
0.0
 12
44.55476
 22
41.062933
 32
0.0
 13
44.55476
 23
41.062933
 33
0.0
  0
SOLID
  5
5FA
330
5F3
100
AcDbEntity
  8
DIMENSION
 62
     0
100
AcDbTrace
 10
50.218391
 20
40.296843
 30
0.0
 11
50.046779
 21
39.481371
 31
0.0
 12
47.68617
 22
40.403943
 32
0.0
 13
47.68617
 23
40.403943
 33
0.0
  0
LINE
  5
5FB
330
5F3
100
AcDbEntity
  8
DIMENSION
 62
     0
100
AcDbLine
 10
43.620465
 20
40.733438
 30
0.0
 11
48.620465
 21
40.733438
 31
0.0
  0
LINE
  5
646
330
5F3
100
AcDbEntity
  8
DIMENSION
 62
     0
100
AcDbLine
 10
46.120465
 20
38.233438
 30
0.0
 11
46.120465
 21
43.233438
 31
0.0
  0
POINT
  5
647
330
5F3
100
AcDbEntity
  8
DEFPOINTS
 62
     0
100
AcDbPoint
 10
47.68617
 20
40.403943
 30
0.0
  0
POINT
  5
76A
330
5F3
100
AcDbEntity
  8
DEFPOINTS
 62
     0
100
AcDbPoint
 10
44.55476
 20
41.062933
 30
0.0
  0
ENDBLK
  5
5F5
330
5F3
100
AcDbEntity
  8
0
100
AcDbBlockEnd
  0
BLOCK
  5
656
330
655
100
AcDbEntity
  8
0
100
AcDbBlockBegin
  2
*D11
 70
     1
 10
0.0
 20
0.0
 30
0.0
  3
*D11
  1
*D11
  0
LINE
  5
658
330
655
100
AcDbEntity
  8
DIMENSION
 62
     0
100
AcDbLine
 10
64.379477
 20
56.036014
 30
0.0
 11
63.440229
 21
55.289146
 31
0.0
  0
MTEXT
  5
659
330
655
100
AcDbEntity
  8
DIMENSION
 62
     0
100
AcDbMText
 10
64.780269
 20
59.548757
 30
0.0
 40
2.5
 41
0.0
 71
     5
 72
     1
  1
\A1;{\Q0;%%C}6.2
 11
0.7827070852456346
 21
0.6223902463135834
 31
0.0
  0
SOLID
  5
65A
330
655
100
AcDbEntity
  8
DIMENSION
 62
     0
100
AcDbTrace
 10
63.180899
 20
55.615274
 30
0.0
 11
63.699558
 21
54.963018
 31
0.0
 12
61.483461
 22
53.73317
 32
0.0
 13
61.483461
 23
53.73317
 33
0.0
  0
SOLID
  5
65B
330
655
100
AcDbEntity
  8
DIMENSION
 62
     0
100
AcDbTrace
 10
64.638807
 20
55.709886
 30
0.0
 11
64.120148
 21
56.362142
 31
0.0
 12
66.336245
 22
57.59199
 32
0.0
 13
66.336245
 23
57.59199
 33
0.0
  0
POINT
  5
65C
330
655
100
AcDbEntity
  8
DEFPOINTS
 62
     0
100
AcDbPoint
 10
66.336245
 20
57.59199
 30
0.0
  0
POINT
  5
65D
330
655
100
AcDbEntity
  8
DEFPOINTS
 62
     0
100
AcDbPoint
 10
61.483461
 20
53.73317
 30
0.0
  0
ENDBLK
  5
657
330
655
100
AcDbEntity
  8
0
100
AcDbBlockEnd
  0
BLOCK
  5
6FC
330
6FB
100
AcDbEntity
  8
0
100
AcDbBlockBegin
  2
*D12
 70
     1
 10
0.0
 20
0.0
 30
0.0
  3
*D12
  1
*D12
  0
LINE
  5
6FE
330
6FB
100
AcDbEntity
  8
DIMENSION
 62
     0
100
AcDbLine
 10
-30.935224
 20
74.382945
 30
0.0
 11
-34.470757
 21
77.918479
 31
0.0
  0
MTEXT
  5
6FF
330
6FB
100
AcDbEntity
  8
DIMENSION
 62
     0
100
AcDbMText
 10
-27.39969
 20
74.382945
 30
0.0
 40
2.5
 41
0.0
 71
     5
 72
     1
  1
\A1;{\Q0;%%c}10.0000
 11
0.7071067811865476
 21
-0.7071067811865476
 31
0.0
  0
SOLID
  5
700
330
6FB
100
AcDbEntity
  8
DIMENSION
 62
     0
100
AcDbTrace
 10
-34.17613
 20
78.213106
 30
0.0
 11
-34.765385
 21
77.623851
 31
0.0
 12
-36.238524
 22
79.686246
 32
0.0
 13
-36.238524
 23
79.686246
 33
0.0
  0
SOLID
  5
701
330
6FB
100
AcDbEntity
  8
DIMENSION
 62
     0
100
AcDbTrace
 10
-31.229851
 20
74.088317
 30
0.0
 11
-30.640596
 21
74.677573
 31
0.0
 12
-29.167457
 22
72.615178
 32
0.0
 13
-29.167457
 23
72.615178
 33
0.0
  0
POINT
  5
702
330
6FB
100
AcDbEntity
  8
DEFPOINTS
 62
     0
100
AcDbPoint
 10
-29.167457
 20
72.615178
 30
0.0
  0
POINT
  5
703
330
6FB
100
AcDbEntity
  8
DEFPOINTS
 62
     0
100
AcDbPoint
 10
-36.238524
 20
79.686246
 30
0.0
  0
ENDBLK
  5
6FD
330
6FB
100
AcDbEntity
  8
0
100
AcDbBlockEnd
  0
BLOCK
  5
76D
330
76C
100
AcDbEntity
  8
0
100
AcDbBlockBegin
  2
*D13
 70
     1
 10
0.0
 20
0.0
 30
0.0
  3
*D13
  1
*D13
  0
LINE
  5
76F
330
76C
100
AcDbEntity
  8
DIMENSION
 62
     0
100
AcDbLine
 10
84.82736
 20
51.826221
 30
0.0
 11
82.32736
 21
51.826221
 31
0.0
  0
LINE
  5
770
330
76C
100
AcDbEntity
  8
DIMENSION
 62
     0
100
AcDbLine
 10
82.32736
 20
51.826221
 30
0.0
 11
73.524877
 21
56.913206
 31
0.0
  0
MTEXT
  5
771
330
76C
100
AcDbEntity
  8
DIMENSION
 62
     0
100
AcDbMText
 10
87.910693
 20
51.826221
 30
0.0
 40
2.5
 41
0.0
 71
     5
 72
     1
  1
\A1;R5
  0
SOLID
  5
772
330
76C
100
AcDbEntity
  8
DIMENSION
 62
     0
100
AcDbTrace
 10
73.73336
 20
57.273963
 30
0.0
 11
73.316394
 21
56.552448
 31
0.0
 12
71.360332
 22
58.164104
 32
0.0
 13
71.360332
 23
58.164104
 33
0.0
  0
POINT
  5
773
330
76C
100
AcDbEntity
  8
DEFPOINTS
 62
     0
100
AcDbPoint
 10
71.360332
 20
58.164104
 30
0.0
  0
POINT
  5
856
330
76C
100
AcDbEntity
  8
DEFPOINTS
 62
     0
100
AcDbPoint
 10
75.689422
 20
55.662308
 30
0.0
  0
ENDBLK
  5
76E
330
76C
100
AcDbEntity
  8
0
100
AcDbBlockEnd
  0
BLOCK
  5
7B2
330
7B1
100
AcDbEntity
  8
0
100
AcDbBlockBegin
  2
*D14
 70
     1
 10
0.0
 20
0.0
 30
0.0
  3
*D14
  1
*D14
  0
LINE
  5
7B4
330
7B1
100
AcDbEntity
  8
DIMENSION
 62
     0
100
AcDbLine
 10
23.134041
 20
51.590913
 30
0.0
 11
25.634041
 21
51.590913
 31
0.0
  0
LINE
  5
7B5
330
7B1
100
AcDbEntity
  8
DIMENSION
 62
     0
100
AcDbLine
 10
25.634041
 20
51.590913
 30
0.0
 11
34.24866
 21
56.989937
 31
0.0
  0
MTEXT
  5
7B6
330
7B1
100
AcDbEntity
  8
DIMENSION
 62
     0
100
AcDbMText
 10
20.050708
 20
51.590913
 30
0.0
 40
2.5
 41
0.0
 71
     5
 72
     1
  1
\A1;R5
  0
SOLID
  5
7B7
330
7B1
100
AcDbEntity
  8
DIMENSION
 62
     0
100
AcDbTrace
 10
34.469931
 20
56.636879
 30
0.0
 11
34.027388
 21
57.342995
 31
0.0
 12
36.367009
 22
58.317566
 32
0.0
 13
36.367009
 23
58.317566
 33
0.0
  0
POINT
  5
7B8
330
7B1
100
AcDbEntity
  8
DEFPOINTS
 62
     0
100
AcDbPoint
 10
36.367009
 20
58.317566
 30
0.0
  0
POINT
  5
857
330
7B1
100
AcDbEntity
  8
DEFPOINTS
 62
     0
100
AcDbPoint
 10
32.130311
 20
55.662308
 30
0.0
  0
ENDBLK
  5
7B3
330
7B1
100
AcDbEntity
  8
0
100
AcDbBlockEnd
  0
BLOCK
  5
81D
330
81C
100
AcDbEntity
  8
0
100
AcDbBlockBegin
  2
*D15
 70
     1
 10
0.0
 20
0.0
 30
0.0
  3
*D15
  1
*D15
  0
LINE
  5
81F
330
81C
100
AcDbEntity
  8
DIMENSION
 62
     0
100
AcDbLine
 10
-37.84172
 20
77.17726
 30
0.0
 11
-35.34172
 21
77.17726
 31
0.0
  0
LINE
  5
820
330
81C
100
AcDbEntity
  8
DIMENSION
 62
     0
100
AcDbLine
 10
-35.34172
 20
77.17726
 30
0.0
 11
-27.71086
 21
69.546399
 31
0.0
  0
MTEXT
  5
821
330
81C
100
AcDbEntity
  8
DIMENSION
 62
     0
100
AcDbMText
 10
-46.133387
 20
77.17726
 30
0.0
 40
2.5
 41
0.0
 71
     5
 72
     1
  1
\A1;R10.0000
  0
SOLID
  5
822
330
81C
100
AcDbEntity
  8
DIMENSION
 62
     0
100
AcDbTrace
 10
-28.005488
 20
69.251771
 30
0.0
 11
-27.416232
 21
69.841027
 31
0.0
 12
-25.943093
 22
67.778632
 32
0.0
 13
-25.943093
 23
67.778632
 33
0.0
  0
POINT
  5
823
330
81C
100
AcDbEntity
  8
DEFPOINTS
 62
     0
100
AcDbPoint
 10
-25.943093
 20
67.778632
 30
0.0
  0
POINT
  5
855
330
81C
100
AcDbEntity
  8
DEFPOINTS
 62
     0
100
AcDbPoint
 10
-33.014161
 20
74.8497
 30
0.0
  0
ENDBLK
  5
81E
330
81C
100
AcDbEntity
  8
0
100
AcDbBlockEnd
  0
BLOCK
  5
85A
330
859
100
AcDbEntity
  8
0
100
AcDbBlockBegin
  2
*D16
 70
     1
 10
0.0
 20
0.0
 30
0.0
  3
*D16
  1
*D16
  0
LINE
  5
85C
330
859
100
AcDbEntity
  8
DIMENSION
 62
     0
100
AcDbLine
 10
22.078834
 20
40.232867
 30
0.0
 11
22.078834
 21
16.691807
 31
0.0
  0
LINE
  5
85D
330
859
100
AcDbEntity
  8
DIMENSION
 62
     0
100
AcDbLine
 10
46.121035
 20
16.191807
 30
0.0
 11
46.121035
 21
16.691807
 31
0.0
  0
LINE
  5
85E
330
859
100
AcDbEntity
  8
DIMENSION
 62
     0
100
AcDbLine
 10
24.578834
 20
16.691807
 30
0.0
 11
25.808268
 21
16.691807
 31
0.0
  0
LINE
  5
85F
330
859
100
AcDbEntity
  8
DIMENSION
 62
     0
100
AcDbLine
 10
43.621035
 20
16.691807
 30
0.0
 11
42.391601
 21
16.691807
 31
0.0
  0
SOLID
  5
860
330
859
100
AcDbEntity
  8
DIMENSION
 62
     0
100
AcDbTrace
 10
24.578834
 20
17.108474
 30
0.0
 11
24.578834
 21
16.27514
 31
0.0
 12
22.078834
 22
16.691807
 32
0.0
 13
22.078834
 23
16.691807
 33
0.0
  0
SOLID
  5
861
330
859
100
AcDbEntity
  8
DIMENSION
 62
     0
100
AcDbTrace
 10
43.621035
 20
16.27514
 30
0.0
 11
43.621035
 21
17.108474
 31
0.0
 12
46.121035
 22
16.691807
 32
0.0
 13
46.121035
 23
16.691807
 33
0.0
  0
MTEXT
  5
862
330
859
100
AcDbEntity
  8
DIMENSION
 62
     0
100
AcDbMText
 10
34.099935
 20
16.691807
 30
0.0
 40
2.5
 41
0.0
 71
     5
 72
     1
  1
\A1;24.0422
  0
POINT
  5
863
330
859
100
AcDbEntity
  8
DEFPOINTS
 62
     0
100
AcDbPoint
 10
22.078834
 20
40.732867
 30
0.0
  0
POINT
  5
864
330
859
100
AcDbEntity
  8
DEFPOINTS
 62
     0
100
AcDbPoint
 10
46.121035
 20
16.691807
 30
0.0
  0
POINT
  5
865
330
859
100
AcDbEntity
  8
DEFPOINTS
 62
     0
100
AcDbPoint
 10
46.121035
 20
16.691807
 30
0.0
  0
ENDBLK
  5
85B
330
859
100
AcDbEntity
  8
0
100
AcDbBlockEnd
  0
BLOCK
  5
86B
330
86A
100
AcDbEntity
  8
0
100
AcDbBlockBegin
  2
*D17
 70
     1
 10
0.0
 20
0.0
 30
0.0
  3
*D17
  1
*D17
  0
LINE
  5
86D
330
86A
100
AcDbEntity
  8
DIMENSION
 62
     0
100
AcDbLine
 10
46.121035
 20
16.691807
 30
0.0
 11
43.621035
 21
16.691807
 31
0.0
  0
LINE
  5
86E
330
86A
100
AcDbEntity
  8
DIMENSION
 62
     0
100
AcDbLine
 10
22.432396
 20
40.379322
 30
0.0
 11
46.121035
 21
16.691807
 31
0.0
  0
LINE
  5
86F
330
86A
100
AcDbEntity
  8
DIMENSION
 62
     0
100
AcDbLine
 10
46.121035
 20
17.191807
 30
0.0
 11
46.121035
 21
16.691807
 31
0.0
  0
ARC
  5
870
330
86A
100
AcDbEntity
  8
DIMENSION
 62
     0
100
AcDbCircle
 10
46.121035
 20
16.691807
 30
0.0
 40
0.0
100
AcDbArc
 50
0.0
 51
180.0
  0
ARC
  5
871
330
86A
100
AcDbEntity
  8
DIMENSION
 62
     0
100
AcDbCircle
 10
46.121035
 20
16.691807
 30
0.0
 40
0.0
100
AcDbArc
 50
180.0
 51
0.0
  0
SOLID
  5
872
330
86A
100
AcDbEntity
  8
DIMENSION
 62
     0
100
AcDbTrace
 10
46.537702
 20
14.191807
 30
0.0
 11
45.704368
 21
14.191807
 31
0.0
 12
46.121035
 22
16.691807
 32
0.0
 13
46.121035
 23
16.691807
 33
0.0
  0
SOLID
  5
873
330
86A
100
AcDbEntity
  8
DIMENSION
 62
     0
100
AcDbTrace
 10
46.537702
 20
14.191807
 30
0.0
 11
45.704368
 21
14.191807
 31
0.0
 12
46.121035
 22
16.691807
 32
0.0
 13
46.121035
 23
16.691807
 33
0.0
  0
MTEXT
  5
874
330
86A
100
AcDbEntity
  8
DIMENSION
 62
     0
100
AcDbMText
 10
41.162702
 20
16.691807
 30
0.0
 40
2.5
 41
0.0
 71
     5
 72
     1
  1
\A1;0%%d
  0
POINT
  5
875
330
86A
100
AcDbEntity
  8
DEFPOINTS
 62
     0
100
AcDbPoint
 10
46.121035
 20
16.691807
 30
0.0
  0
POINT
  5
876
330
86A
100
AcDbEntity
  8
DEFPOINTS
 62
     0
100
AcDbPoint
 10
22.078834
 20
40.732867
 30
0.0
  0
POINT
  5
877
330
86A
100
AcDbEntity
  8
DEFPOINTS
 62
     0
100
AcDbPoint
 10
46.121035
 20
16.691807
 30
0.0
  0
POINT
  5
878
330
86A
100
AcDbEntity
  8
DEFPOINTS
 62
     0
100
AcDbPoint
 10
46.121035
 20
16.691807
 30
0.0
  0
ENDBLK
  5
86C
330
86A
100
AcDbEntity
  8
0
100
AcDbBlockEnd
  0
BLOCK
  5
87D
330
87C
100
AcDbEntity
  8
0
100
AcDbBlockBegin
  2
*D18
 70
     1
 10
0.0
 20
0.0
 30
0.0
  3
*D18
  1
*D18
  0
LINE
  5
87F
330
87C
100
AcDbEntity
  8
DIMENSION
 62
     0
100
AcDbLine
 10
22.578834
 20
40.732867
 30
0.0
 11
46.121035
 21
40.732867
 31
0.0
  0
LINE
  5
880
330
87C
100
AcDbEntity
  8
DIMENSION
 62
     0
100
AcDbLine
 10
46.621035
 20
16.691807
 30
0.0
 11
46.121035
 21
16.691807
 31
0.0
  0
LINE
  5
881
330
87C
100
AcDbEntity
  8
DIMENSION
 62
     0
100
AcDbLine
 10
46.121035
 20
38.232867
 30
0.0
 11
46.121035
 21
36.17067
 31
0.0
  0
LINE
  5
882
330
87C
100
AcDbEntity
  8
DIMENSION
 62
     0
100
AcDbLine
 10
46.121035
 20
19.191807
 30
0.0
 11
46.121035
 21
21.254004
 31
0.0
  0
SOLID
  5
883
330
87C
100
AcDbEntity
  8
DIMENSION
 62
     0
100
AcDbTrace
 10
46.537702
 20
38.232867
 30
0.0
 11
45.704368
 21
38.232867
 31
0.0
 12
46.121035
 22
40.732867
 32
0.0
 13
46.121035
 23
40.732867
 33
0.0
  0
SOLID
  5
884
330
87C
100
AcDbEntity
  8
DIMENSION
 62
     0
100
AcDbTrace
 10
45.704368
 20
19.191807
 30
0.0
 11
46.537702
 21
19.191807
 31
0.0
 12
46.121035
 22
16.691807
 32
0.0
 13
46.121035
 23
16.691807
 33
0.0
  0
MTEXT
  5
885
330
87C
100
AcDbEntity
  8
DIMENSION
 62
     0
100
AcDbMText
 10
46.121035
 20
28.712337
 30
0.0
 40
2.5
 41
0.0
 71
     5
 72
     1
  1
\A1;24.0411
 11
0.0
 21
1.0
 31
0.0
  0
POINT
  5
886
330
87C
100
AcDbEntity
  8
DEFPOINTS
 62
     0
100
AcDbPoint
 10
22.078834
 20
40.732867
 30
0.0
  0
POINT
  5
887
330
87C
100
AcDbEntity
  8
DEFPOINTS
 62
     0
100
AcDbPoint
 10
46.121035
 20
16.691807
 30
0.0
  0
POINT
  5
888
330
87C
100
AcDbEntity
  8
DEFPOINTS
 62
     0
100
AcDbPoint
 10
46.121035
 20
16.691807
 30
0.0
  0
ENDBLK
  5
87E
330
87C
100
AcDbEntity
  8
0
100
AcDbBlockEnd
  0
BLOCK
  5
88D
330
88C
100
AcDbEntity
  8
0
100
AcDbBlockBegin
  2
*D19
 70
     1
 10
0.0
 20
0.0
 30
0.0
  3
*D19
  1
*D19
  0
LINE
  5
88F
330
88C
100
AcDbEntity
  8
DIMENSION
 62
     0
100
AcDbLine
 10
46.121035
 20
16.691807
 30
0.0
 11
43.621035
 21
16.691807
 31
0.0
  0
LINE
  5
890
330
88C
100
AcDbEntity
  8
DIMENSION
 62
     0
100
AcDbLine
 10
22.432396
 20
40.379322
 30
0.0
 11
46.121035
 21
16.691807
 31
0.0
  0
LINE
  5
891
330
88C
100
AcDbEntity
  8
DIMENSION
 62
     0
100
AcDbLine
 10
46.121035
 20
17.191807
 30
0.0
 11
46.121035
 21
16.691807
 31
0.0
  0
ARC
  5
892
330
88C
100
AcDbEntity
  8
DIMENSION
 62
     0
100
AcDbCircle
 10
46.121035
 20
16.691807
 30
0.0
 40
0.0
100
AcDbArc
 50
0.0
 51
180.0
  0
ARC
  5
893
330
88C
100
AcDbEntity
  8
DIMENSION
 62
     0
100
AcDbCircle
 10
46.121035
 20
16.691807
 30
0.0
 40
0.0
100
AcDbArc
 50
180.0
 51
0.0
  0
SOLID
  5
894
330
88C
100
AcDbEntity
  8
DIMENSION
 62
     0
100
AcDbTrace
 10
46.537702
 20
14.191807
 30
0.0
 11
45.704368
 21
14.191807
 31
0.0
 12
46.121035
 22
16.691807
 32
0.0
 13
46.121035
 23
16.691807
 33
0.0
  0
SOLID
  5
895
330
88C
100
AcDbEntity
  8
DIMENSION
 62
     0
100
AcDbTrace
 10
46.537702
 20
14.191807
 30
0.0
 11
45.704368
 21
14.191807
 31
0.0
 12
46.121035
 22
16.691807
 32
0.0
 13
46.121035
 23
16.691807
 33
0.0
  0
MTEXT
  5
896
330
88C
100
AcDbEntity
  8
DIMENSION
 62
     0
100
AcDbMText
 10
41.162702
 20
16.691807
 30
0.0
 40
2.5
 41
0.0
 71
     5
 72
     1
  1
\A1;0%%d
  0
POINT
  5
897
330
88C
100
AcDbEntity
  8
DEFPOINTS
 62
     0
100
AcDbPoint
 10
46.121035
 20
16.691807
 30
0.0
  0
POINT
  5
898
330
88C
100
AcDbEntity
  8
DEFPOINTS
 62
     0
100
AcDbPoint
 10
22.078834
 20
40.732867
 30
0.0
  0
POINT
  5
899
330
88C
100
AcDbEntity
  8
DEFPOINTS
 62
     0
100
AcDbPoint
 10
46.121035
 20
16.691807
 30
0.0
  0
POINT
  5
89A
330
88C
100
AcDbEntity
  8
DEFPOINTS
 62
     0
100
AcDbPoint
 10
46.121035
 20
16.691807
 30
0.0
  0
ENDBLK
  5
88E
330
88C
100
AcDbEntity
  8
0
100
AcDbBlockEnd
  0
BLOCK
  5
89F
330
89E
100
AcDbEntity
  8
0
100
AcDbBlockBegin
  2
*D20
 70
     1
 10
0.0
 20
0.0
 30
0.0
  3
*D20
  1
*D20
  0
LINE
  5
8A1
330
89E
100
AcDbEntity
  8
DIMENSION
 62
     0
100
AcDbLine
 10
22.078834
 20
40.232867
 30
0.0
 11
22.078834
 21
16.691807
 31
0.0
  0
LINE
  5
8A2
330
89E
100
AcDbEntity
  8
DIMENSION
 62
     0
100
AcDbLine
 10
46.121035
 20
16.191807
 30
0.0
 11
46.121035
 21
16.691807
 31
0.0
  0
LINE
  5
8A3
330
89E
100
AcDbEntity
  8
DIMENSION
 62
     0
100
AcDbLine
 10
24.578834
 20
16.691807
 30
0.0
 11
25.808268
 21
16.691807
 31
0.0
  0
LINE
  5
8A4
330
89E
100
AcDbEntity
  8
DIMENSION
 62
     0
100
AcDbLine
 10
43.621035
 20
16.691807
 30
0.0
 11
42.391601
 21
16.691807
 31
0.0
  0
SOLID
  5
8A5
330
89E
100
AcDbEntity
  8
DIMENSION
 62
     0
100
AcDbTrace
 10
24.578834
 20
17.108474
 30
0.0
 11
24.578834
 21
16.27514
 31
0.0
 12
22.078834
 22
16.691807
 32
0.0
 13
22.078834
 23
16.691807
 33
0.0
  0
SOLID
  5
8A6
330
89E
100
AcDbEntity
  8
DIMENSION
 62
     0
100
AcDbTrace
 10
43.621035
 20
16.27514
 30
0.0
 11
43.621035
 21
17.108474
 31
0.0
 12
46.121035
 22
16.691807
 32
0.0
 13
46.121035
 23
16.691807
 33
0.0
  0
MTEXT
  5
8A7
330
89E
100
AcDbEntity
  8
DIMENSION
 62
     0
100
AcDbMText
 10
34.099935
 20
16.691807
 30
0.0
 40
2.5
 41
0.0
 71
     5
 72
     1
  1
\A1;24.0422
  0
POINT
  5
8A8
330
89E
100
AcDbEntity
  8
DEFPOINTS
 62
     0
100
AcDbPoint
 10
22.078834
 20
40.732867
 30
0.0
  0
POINT
  5
8A9
330
89E
100
AcDbEntity
  8
DEFPOINTS
 62
     0
100
AcDbPoint
 10
46.121035
 20
16.691807
 30
0.0
  0
POINT
  5
8AA
330
89E
100
AcDbEntity
  8
DEFPOINTS
 62
     0
100
AcDbPoint
 10
46.121035
 20
16.691807
 30
0.0
  0
ENDBLK
  5
8A0
330
89E
100
AcDbEntity
  8
0
100
AcDbBlockEnd
  0
BLOCK
  5
8AF
330
8AE
100
AcDbEntity
  8
0
100
AcDbBlockBegin
  2
*D21
 70
     1
 10
0.0
 20
0.0
 30
0.0
  3
*D21
  1
*D21
  0
LINE
  5
8B1
330
8AE
100
AcDbEntity
  8
DIMENSION
 62
     0
100
AcDbLine
 10
46.121035
 20
16.691807
 30
0.0
 11
43.621035
 21
16.691807
 31
0.0
  0
LINE
  5
8B2
330
8AE
100
AcDbEntity
  8
DIMENSION
 62
     0
100
AcDbLine
 10
22.432396
 20
40.379322
 30
0.0
 11
46.121035
 21
16.691807
 31
0.0
  0
LINE
  5
8B3
330
8AE
100
AcDbEntity
  8
DIMENSION
 62
     0
100
AcDbLine
 10
46.121035
 20
17.191807
 30
0.0
 11
46.121035
 21
16.691807
 31
0.0
  0
ARC
  5
8B4
330
8AE
100
AcDbEntity
  8
DIMENSION
 62
     0
100
AcDbCircle
 10
46.121035
 20
16.691807
 30
0.0
 40
0.0
100
AcDbArc
 50
0.0
 51
180.0
  0
ARC
  5
8B5
330
8AE
100
AcDbEntity
  8
DIMENSION
 62
     0
100
AcDbCircle
 10
46.121035
 20
16.691807
 30
0.0
 40
0.0
100
AcDbArc
 50
180.0
 51
0.0
  0
SOLID
  5
8B6
330
8AE
100
AcDbEntity
  8
DIMENSION
 62
     0
100
AcDbTrace
 10
46.537702
 20
14.191807
 30
0.0
 11
45.704368
 21
14.191807
 31
0.0
 12
46.121035
 22
16.691807
 32
0.0
 13
46.121035
 23
16.691807
 33
0.0
  0
SOLID
  5
8B7
330
8AE
100
AcDbEntity
  8
DIMENSION
 62
     0
100
AcDbTrace
 10
46.537702
 20
14.191807
 30
0.0
 11
45.704368
 21
14.191807
 31
0.0
 12
46.121035
 22
16.691807
 32
0.0
 13
46.121035
 23
16.691807
 33
0.0
  0
MTEXT
  5
8B8
330
8AE
100
AcDbEntity
  8
DIMENSION
 62
     0
100
AcDbMText
 10
41.162702
 20
16.691807
 30
0.0
 40
2.5
 41
0.0
 71
     5
 72
     1
  1
\A1;0%%d
  0
POINT
  5
8B9
330
8AE
100
AcDbEntity
  8
DEFPOINTS
 62
     0
100
AcDbPoint
 10
46.121035
 20
16.691807
 30
0.0
  0
POINT
  5
8BA
330
8AE
100
AcDbEntity
  8
DEFPOINTS
 62
     0
100
AcDbPoint
 10
22.078834
 20
40.732867
 30
0.0
  0
POINT
  5
8BB
330
8AE
100
AcDbEntity
  8
DEFPOINTS
 62
     0
100
AcDbPoint
 10
46.121035
 20
16.691807
 30
0.0
  0
POINT
  5
8BC
330
8AE
100
AcDbEntity
  8
DEFPOINTS
 62
     0
100
AcDbPoint
 10
46.121035
 20
16.691807
 30
0.0
  0
ENDBLK
  5
8B0
330
8AE
100
AcDbEntity
  8
0
100
AcDbBlockEnd
  0
BLOCK
  5
8C1
330
8C0
100
AcDbEntity
  8
0
100
AcDbBlockBegin
  2
*D22
 70
     1
 10
0.0
 20
0.0
 30
0.0
  3
*D22
  1
*D22
  0
LINE
  5
8C3
330
8C0
100
AcDbEntity
  8
DIMENSION
 62
     0
100
AcDbLine
 10
21.578834
 20
40.732867
 30
0.0
 11
22.078834
 21
40.732867
 31
0.0
  0
LINE
  5
8C4
330
8C0
100
AcDbEntity
  8
DIMENSION
 62
     0
100
AcDbLine
 10
45.621035
 20
16.691807
 30
0.0
 11
22.078834
 21
16.691807
 31
0.0
  0
LINE
  5
8C5
330
8C0
100
AcDbEntity
  8
DIMENSION
 62
     0
100
AcDbLine
 10
22.078834
 20
38.232867
 30
0.0
 11
22.078834
 21
36.17067
 31
0.0
  0
LINE
  5
8C6
330
8C0
100
AcDbEntity
  8
DIMENSION
 62
     0
100
AcDbLine
 10
22.078834
 20
19.191807
 30
0.0
 11
22.078834
 21
21.254004
 31
0.0
  0
SOLID
  5
8C7
330
8C0
100
AcDbEntity
  8
DIMENSION
 62
     0
100
AcDbTrace
 10
22.495501
 20
38.232867
 30
0.0
 11
21.662167
 21
38.232867
 31
0.0
 12
22.078834
 22
40.732867
 32
0.0
 13
22.078834
 23
40.732867
 33
0.0
  0
SOLID
  5
8C8
330
8C0
100
AcDbEntity
  8
DIMENSION
 62
     0
100
AcDbTrace
 10
21.662167
 20
19.191807
 30
0.0
 11
22.495501
 21
19.191807
 31
0.0
 12
22.078834
 22
16.691807
 32
0.0
 13
22.078834
 23
16.691807
 33
0.0
  0
MTEXT
  5
8C9
330
8C0
100
AcDbEntity
  8
DIMENSION
 62
     0
100
AcDbMText
 10
22.078834
 20
28.712337
 30
0.0
 40
2.5
 41
0.0
 71
     5
 72
     1
  1
\A1;24.0411
 11
0.0
 21
1.0
 31
0.0
  0
POINT
  5
8CA
330
8C0
100
AcDbEntity
  8
DEFPOINTS
 62
     0
100
AcDbPoint
 10
22.078834
 20
40.732867
 30
0.0
  0
POINT
  5
8CB
330
8C0
100
AcDbEntity
  8
DEFPOINTS
 62
     0
100
AcDbPoint
 10
46.121035
 20
16.691807
 30
0.0
  0
POINT
  5
8CC
330
8C0
100
AcDbEntity
  8
DEFPOINTS
 62
     0
100
AcDbPoint
 10
22.078834
 20
16.691807
 30
0.0
  0
ENDBLK
  5
8C2
330
8C0
100
AcDbEntity
  8
0
100
AcDbBlockEnd
  0
BLOCK
  5
8D1
330
8D0
100
AcDbEntity
  8
0
100
AcDbBlockBegin
  2
*D23
 70
     1
 10
0.0
 20
0.0
 30
0.0
  3
*D23
  1
*D23
  0
LINE
  5
8D3
330
8D0
100
AcDbEntity
  8
DIMENSION
 62
     0
100
AcDbLine
 10
24.356734
 20
28.802381
 30
0.0
 11
24.356734
 21
28.302381
 31
0.0
  0
LINE
  5
8D4
330
8D0
100
AcDbEntity
  8
DIMENSION
 62
     0
100
AcDbLine
 10
22.432396
 20
40.379322
 30
0.0
 11
28.677997
 21
34.134017
 31
0.0
  0
ARC
  5
8D5
330
8D0
100
AcDbEntity
  8
DIMENSION
 62
     0
100
AcDbCircle
 10
46.121035
 20
16.691807
 30
0.0
 40
24.66759510759769
100
AcDbArc
 50
157.730748
 51
311.371202
  0
ARC
  5
8D6
330
8D0
100
AcDbEntity
  8
DIMENSION
 62
     0
100
AcDbCircle
 10
46.121035
 20
16.691807
 30
0.0
 40
24.66759510759769
100
AcDbArc
 50
335.551632
 51
129.192085
  0
SOLID
  5
8D7
330
8D0
100
AcDbEntity
  8
DIMENSION
 62
     0
100
AcDbTrace
 10
23.670408
 20
25.862592
 30
0.0
 11
22.916224
 21
26.217065
 31
0.0
 12
24.356734
 22
28.302381
 32
0.0
 13
24.356734
 23
28.302381
 33
0.0
  0
SOLID
  5
8D8
330
8D0
100
AcDbEntity
  8
DIMENSION
 62
     0
100
AcDbTrace
 10
30.253706
 20
36.11915
 30
0.0
 11
30.81236
 21
35.500805
 31
0.0
 12
28.677997
 22
34.134017
 32
0.0
 13
28.677997
 23
34.134017
 33
0.0
  0
MTEXT
  5
8D9
330
8D0
100
AcDbEntity
  8
DIMENSION
 62
     0
100
AcDbMText
 10
65.940365
 20
2.00561
 30
0.0
 40
2.5
 41
0.0
 71
     5
 72
     1
  1
\A1;343%%d
 11
0.5953639701356573
 21
0.8034561239198493
 31
0.0
  0
POINT
  5
8DA
330
8D0
100
AcDbEntity
  8
DEFPOINTS
 62
     0
100
AcDbPoint
 10
46.121035
 20
16.691807
 30
0.0
  0
POINT
  5
8DB
330
8D0
100
AcDbEntity
  8
DEFPOINTS
 62
     0
100
AcDbPoint
 10
24.356734
 20
28.302381
 30
0.0
  0
POINT
  5
8DC
330
8D0
100
AcDbEntity
  8
DEFPOINTS
 62
     0
100
AcDbPoint
 10
22.078834
 20
40.732867
 30
0.0
  0
POINT
  5
8DD
330
8D0
100
AcDbEntity
  8
DEFPOINTS
 62
     0
100
AcDbPoint
 10
44.521203
 20
-7.923854
 30
0.0
  0
ENDBLK
  5
8D2
330
8D0
100
AcDbEntity
  8
0
100
AcDbBlockEnd
  0
BLOCK
  5
8E3
330
8E2
100
AcDbEntity
  8
0
100
AcDbBlockBegin
  2
*D24
 70
     1
 10
0.0
 20
0.0
 30
0.0
  3
*D24
  1
*D24
  0
LINE
  5
8E5
330
8E2
100
AcDbEntity
  8
DIMENSION
 62
     0
100
AcDbLine
 10
21.725289
 20
40.379305
 30
0.0
 11
6.337826
 21
24.991112
 31
0.0
  0
LINE
  5
8E6
330
8E2
100
AcDbEntity
  8
DIMENSION
 62
     0
100
AcDbLine
 10
45.76749
 20
16.338245
 30
0.0
 11
30.380027
 21
0.950052
 31
0.0
  0
LINE
  5
8E7
330
8E2
100
AcDbEntity
  8
DIMENSION
 62
     0
100
AcDbLine
 10
8.105635
 20
23.223387
 30
0.0
 11
16.178629
 21
15.150776
 31
0.0
  0
LINE
  5
8E8
330
8E2
100
AcDbEntity
  8
DIMENSION
 62
     0
100
AcDbLine
 10
28.612218
 20
2.717777
 30
0.0
 11
20.539224
 21
10.790387
 31
0.0
  0
SOLID
  5
8E9
330
8E2
100
AcDbEntity
  8
DIMENSION
 62
     0
100
AcDbTrace
 10
8.400255
 20
23.518021
 30
0.0
 11
7.811014
 21
22.928752
 31
0.0
 12
6.337826
 22
24.991112
 32
0.0
 13
6.337826
 23
24.991112
 33
0.0
  0
SOLID
  5
8EA
330
8E2
100
AcDbEntity
  8
DIMENSION
 62
     0
100
AcDbTrace
 10
28.317597
 20
2.423142
 30
0.0
 11
28.906839
 21
3.012411
 31
0.0
 12
30.380027
 22
0.950052
 32
0.0
 13
30.380027
 23
0.950052
 33
0.0
  0
MTEXT
  5
8EB
330
8E2
100
AcDbEntity
  8
DIMENSION
 62
     0
100
AcDbMText
 10
18.358926
 20
12.970582
 30
0.0
 40
2.5
 41
0.0
 71
     5
 72
     1
  1
\A1;34
 11
0.7071235603992647
 21
-0.7070900015756606
 31
0.0
  0
POINT
  5
8EC
330
8E2
100
AcDbEntity
  8
DEFPOINTS
 62
     0
100
AcDbPoint
 10
22.078834
 20
40.732867
 30
0.0
  0
POINT
  5
8ED
330
8E2
100
AcDbEntity
  8
DEFPOINTS
 62
     0
100
AcDbPoint
 10
46.121035
 20
16.691807
 30
0.0
  0
POINT
  5
8EE
330
8E2
100
AcDbEntity
  8
DEFPOINTS
 62
     0
100
AcDbPoint
 10
30.380027
 20
0.950052
 30
0.0
  0
ENDBLK
  5
8E4
330
8E2
100
AcDbEntity
  8
0
100
AcDbBlockEnd
  0
BLOCK
  5
8F3
330
8F2
100
AcDbEntity
  8
0
100
AcDbBlockBegin
  2
*D25
 70
     1
 10
0.0
 20
0.0
 30
0.0
  3
*D25
  1
*D25
  0
LINE
  5
8F5
330
8F2
100
AcDbEntity
  8
DIMENSION
 62
     0
100
AcDbLine
 10
22.579405
 20
16.691237
 30
0.0
 11
46.120465
 21
16.691237
 31
0.0
  0
LINE
  5
8F6
330
8F2
100
AcDbEntity
  8
DIMENSION
 62
     0
100
AcDbLine
 10
46.620465
 20
40.733438
 30
0.0
 11
46.120465
 21
40.733438
 31
0.0
  0
LINE
  5
8F7
330
8F2
100
AcDbEntity
  8
DIMENSION
 62
     0
100
AcDbLine
 10
46.120465
 20
19.191237
 30
0.0
 11
46.120465
 21
20.420671
 31
0.0
  0
LINE
  5
8F8
330
8F2
100
AcDbEntity
  8
DIMENSION
 62
     0
100
AcDbLine
 10
46.120465
 20
38.233438
 30
0.0
 11
46.120465
 21
37.004004
 31
0.0
  0
SOLID
  5
8F9
330
8F2
100
AcDbEntity
  8
DIMENSION
 62
     0
100
AcDbTrace
 10
45.703798
 20
19.191237
 30
0.0
 11
46.537132
 21
19.191237
 31
0.0
 12
46.120465
 22
16.691237
 32
0.0
 13
46.120465
 23
16.691237
 33
0.0
  0
SOLID
  5
8FA
330
8F2
100
AcDbEntity
  8
DIMENSION
 62
     0
100
AcDbTrace
 10
46.537132
 20
38.233438
 30
0.0
 11
45.703798
 21
38.233438
 31
0.0
 12
46.120465
 22
40.733438
 32
0.0
 13
46.120465
 23
40.733438
 33
0.0
  0
MTEXT
  5
8FB
330
8F2
100
AcDbEntity
  8
DIMENSION
 62
     0
100
AcDbMText
 10
46.120465
 20
28.712338
 30
0.0
 40
2.5
 41
0.0
 71
     5
 72
     1
  1
\A1;24.0422
 11
0.0
 21
1.0
 31
0.0
  0
POINT
  5
8FC
330
8F2
100
AcDbEntity
  8
DEFPOINTS
 62
     0
100
AcDbPoint
 10
22.079405
 20
16.691237
 30
0.0
  0
POINT
  5
8FD
330
8F2
100
AcDbEntity
  8
DEFPOINTS
 62
     0
100
AcDbPoint
 10
46.120465
 20
40.733438
 30
0.0
  0
POINT
  5
905
330
8F2
100
AcDbEntity
  8
DEFPOINTS
 62
     0
100
AcDbPoint
 10
46.120465
 20
40.733438
 30
0.0
  0
ENDBLK
  5
8F4
330
8F2
100
AcDbEntity
  8
0
100
AcDbBlockEnd
  0
BLOCK
  5
909
330
908
100
AcDbEntity
  8
0
100
AcDbBlockBegin
  2
*D26
 70
     1
 10
0.0
 20
0.0
 30
0.0
  3
*D26
  1
*D26
  0
LINE
  5
90B
330
908
100
AcDbEntity
  8
DIMENSION
 62
     0
100
AcDbLine
 10
45.097985
 20
29.439859
 30
0.0
 11
45.097985
 21
28.939859
 31
0.0
  0
LINE
  5
90C
330
908
100
AcDbEntity
  8
DIMENSION
 62
     0
100
AcDbLine
 10
22.43295
 20
17.044799
 30
0.0
 11
37.750061
 21
32.362637
 31
0.0
  0
ARC
  5
90D
330
908
100
AcDbEntity
  8
DIMENSION
 62
     0
100
AcDbCircle
 10
46.120465
 20
40.733438
 30
0.0
 40
11.83781951964301
100
AcDbArc
 50
277.167714
 51
40.260821
  0
ARC
  5
90E
330
908
100
AcDbEntity
  8
DIMENSION
 62
     0
100
AcDbCircle
 10
46.120465
 20
40.733438
 30
0.0
 40
11.83781951964301
100
AcDbArc
 50
89.785498
 51
212.878605
  0
SOLID
  5
90F
330
908
100
AcDbEntity
  8
DIMENSION
 62
     0
100
AcDbTrace
 10
47.589474
 20
29.404718
 30
0.0
 11
47.605564
 21
28.57154
 31
0.0
 12
45.097985
 22
28.939859
 32
0.0
 13
45.097985
 23
28.939859
 33
0.0
  0
SOLID
  5
910
330
908
100
AcDbEntity
  8
DIMENSION
 62
     0
100
AcDbTrace
 10
35.854711
 20
34.045271
 30
0.0
 11
36.502882
 21
34.569026
 31
0.0
 12
37.750061
 22
32.362637
 32
0.0
 13
37.750061
 23
32.362637
 33
0.0
  0
MTEXT
  5
911
330
908
100
AcDbEntity
  8
DIMENSION
 62
     0
100
AcDbMText
 10
51.119007
 20
51.464167
 30
0.0
 40
2.5
 41
0.0
 71
     5
 72
     1
  1
\A1;320%%d
 11
0.9064785388244603
 21
-0.4222518900498513
 31
0.0
  0
POINT
  5
912
330
908
100
AcDbEntity
  8
DEFPOINTS
 62
     0
100
AcDbPoint
 10
46.120465
 20
40.733438
 30
0.0
  0
POINT
  5
913
330
908
100
AcDbEntity
  8
DEFPOINTS
 62
     0
100
AcDbPoint
 10
45.097985
 20
28.939859
 30
0.0
  0
POINT
  5
914
330
908
100
AcDbEntity
  8
DEFPOINTS
 62
     0
100
AcDbPoint
 10
22.079405
 20
16.691237
 30
0.0
  0
POINT
  5
915
330
908
100
AcDbEntity
  8
DEFPOINTS
 62
     0
100
AcDbPoint
 10
57.71245
 20
43.133409
 30
0.0
  0
ENDBLK
  5
90A
330
908
100
AcDbEntity
  8
0
100
AcDbBlockEnd
  0
BLOCK
  5
91D
330
91C
100
AcDbEntity
  8
0
100
AcDbBlockBegin
  2
*D27
 70
     1
 10
0.0
 20
0.0
 30
0.0
  3
*D27
  1
*D27
  0
LINE
  5
91F
330
91C
100
AcDbEntity
  8
DIMENSION
 62
     0
100
AcDbLine
 10
22.432967
 20
16.337692
 30
0.0
 11
41.835666
 21
-3.064086
 31
0.0
  0
LINE
  5
920
330
91C
100
AcDbEntity
  8
DIMENSION
 62
     0
100
AcDbLine
 10
46.474027
 20
40.379893
 30
0.0
 11
65.876726
 21
20.978115
 31
0.0
  0
LINE
  5
921
330
91C
100
AcDbEntity
  8
DIMENSION
 62
     0
100
AcDbLine
 10
43.603391
 20
-1.296277
 30
0.0
 11
51.676002
 21
6.776717
 31
0.0
  0
LINE
  5
922
330
91C
100
AcDbEntity
  8
DIMENSION
 62
     0
100
AcDbLine
 10
64.109001
 20
19.210306
 30
0.0
 11
56.03639
 21
11.137312
 31
0.0
  0
SOLID
  5
923
330
91C
100
AcDbEntity
  8
DIMENSION
 62
     0
100
AcDbTrace
 10
43.308756
 20
-1.001657
 30
0.0
 11
43.898026
 21
-1.590898
 31
0.0
 12
41.835666
 22
-3.064086
 32
0.0
 13
41.835666
 23
-3.064086
 33
0.0
  0
SOLID
  5
924
330
91C
100
AcDbEntity
  8
DIMENSION
 62
     0
100
AcDbTrace
 10
64.403636
 20
18.915685
 30
0.0
 11
63.814366
 21
19.504927
 31
0.0
 12
65.876726
 22
20.978115
 32
0.0
 13
65.876726
 23
20.978115
 33
0.0
  0
MTEXT
  5
925
330
91C
100
AcDbEntity
  8
DIMENSION
 62
     0
100
AcDbMText
 10
53.856196
 20
8.957014
 30
0.0
 40
2.5
 41
0.0
 71
     5
 72
     1
  1
\A1;34
 11
0.7070900015756606
 21
0.7071235603992647
 31
0.0
  0
POINT
  5
926
330
91C
100
AcDbEntity
  8
DEFPOINTS
 62
     0
100
AcDbPoint
 10
22.079405
 20
16.691237
 30
0.0
  0
POINT
  5
927
330
91C
100
AcDbEntity
  8
DEFPOINTS
 62
     0
100
AcDbPoint
 10
46.120465
 20
40.733438
 30
0.0
  0
POINT
  5
928
330
91C
100
AcDbEntity
  8
DEFPOINTS
 62
     0
100
AcDbPoint
 10
65.876726
 20
20.978115
 30
0.0
  0
ENDBLK
  5
91E
330
91C
100
AcDbEntity
  8
0
100
AcDbBlockEnd
  0
BLOCK
  5
92D
330
92C
100
AcDbEntity
  8
0
100
AcDbBlockBegin
  2
*D28
 70
     1
 10
0.0
 20
0.0
 30
0.0
  3
*D28
  1
*D28
  0
LINE
  5
92F
330
92C
100
AcDbEntity
  8
DIMENSION
 62
     0
100
AcDbLine
 10
43.90988
 20
56.16258
 30
0.0
 11
43.90988
 21
55.66258
 31
0.0
  0
LINE
  5
930
330
92C
100
AcDbEntity
  8
DIMENSION
 62
     0
100
AcDbLine
 10
63.909853
 20
56.16258
 30
0.0
 11
63.909853
 21
55.66258
 31
0.0
  0
LINE
  5
931
330
92C
100
AcDbEntity
  8
DIMENSION
 62
     0
100
AcDbLine
 10
41.40988
 20
55.66258
 30
0.0
 11
38.90988
 21
55.66258
 31
0.0
  0
LINE
  5
932
330
92C
100
AcDbEntity
  8
DIMENSION
 62
     0
100
AcDbLine
 10
66.409853
 20
55.66258
 30
0.0
 11
68.909853
 21
55.66258
 31
0.0
  0
SOLID
  5
933
330
92C
100
AcDbEntity
  8
DIMENSION
 62
     0
100
AcDbTrace
 10
41.40988
 20
55.245913
 30
0.0
 11
41.40988
 21
56.079247
 31
0.0
 12
43.90988
 22
55.66258
 32
0.0
 13
43.90988
 23
55.66258
 33
0.0
  0
SOLID
  5
934
330
92C
100
AcDbEntity
  8
DIMENSION
 62
     0
100
AcDbTrace
 10
66.409853
 20
56.079247
 30
0.0
 11
66.409853
 21
55.245913
 31
0.0
 12
63.909853
 22
55.66258
 32
0.0
 13
63.909853
 23
55.66258
 33
0.0
  0
MTEXT
  5
935
330
92C
100
AcDbEntity
  8
DIMENSION
 62
     0
100
AcDbMText
 10
53.909866
 20
55.66258
 30
0.0
 40
2.5
 41
0.0
 71
     5
 72
     1
  1
\A1;20.0000
  0
POINT
  5
936
330
92C
100
AcDbEntity
  8
DEFPOINTS
 62
     0
100
AcDbPoint
 10
43.90988
 20
55.66258
 30
0.0
  0
POINT
  5
937
330
92C
100
AcDbEntity
  8
DEFPOINTS
 62
     0
100
AcDbPoint
 10
63.909853
 20
55.66258
 30
0.0
  0
POINT
  5
938
330
92C
100
AcDbEntity
  8
DEFPOINTS
 62
     0
100
AcDbPoint
 10
63.909853
 20
55.66258
 30
0.0
  0
ENDBLK
  5
92E
330
92C
100
AcDbEntity
  8
0
100
AcDbBlockEnd
  0
BLOCK
  5
93F
330
93E
100
AcDbEntity
  8
0
100
AcDbBlockBegin
  2
*D29
 70
     1
 10
0.0
 20
0.0
 30
0.0
  3
*D29
  1
*D29
  0
LINE
  5
941
330
93E
100
AcDbEntity
  8
DIMENSION
 62
     0
100
AcDbLine
 10
63.909853
 20
55.66258
 30
0.0
 11
61.409853
 21
55.66258
 31
0.0
  0
LINE
  5
942
330
93E
100
AcDbEntity
  8
DIMENSION
 62
     0
100
AcDbLine
 10
44.40988
 20
55.66258
 30
0.0
 11
63.909853
 21
55.66258
 31
0.0
  0
LINE
  5
943
330
93E
100
AcDbEntity
  8
DIMENSION
 62
     0
100
AcDbLine
 10
63.909853
 20
56.16258
 30
0.0
 11
63.909853
 21
55.66258
 31
0.0
  0
ARC
  5
944
330
93E
100
AcDbEntity
  8
DIMENSION
 62
     0
100
AcDbCircle
 10
63.909853
 20
55.66258
 30
0.0
 40
0.0
100
AcDbArc
 50
0.0
 51
180.0
  0
ARC
  5
945
330
93E
100
AcDbEntity
  8
DIMENSION
 62
     0
100
AcDbCircle
 10
63.909853
 20
55.66258
 30
0.0
 40
0.0
100
AcDbArc
 50
180.0
 51
0.0
  0
SOLID
  5
946
330
93E
100
AcDbEntity
  8
DIMENSION
 62
     0
100
AcDbTrace
 10
64.32652
 20
53.16258
 30
0.0
 11
63.493186
 21
53.16258
 31
0.0
 12
63.909853
 22
55.66258
 32
0.0
 13
63.909853
 23
55.66258
 33
0.0
  0
SOLID
  5
947
330
93E
100
AcDbEntity
  8
DIMENSION
 62
     0
100
AcDbTrace
 10
64.32652
 20
53.16258
 30
0.0
 11
63.493186
 21
53.16258
 31
0.0
 12
63.909853
 22
55.66258
 32
0.0
 13
63.909853
 23
55.66258
 33
0.0
  0
MTEXT
  5
948
330
93E
100
AcDbEntity
  8
DIMENSION
 62
     0
100
AcDbMText
 10
58.95152
 20
55.66258
 30
0.0
 40
2.5
 41
0.0
 71
     5
 72
     1
  1
\A1;0%%d
  0
POINT
  5
949
330
93E
100
AcDbEntity
  8
DEFPOINTS
 62
     0
100
AcDbPoint
 10
63.909853
 20
55.66258
 30
0.0
  0
POINT
  5
94A
330
93E
100
AcDbEntity
  8
DEFPOINTS
 62
     0
100
AcDbPoint
 10
43.90988
 20
55.66258
 30
0.0
  0
POINT
  5
94B
330
93E
100
AcDbEntity
  8
DEFPOINTS
 62
     0
100
AcDbPoint
 10
63.909853
 20
55.66258
 30
0.0
  0
POINT
  5
94C
330
93E
100
AcDbEntity
  8
DEFPOINTS
 62
     0
100
AcDbPoint
 10
63.909853
 20
55.66258
 30
0.0
  0
ENDBLK
  5
940
330
93E
100
AcDbEntity
  8
0
100
AcDbBlockEnd
  0
BLOCK
  5
951
330
950
100
AcDbEntity
  8
0
100
AcDbBlockBegin
  2
*D30
 70
     1
 10
0.0
 20
0.0
 30
0.0
  3
*D30
  1
*D30
  0
LINE
  5
953
330
950
100
AcDbEntity
  8
DIMENSION
 62
     0
100
AcDbLine
 10
43.90988
 20
56.16258
 30
0.0
 11
43.90988
 21
75.66258
 31
0.0
  0
LINE
  5
954
330
950
100
AcDbEntity
  8
DIMENSION
 62
     0
100
AcDbLine
 10
63.909853
 20
56.16258
 30
0.0
 11
63.909853
 21
75.66258
 31
0.0
  0
LINE
  5
955
330
950
100
AcDbEntity
  8
DIMENSION
 62
     0
100
AcDbLine
 10
46.40988
 20
75.66258
 30
0.0
 11
51.034866
 21
75.66258
 31
0.0
  0
LINE
  5
956
330
950
100
AcDbEntity
  8
DIMENSION
 62
     0
100
AcDbLine
 10
61.409853
 20
75.66258
 30
0.0
 11
56.784866
 21
75.66258
 31
0.0
  0
SOLID
  5
957
330
950
100
AcDbEntity
  8
DIMENSION
 62
     0
100
AcDbTrace
 10
46.40988
 20
76.079247
 30
0.0
 11
46.40988
 21
75.245913
 31
0.0
 12
43.90988
 22
75.66258
 32
0.0
 13
43.90988
 23
75.66258
 33
0.0
  0
SOLID
  5
958
330
950
100
AcDbEntity
  8
DIMENSION
 62
     0
100
AcDbTrace
 10
61.409853
 20
75.245913
 30
0.0
 11
61.409853
 21
76.079247
 31
0.0
 12
63.909853
 22
75.66258
 32
0.0
 13
63.909853
 23
75.66258
 33
0.0
  0
MTEXT
  5
959
330
950
100
AcDbEntity
  8
DIMENSION
 62
     0
100
AcDbMText
 10
53.909866
 20
75.66258
 30
0.0
 40
2.5
 41
0.0
 71
     5
 72
     1
  1
\A1;20
  0
POINT
  5
95A
330
950
100
AcDbEntity
  8
DEFPOINTS
 62
     0
100
AcDbPoint
 10
43.90988
 20
55.66258
 30
0.0
  0
POINT
  5
95B
330
950
100
AcDbEntity
  8
DEFPOINTS
 62
     0
100
AcDbPoint
 10
63.909853
 20
55.66258
 30
0.0
  0
POINT
  5
95C
330
950
100
AcDbEntity
  8
DEFPOINTS
 62
     0
100
AcDbPoint
 10
63.909853
 20
75.66258
 30
0.0
  0
ENDBLK
  5
952
330
950
100
AcDbEntity
  8
0
100
AcDbBlockEnd
  0
BLOCK
  5
961
330
960
100
AcDbEntity
  8
0
100
AcDbBlockBegin
  2
*D31
 70
     1
 10
0.0
 20
0.0
 30
0.0
  3
*D31
  1
*D31
  0
LINE
  5
963
330
960
100
AcDbEntity
  8
DIMENSION
 62
     0
100
AcDbLine
 10
33.930311
 20
63.219363
 30
0.0
 11
33.930311
 21
62.719363
 31
0.0
  0
LINE
  5
964
330
960
100
AcDbEntity
  8
DIMENSION
 62
     0
100
AcDbLine
 10
73.889422
 20
63.219363
 30
0.0
 11
73.889422
 21
62.719363
 31
0.0
  0
LINE
  5
965
330
960
100
AcDbEntity
  8
DIMENSION
 62
     0
100
AcDbLine
 10
36.430311
 20
62.719363
 30
0.0
 11
45.826533
 21
62.719363
 31
0.0
  0
LINE
  5
966
330
960
100
AcDbEntity
  8
DIMENSION
 62
     0
100
AcDbLine
 10
71.389422
 20
62.719363
 30
0.0
 11
61.9932
 21
62.719363
 31
0.0
  0
SOLID
  5
967
330
960
100
AcDbEntity
  8
DIMENSION
 62
     0
100
AcDbTrace
 10
36.430311
 20
63.13603
 30
0.0
 11
36.430311
 21
62.302696
 31
0.0
 12
33.930311
 22
62.719363
 32
0.0
 13
33.930311
 23
62.719363
 33
0.0
  0
SOLID
  5
968
330
960
100
AcDbEntity
  8
DIMENSION
 62
     0
100
AcDbTrace
 10
71.389422
 20
62.302696
 30
0.0
 11
71.389422
 21
63.13603
 31
0.0
 12
73.889422
 22
62.719363
 32
0.0
 13
73.889422
 23
62.719363
 33
0.0
  0
MTEXT
  5
969
330
960
100
AcDbEntity
  8
DIMENSION
 62
     0
100
AcDbMText
 10
53.909866
 20
62.719363
 30
0.0
 40
2.5
 41
0.0
 71
     5
 72
     1
  1
\A1;39.9591
  0
POINT
  5
96A
330
960
100
AcDbEntity
  8
DEFPOINTS
 62
     0
100
AcDbPoint
 10
33.930311
 20
62.719363
 30
0.0
  0
POINT
  5
96B
330
960
100
AcDbEntity
  8
DEFPOINTS
 62
     0
100
AcDbPoint
 10
73.889422
 20
62.719363
 30
0.0
  0
POINT
  5
96C
330
960
100
AcDbEntity
  8
DEFPOINTS
 62
     0
100
AcDbPoint
 10
73.889422
 20
62.719363
 30
0.0
  0
ENDBLK
  5
962
330
960
100
AcDbEntity
  8
0
100
AcDbBlockEnd
  0
BLOCK
  5
972
330
971
100
AcDbEntity
  8
0
100
AcDbBlockBegin
  2
*D32
 70
     1
 10
0.0
 20
0.0
 30
0.0
  3
*D32
  1
*D32
  0
LINE
  5
974
330
971
100
AcDbEntity
  8
DIMENSION
 62
     0
100
AcDbLine
 10
71.87761
 20
63.033568
 30
0.0
 11
74.37761
 21
63.033568
 31
0.0
  0
LINE
  5
975
330
971
100
AcDbEntity
  8
DIMENSION
 62
     0
100
AcDbLine
 10
73.089422
 20
61.346901
 30
0.0
 11
73.089422
 21
60.846901
 31
0.0
  0
LINE
  5
976
330
971
100
AcDbEntity
  8
DIMENSION
 62
     0
100
AcDbLine
 10
34.430311
 20
62.719363
 30
0.0
 11
71.853221
 21
62.719363
 31
0.0
  0
ARC
  5
977
330
971
100
AcDbEntity
  8
DIMENSION
 62
     0
100
AcDbCircle
 10
73.889422
 20
62.719363
 30
0.0
 40
2.036200859798451
100
AcDbArc
 50
171.123266
 51
246.865647
  0
ARC
  5
978
330
971
100
AcDbEntity
  8
DIMENSION
 62
     0
100
AcDbCircle
 10
73.889422
 20
62.719363
 30
0.0
 40
2.036200859798451
100
AcDbArc
 50
322.608028
 51
104.257619
  0
SOLID
  5
979
330
971
100
AcDbEntity
  8
DIMENSION
 62
     0
100
AcDbTrace
 10
75.401191
 20
61.885811
 30
0.0
 11
75.613175
 21
61.07989
 31
0.0
 12
73.089422
 22
60.846901
 32
0.0
 13
73.089422
 23
60.846901
 33
0.0
  0
SOLID
  5
97A
330
971
100
AcDbEntity
  8
DIMENSION
 62
     0
100
AcDbTrace
 10
73.059028
 20
64.948632
 30
0.0
 11
73.716856
 21
64.437058
 31
0.0
 12
71.853221
 22
62.719363
 32
0.0
 13
71.853221
 23
62.719363
 33
0.0
  0
MTEXT
  5
97B
330
971
100
AcDbEntity
  8
DIMENSION
 62
     0
100
AcDbMText
 10
79.544276
 20
63.033568
 30
0.0
 40
2.5
 41
0.0
 71
     5
 72
     1
  1
\A1;293%%d
  0
POINT
  5
97C
330
971
100
AcDbEntity
  8
DEFPOINTS
 62
     0
100
AcDbPoint
 10
73.889422
 20
62.719363
 30
0.0
  0
POINT
  5
97D
330
971
100
AcDbEntity
  8
DEFPOINTS
 62
     0
100
AcDbPoint
 10
73.089422
 20
60.846901
 30
0.0
  0
POINT
  5
97E
330
971
100
AcDbEntity
  8
DEFPOINTS
 62
     0
100
AcDbPoint
 10
33.930311
 20
62.719363
 30
0.0
  0
POINT
  5
97F
330
971
100
AcDbEntity
  8
DEFPOINTS
 62
     0
100
AcDbPoint
 10
74.162648
 20
64.737149
 30
0.0
  0
ENDBLK
  5
973
330
971
100
AcDbEntity
  8
0
100
AcDbBlockEnd
  0
BLOCK
  5
984
330
983
100
AcDbEntity
  8
0
100
AcDbBlockBegin
  2
*D33
 70
     1
 10
0.0
 20
0.0
 30
0.0
  3
*D33
  1
*D33
  0
LINE
  5
986
330
983
100
AcDbEntity
  8
DIMENSION
 62
     0
100
AcDbLine
 10
33.930311
 20
63.219363
 30
0.0
 11
33.930311
 21
87.719363
 31
0.0
  0
LINE
  5
987
330
983
100
AcDbEntity
  8
DIMENSION
 62
     0
100
AcDbLine
 10
73.889422
 20
63.219363
 30
0.0
 11
73.889422
 21
87.719363
 31
0.0
  0
LINE
  5
988
330
983
100
AcDbEntity
  8
DIMENSION
 62
     0
100
AcDbLine
 10
36.430311
 20
87.719363
 30
0.0
 11
51.034866
 21
87.719363
 31
0.0
  0
LINE
  5
989
330
983
100
AcDbEntity
  8
DIMENSION
 62
     0
100
AcDbLine
 10
71.389422
 20
87.719363
 30
0.0
 11
56.784866
 21
87.719363
 31
0.0
  0
SOLID
  5
98A
330
983
100
AcDbEntity
  8
DIMENSION
 62
     0
100
AcDbTrace
 10
36.430311
 20
88.13603
 30
0.0
 11
36.430311
 21
87.302696
 31
0.0
 12
33.930311
 22
87.719363
 32
0.0
 13
33.930311
 23
87.719363
 33
0.0
  0
SOLID
  5
98B
330
983
100
AcDbEntity
  8
DIMENSION
 62
     0
100
AcDbTrace
 10
71.389422
 20
87.302696
 30
0.0
 11
71.389422
 21
88.13603
 31
0.0
 12
73.889422
 22
87.719363
 32
0.0
 13
73.889422
 23
87.719363
 33
0.0
  0
MTEXT
  5
98C
330
983
100
AcDbEntity
  8
DIMENSION
 62
     0
100
AcDbMText
 10
53.909866
 20
87.719363
 30
0.0
 40
2.5
 41
0.0
 71
     5
 72
     1
  1
\A1;40
  0
POINT
  5
98D
330
983
100
AcDbEntity
  8
DEFPOINTS
 62
     0
100
AcDbPoint
 10
33.930311
 20
62.719363
 30
0.0
  0
POINT
  5
98E
330
983
100
AcDbEntity
  8
DEFPOINTS
 62
     0
100
AcDbPoint
 10
73.889422
 20
62.719363
 30
0.0
  0
POINT
  5
98F
330
983
100
AcDbEntity
  8
DEFPOINTS
 62
     0
100
AcDbPoint
 10
73.889422
 20
87.719363
 30
0.0
  0
ENDBLK
  5
985
330
983
100
AcDbEntity
  8
0
100
AcDbBlockEnd
  0
BLOCK
  5
994
330
993
100
AcDbEntity
  8
0
100
AcDbBlockBegin
  2
*D34
 70
     1
 10
0.0
 20
0.0
 30
0.0
  3
*D34
  1
*D34
  0
LINE
  5
996
330
993
100
AcDbEntity
  8
DIMENSION
 62
     0
100
AcDbLine
 10
34.506228
 20
65.591825
 30
0.0
 11
5.006228
 21
65.591825
 31
0.0
  0
LINE
  5
997
330
993
100
AcDbEntity
  8
DIMENSION
 62
     0
100
AcDbLine
 10
43.40988
 20
55.66258
 30
0.0
 11
5.006228
 21
55.66258
 31
0.0
  0
LINE
  5
998
330
993
100
AcDbEntity
  8
DIMENSION
 62
     0
100
AcDbLine
 10
5.006228
 20
53.16258
 30
0.0
 11
2.506228
 21
53.16258
 31
0.0
  0
LINE
  5
999
330
993
100
AcDbEntity
  8
DIMENSION
 62
     0
100
AcDbLine
 10
5.006228
 20
63.091825
 30
0.0
 11
5.006228
 21
58.16258
 31
0.0
  0
LINE
  5
99A
330
993
100
AcDbEntity
  8
DIMENSION
 62
     0
100
AcDbLine
 10
5.006228
 20
55.66258
 30
0.0
 11
5.006228
 21
53.16258
 31
0.0
  0
SOLID
  5
99B
330
993
100
AcDbEntity
  8
DIMENSION
 62
     0
100
AcDbTrace
 10
5.422895
 20
63.091825
 30
0.0
 11
4.589562
 21
63.091825
 31
0.0
 12
5.006228
 22
65.591825
 32
0.0
 13
5.006228
 23
65.591825
 33
0.0
  0
SOLID
  5
99C
330
993
100
AcDbEntity
  8
DIMENSION
 62
     0
100
AcDbTrace
 10
4.589562
 20
58.16258
 30
0.0
 11
5.422895
 21
58.16258
 31
0.0
 12
5.006228
 22
55.66258
 32
0.0
 13
5.006228
 23
55.66258
 33
0.0
  0
MTEXT
  5
99D
330
993
100
AcDbEntity
  8
DIMENSION
 62
     0
100
AcDbMText
 10
0.047895
 20
53.16258
 30
0.0
 40
2.5
 41
0.0
 71
     5
 72
     1
  1
\A1;10
  0
POINT
  5
99E
330
993
100
AcDbEntity
  8
DEFPOINTS
 62
     0
100
AcDbPoint
 10
35.006228
 20
65.591825
 30
0.0
  0
POINT
  5
99F
330
993
100
AcDbEntity
  8
DEFPOINTS
 62
     0
100
AcDbPoint
 10
43.90988
 20
55.66258
 30
0.0
  0
POINT
  5
9C8
330
993
100
AcDbEntity
  8
DEFPOINTS
 62
     0
100
AcDbPoint
 10
5.006228
 20
55.66258
 30
0.0
  0
ENDBLK
  5
995
330
993
100
AcDbEntity
  8
0
100
AcDbBlockEnd
  0
BLOCK
  5
9A7
330
9A6
100
AcDbEntity
  8
0
100
AcDbBlockBegin
  2
*D35
 70
     1
 10
0.0
 20
0.0
 30
0.0
  3
*D35
  1
*D35
  0
LINE
  5
9A9
330
9A6
100
AcDbEntity
  8
DIMENSION
 62
     0
100
AcDbLine
 10
34.599935
 20
11.711934
 30
0.0
 11
107.118526
 21
11.711934
 31
0.0
  0
LINE
  5
9AA
330
9A6
100
AcDbEntity
  8
DIMENSION
 62
     0
100
AcDbLine
 10
60.381597
 20
65.591825
 30
0.0
 11
107.118526
 21
65.591825
 31
0.0
  0
LINE
  5
9AB
330
9A6
100
AcDbEntity
  8
DIMENSION
 62
     0
100
AcDbLine
 10
107.118526
 20
14.211934
 30
0.0
 11
107.118526
 21
33.901879
 31
0.0
  0
LINE
  5
9AC
330
9A6
100
AcDbEntity
  8
DIMENSION
 62
     0
100
AcDbLine
 10
107.118526
 20
63.091825
 30
0.0
 11
107.118526
 21
43.401879
 31
0.0
  0
SOLID
  5
9AD
330
9A6
100
AcDbEntity
  8
DIMENSION
 62
     0
100
AcDbTrace
 10
106.701859
 20
14.211934
 30
0.0
 11
107.535193
 21
14.211934
 31
0.0
 12
107.118526
 22
11.711934
 32
0.0
 13
107.118526
 23
11.711934
 33
0.0
  0
SOLID
  5
9AE
330
9A6
100
AcDbEntity
  8
DIMENSION
 62
     0
100
AcDbTrace
 10
107.535193
 20
63.091825
 30
0.0
 11
106.701859
 21
63.091825
 31
0.0
 12
107.118526
 22
65.591825
 32
0.0
 13
107.118526
 23
65.591825
 33
0.0
  0
MTEXT
  5
9AF
330
9A6
100
AcDbEntity
  8
DIMENSION
 62
     0
100
AcDbMText
 10
107.118526
 20
38.651879
 30
0.0
 40
2.5
 41
0.0
 71
     5
 72
     1
  1
\A1;53.9
 11
0.0
 21
1.0
 31
0.0
  0
POINT
  5
9B0
330
9A6
100
AcDbEntity
  8
DEFPOINTS
 62
     0
100
AcDbPoint
 10
34.099935
 20
11.711934
 30
0.0
  0
POINT
  5
9B1
330
9A6
100
AcDbEntity
  8
DEFPOINTS
 62
     0
100
AcDbPoint
 10
59.881597
 20
65.591825
 30
0.0
  0
POINT
  5
9B6
330
9A6
100
AcDbEntity
  8
DEFPOINTS
 62
     0
100
AcDbPoint
 10
107.118526
 20
65.591825
 30
0.0
  0
ENDBLK
  5
9A8
330
9A6
100
AcDbEntity
  8
0
100
AcDbBlockEnd
  0
BLOCK
  5
9B9
330
9B8
100
AcDbEntity
  8
0
100
AcDbBlockBegin
  2
*D36
 70
     1
 10
0.0
 20
0.0
 30
0.0
  3
*D36
  1
*D36
  0
LINE
  5
9BB
330
9B8
100
AcDbEntity
  8
DIMENSION
 62
     0
100
AcDbLine
 10
17.099531
 20
39.844674
 30
0.0
 11
17.099531
 21
82.719363
 31
0.0
  0
LINE
  5
9BC
330
9B8
100
AcDbEntity
  8
DIMENSION
 62
     0
100
AcDbLine
 10
33.930311
 20
63.219363
 30
0.0
 11
33.930311
 21
82.719363
 31
0.0
  0
LINE
  5
9BD
330
9B8
100
AcDbEntity
  8
DIMENSION
 62
     0
100
AcDbLine
 10
19.599531
 20
82.719363
 30
0.0
 11
21.181588
 21
82.719363
 31
0.0
  0
LINE
  5
9BE
330
9B8
100
AcDbEntity
  8
DIMENSION
 62
     0
100
AcDbLine
 10
31.430311
 20
82.719363
 30
0.0
 11
29.848254
 21
82.719363
 31
0.0
  0
SOLID
  5
9BF
330
9B8
100
AcDbEntity
  8
DIMENSION
 62
     0
100
AcDbTrace
 10
19.599531
 20
83.13603
 30
0.0
 11
19.599531
 21
82.302696
 31
0.0
 12
17.099531
 22
82.719363
 32
0.0
 13
17.099531
 23
82.719363
 33
0.0
  0
SOLID
  5
9C0
330
9B8
100
AcDbEntity
  8
DIMENSION
 62
     0
100
AcDbTrace
 10
31.430311
 20
82.302696
 30
0.0
 11
31.430311
 21
83.13603
 31
0.0
 12
33.930311
 22
82.719363
 32
0.0
 13
33.930311
 23
82.719363
 33
0.0
  0
MTEXT
  5
9C1
330
9B8
100
AcDbEntity
  8
DIMENSION
 62
     0
100
AcDbMText
 10
25.514921
 20
82.719363
 30
0.0
 40
2.5
 41
0.0
 71
     5
 72
     1
  1
\A1;16.8
  0
POINT
  5
9C2
330
9B8
100
AcDbEntity
  8
DEFPOINTS
 62
     0
100
AcDbPoint
 10
17.099531
 20
39.344674
 30
0.0
  0
POINT
  5
9C3
330
9B8
100
AcDbEntity
  8
DEFPOINTS
 62
     0
100
AcDbPoint
 10
33.930311
 20
62.719363
 30
0.0
  0
POINT
  5
9C4
330
9B8
100
AcDbEntity
  8
DEFPOINTS
 62
     0
100
AcDbPoint
 10
33.930311
 20
82.719363
 30
0.0
  0
ENDBLK
  5
9BA
330
9B8
100
AcDbEntity
  8
0
100
AcDbBlockEnd
  0
BLOCK
  5
9F0
330
9EF
100
AcDbEntity
  8
0
100
AcDbBlockBegin
  2
*D37
 70
     1
 10
0.0
 20
0.0
 30
0.0
  3
*D37
  1
*D37
  0
LINE
  5
9F2
330
9EF
100
AcDbEntity
  8
DIMENSION
 62
     0
100
AcDbLine
 10
74.260093
 20
46.714804
 30
0.0
 11
98.760093
 21
46.714804
 31
0.0
  0
LINE
  5
9F3
330
9EF
100
AcDbEntity
  8
DIMENSION
 62
     0
100
AcDbLine
 10
70.116287
 20
65.591825
 30
0.0
 11
98.760093
 21
65.591825
 31
0.0
  0
LINE
  5
9F4
330
9EF
100
AcDbEntity
  8
DIMENSION
 62
     0
100
AcDbLine
 10
98.760093
 20
49.214804
 30
0.0
 11
98.760093
 21
51.819981
 31
0.0
  0
LINE
  5
9F5
330
9EF
100
AcDbEntity
  8
DIMENSION
 62
     0
100
AcDbLine
 10
98.760093
 20
63.091825
 30
0.0
 11
98.760093
 21
60.486648
 31
0.0
  0
SOLID
  5
9F6
330
9EF
100
AcDbEntity
  8
DIMENSION
 62
     0
100
AcDbTrace
 10
98.343426
 20
49.214804
 30
0.0
 11
99.17676
 21
49.214804
 31
0.0
 12
98.760093
 22
46.714804
 32
0.0
 13
98.760093
 23
46.714804
 33
0.0
  0
SOLID
  5
9F7
330
9EF
100
AcDbEntity
  8
DIMENSION
 62
     0
100
AcDbTrace
 10
99.17676
 20
63.091825
 30
0.0
 11
98.343426
 21
63.091825
 31
0.0
 12
98.760093
 22
65.591825
 32
0.0
 13
98.760093
 23
65.591825
 33
0.0
  0
MTEXT
  5
9F8
330
9EF
100
AcDbEntity
  8
DIMENSION
 62
     0
100
AcDbMText
 10
98.760093
 20
56.153314
 30
0.0
 40
2.5
 41
0.0
 71
     5
 72
     1
  1
\A1;18.9
 11
0.0
 21
1.0
 31
0.0
  0
POINT
  5
9F9
330
9EF
100
AcDbEntity
  8
DEFPOINTS
 62
     0
100
AcDbPoint
 10
73.760093
 20
46.714804
 30
0.0
  0
POINT
  5
9FA
330
9EF
100
AcDbEntity
  8
DEFPOINTS
 62
     0
100
AcDbPoint
 10
69.616287
 20
65.591825
 30
0.0
  0
POINT
  5
9FB
330
9EF
100
AcDbEntity
  8
DEFPOINTS
 62
     0
100
AcDbPoint
 10
98.760093
 20
65.591825
 30
0.0
  0
ENDBLK
  5
9F1
330
9EF
100
AcDbEntity
  8
0
100
AcDbBlockEnd
  0
BLOCK
  5
A02
330
A01
100
AcDbEntity
  8
0
100
AcDbBlockBegin
  2
*D38
 70
     1
 10
0.0
 20
0.0
 30
0.0
  3
*D38
  1
*D38
  0
LINE
  5
A04
330
A01
100
AcDbEntity
  8
DIMENSION
 62
     0
100
AcDbLine
 10
74.260093
 20
46.714804
 30
0.0
 11
98.760093
 21
46.714804
 31
0.0
  0
LINE
  5
A05
330
A01
100
AcDbEntity
  8
DIMENSION
 62
     0
100
AcDbLine
 10
96.063241
 20
55.803724
 30
0.0
 11
98.760093
 21
55.803724
 31
0.0
  0
LINE
  5
A06
330
A01
100
AcDbEntity
  8
DIMENSION
 62
     0
100
AcDbLine
 10
98.760093
 20
58.303724
 30
0.0
 11
101.260093
 21
58.303724
 31
0.0
  0
LINE
  5
A07
330
A01
100
AcDbEntity
  8
DIMENSION
 62
     0
100
AcDbLine
 10
98.760093
 20
49.214804
 30
0.0
 11
98.760093
 21
53.303724
 31
0.0
  0
LINE
  5
A08
330
A01
100
AcDbEntity
  8
DIMENSION
 62
     0
100
AcDbLine
 10
98.760093
 20
55.803724
 30
0.0
 11
98.760093
 21
58.303724
 31
0.0
  0
SOLID
  5
A09
330
A01
100
AcDbEntity
  8
DIMENSION
 62
     0
100
AcDbTrace
 10
98.343426
 20
49.214804
 30
0.0
 11
99.17676
 21
49.214804
 31
0.0
 12
98.760093
 22
46.714804
 32
0.0
 13
98.760093
 23
46.714804
 33
0.0
  0
SOLID
  5
A0A
330
A01
100
AcDbEntity
  8
DIMENSION
 62
     0
100
AcDbTrace
 10
99.17676
 20
53.303724
 30
0.0
 11
98.343426
 21
53.303724
 31
0.0
 12
98.760093
 22
55.803724
 32
0.0
 13
98.760093
 23
55.803724
 33
0.0
  0
MTEXT
  5
A0B
330
A01
100
AcDbEntity
  8
DIMENSION
 62
     0
100
AcDbMText
 10
108.30176
 20
58.303724
 30
0.0
 40
2.5
 41
0.0
 71
     5
 72
     1
  1
\A1;9.0889
  0
POINT
  5
A0C
330
A01
100
AcDbEntity
  8
DEFPOINTS
 62
     0
100
AcDbPoint
 10
73.760093
 20
46.714804
 30
0.0
  0
POINT
  5
A0D
330
A01
100
AcDbEntity
  8
DEFPOINTS
 62
     0
100
AcDbPoint
 10
95.563241
 20
55.803724
 30
0.0
  0
POINT
  5
A0E
330
A01
100
AcDbEntity
  8
DEFPOINTS
 62
     0
100
AcDbPoint
 10
98.760093
 20
55.803724
 30
0.0
  0
ENDBLK
  5
A03
330
A01
100
AcDbEntity
  8
0
100
AcDbBlockEnd
  0
BLOCK
  5
A13
330
A12
100
AcDbEntity
  8
0
100
AcDbBlockBegin
  2
*D39
 70
     1
 10
0.0
 20
0.0
 30
0.0
  3
*D39
  1
*D39
  0
LINE
  5
A15
330
A12
100
AcDbEntity
  8
DIMENSION
 62
     0
100
AcDbLine
 10
80.339641
 20
43.521319
 30
0.0
 11
77.839641
 21
43.521319
 31
0.0
  0
LINE
  5
A16
330
A12
100
AcDbEntity
  8
DIMENSION
 62
     0
100
AcDbLine
 10
77.839641
 20
43.521319
 30
0.0
 11
75.723163
 21
44.851928
 31
0.0
  0
MTEXT
  5
A17
330
A12
100
AcDbEntity
  8
DIMENSION
 62
     0
100
AcDbMText
 10
83.006308
 20
43.521319
 30
0.0
 40
2.5
 41
0.0
 71
     5
 72
     1
  1
\A1;R1
  0
SOLID
  5
A18
330
A12
100
AcDbEntity
  8
DIMENSION
 62
     0
100
AcDbTrace
 10
75.944931
 20
45.204674
 30
0.0
 11
75.501395
 21
44.499182
 31
0.0
 12
73.606684
 22
46.182537
 32
0.0
 13
73.606684
 23
46.182537
 33
0.0
  0
LINE
  5
A19
330
A12
100
AcDbEntity
  8
DIMENSION
 62
     0
100
AcDbLine
 10
70.260093
 20
46.71478
 30
0.0
 11
75.260093
 21
46.71478
 31
0.0
  0
LINE
  5
ACC
330
A12
100
AcDbEntity
  8
DIMENSION
 62
     0
100
AcDbLine
 10
72.760093
 20
44.21478
 30
0.0
 11
72.760093
 21
49.21478
 31
0.0
  0
POINT
  5
ACD
330
A12
100
AcDbEntity
  8
DEFPOINTS
 62
     0
100
AcDbPoint
 10
73.606684
 20
46.182537
 30
0.0
  0
POINT
  5
ACE
330
A12
100
AcDbEntity
  8
DEFPOINTS
 62
     0
100
AcDbPoint
 10
72.760093
 20
46.71478
 30
0.0
  0
ENDBLK
  5
A14
330
A12
100
AcDbEntity
  8
0
100
AcDbBlockEnd
  0
BLOCK
  5
AD1
330
AD0
100
AcDbEntity
  8
0
100
AcDbBlockBegin
  2
*D40
 70
     1
 10
0.0
 20
0.0
 30
0.0
  3
*D40
  1
*D40
  0
LINE
  5
AD3
330
AD0
100
AcDbEntity
  8
DIMENSION
 62
     0
100
AcDbLine
 10
63.228412
 20
54.230405
 30
0.0
 11
65.728412
 21
54.230405
 31
0.0
  0
LINE
  5
AD4
330
AD0
100
AcDbEntity
  8
DIMENSION
 62
     0
100
AcDbLine
 10
65.728412
 20
54.230405
 30
0.0
 11
73.359273
 21
46.599544
 31
0.0
  0
MTEXT
  5
AD5
330
AD0
100
AcDbEntity
  8
DIMENSION
 62
     0
100
AcDbMText
 10
54.936746
 20
54.230405
 30
0.0
 40
2.5
 41
0.0
 71
     5
 72
     1
  1
\A1;R10.0000
  0
SOLID
  5
AD6
330
AD0
100
AcDbEntity
  8
DIMENSION
 62
     0
100
AcDbTrace
 10
73.064645
 20
46.304916
 30
0.0
 11
73.653901
 21
46.894172
 31
0.0
 12
75.12704
 22
44.831777
 32
0.0
 13
75.12704
 23
44.831777
 33
0.0
  0
POINT
  5
AD7
330
AD0
100
AcDbEntity
  8
DEFPOINTS
 62
     0
100
AcDbPoint
 10
75.12704
 20
44.831777
 30
0.0
  0
POINT
  5
AE6
330
AD0
100
AcDbEntity
  8
DEFPOINTS
 62
     0
100
AcDbPoint
 10
68.055972
 20
51.902845
 30
0.0
  0
ENDBLK
  5
AD2
330
AD0
100
AcDbEntity
  8
0
100
AcDbBlockEnd
  0
ENDSEC
  0
SECTION
  2
ENTITIES
  0
LINE
  5
386
330
1F
100
AcDbEntity
  8
DETOURAGE
  6
CONTINUOUS
100
AcDbLine
 10
51.100338
 20
15.711934
 30
0.0
 11
51.100338
 21
21.66275
 31
0.0
  0
ARC
  5
387
330
1F
100
AcDbEntity
  8
DETOURAGE
  6
CONTINUOUS
100
AcDbCircle
 10
60.145506
 20
21.66275
 30
0.0
 40
9.045168
100
AcDbArc
 50
132.287568
 51
180.0
  0
LINE
  5
388
330
1F
100
AcDbEntity
  8
DETOURAGE
  6
CONTINUOUS
100
AcDbLine
 10
54.059446
 20
28.354158
 30
0.0
 11
73.432945
 21
45.975003
 31
0.0
  0
ARC
  5
389
102
{ACAD_REACTORS
330
9FD
330
A1E
102
}
330
1F
100
AcDbEntity
  8
DETOURAGE
  6
CONTINUOUS
100
AcDbCircle
 10
72.760093
 20
46.71478
 30
0.0
 40
1.0
100
AcDbArc
 50
312.287568
 51
0.001364
  0
LINE
  5
38A
330
1F
100
AcDbEntity
  8
DETOURAGE
  6
CONTINUOUS
100
AcDbLine
 10
73.760093
 20
46.714804
 30
0.0
 11
73.760005
 21
50.426063
 31
0.0
  0
ARC
  5
39A
330
1F
100
AcDbEntity
  8
DETOURAGE
  6
CONTINUOUS
100
AcDbCircle
 10
24.21995
 20
39.392034
 30
0.0
 40
7.120419
100
AcDbArc
 50
115.991341
 51
180.0
  0
LINE
  5
39B
102
{ACAD_REACTORS
330
9C7
102
}
330
1F
100
AcDbEntity
  8
DETOURAGE
  6
CONTINUOUS
100
AcDbLine
 10
17.099531
 20
39.392034
 30
0.0
 11
17.099531
 21
15.711934
 31
0.0
  0
ARC
  5
39C
330
1F
100
AcDbEntity
  8
DETOURAGE
  6
CONTINUOUS
100
AcDbCircle
 10
21.099531
 20
15.711934
 30
0.0
 40
4.0
100
AcDbArc
 50
180.0
 51
270.0
  0
LINE
  5
39D
102
{ACAD_REACTORS
330
9B4
102
}
330
1F
100
AcDbEntity
  8
DETOURAGE
  6
CONTINUOUS
100
AcDbLine
 10
21.099531
 20
11.711934
 30
0.0
 11
47.100338
 21
11.711934
 31
0.0
  0
ARC
  5
39E
330
1F
100
AcDbEntity
  8
DETOURAGE
  6
CONTINUOUS
100
AcDbCircle
 10
47.100338
 20
15.711934
 30
0.0
 40
4.0
100
AcDbArc
 50
270.0
 51
0.0
  0
CIRCLE
  5
3A1
102
{ACAD_REACTORS
330
600
330
92A
102
}
330
1F
100
AcDbEntity
  8
DETOURAGE
  6
CONTINUOUS
100
AcDbCircle
 10
46.120465
 20
40.733438
 30
0.0
 40
1.6
  0
CIRCLE
  5
3A2
102
{ACAD_REACTORS
330
8F0
102
}
330
1F
100
AcDbEntity
  8
DETOURAGE
  6
CONTINUOUS
100
AcDbCircle
 10
46.121035
 20
16.691807
 30
0.0
 40
1.6
  0
CIRCLE
  5
3A3
102
{ACAD_REACTORS
330
43F
102
}
330
1F
100
AcDbEntity
  8
DETOURAGE
  6
CONTINUOUS
100
AcDbCircle
 10
34.100338
 20
28.712337
 30
0.0
 40
11.0
  0
CIRCLE
  5
3A4
102
{ACAD_REACTORS
330
8F0
102
}
330
1F
100
AcDbEntity
  8
DETOURAGE
  6
CONTINUOUS
100
AcDbCircle
 10
22.078834
 20
40.732867
 30
0.0
 40
1.6
  0
CIRCLE
  5
3A5
102
{ACAD_REACTORS
330
92A
102
}
330
1F
100
AcDbEntity
  8
DETOURAGE
  6
CONTINUOUS
100
AcDbCircle
 10
22.079405
 20
16.691237
 30
0.0
 40
1.6
  0
LINE
  5
3C9
102
{ACAD_REACTORS
330
991
102
}
330
1F
100
AcDbEntity
  8
DETOURAGE
100
AcDbLine
 10
73.889422
 20
60.846901
 30
0.0
 11
73.889422
 21
64.591825
 31
0.0
  0
LINE
  5
3CA
102
{ACAD_REACTORS
330
9A1
330
9B4
102
}
330
1F
100
AcDbEntity
  8
DETOURAGE
100
AcDbLine
 10
34.93031
 20
65.591825
 30
0.0
 11
72.889424
 21
65.591825
 31
0.0
  0
LINE
  5
3CB
102
{ACAD_REACTORS
330
991
330
9C7
102
}
330
1F
100
AcDbEntity
  8
DETOURAGE
100
AcDbLine
 10
33.930311
 20
60.846901
 30
0.0
 11
33.930311
 21
64.591825
 31
0.0
  0
CIRCLE
  5
3CC
102
{ACAD_REACTORS
330
95E
330
9A1
102
}
330
1F
100
AcDbEntity
  8
DETOURAGE
  6
BYBLOCK
100
AcDbCircle
 10
43.90988
 20
55.66258
 30
0.0
 40
3.1
  0
CIRCLE
  5
3CD
102
{ACAD_REACTORS
330
662
330
95E
102
}
330
1F
100
AcDbEntity
  8
DETOURAGE
  6
BYBLOCK
100
AcDbCircle
 10
63.909853
 20
55.66258
 30
0.0
 40
3.1
  0
ARC
  5
3CE
330
1F
100
AcDbEntity
  8
DETOURAGE
100
AcDbCircle
 10
34.930311
 20
64.591825
 30
0.0
 40
1.000000000000483
100
AcDbArc
 50
90.0
 51
180.0
1001
MCSXDATA5
1071
      167
1004
06000000000000008B0000001C000000E404000000000000000000001F050A025C020509020FEE020C4D43535F46494C4C45545F3109020FEE020C4D43535F46494C4C45545F3209020FEE020C4D43535F46494C4C45545F3309020FEE020C4D43535F46494C4C45545F3409020FEE020C4D43535F46494C4C45545F351202
1004
2602050201030201030202020103020326020102010302012202010302010302010201030201221A
  0
ARC
  5
3CF
330
1F
100
AcDbEntity
  8
DETOURAGE
100
AcDbCircle
 10
72.889422
 20
64.591825
 30
0.0
 40
1.000000000002046
100
AcDbArc
 50
0.0
 51
90.0
1001
MCSXDATA5
1071
      167
1004
06000000000000008B0000001C000000E404000000000000000000001F050A025C020509020FEE020C4D43535F46494C4C45545F3109020FEE020C4D43535F46494C4C45545F3209020FEE020C4D43535F46494C4C45545F3309020FEE020C4D43535F46494C4C45545F3409020FEE020C4D43535F46494C4C45545F351202
1004
2602050201030201030202020103020326020102010302012202010302010302010201030201221A
  0
ARC
  5
3D0
102
{ACAD_REACTORS
330
778
102
}
330
1F
100
AcDbEntity
  8
DETOURAGE
100
AcDbCircle
 10
75.689422
 20
55.662308
 30
0.0
 40
5.0
100
AcDbArc
 50
116.633119
 51
240.77528
  0
ARC
  5
3D1
102
{ACAD_REACTORS
330
7BD
102
}
330
1F
100
AcDbEntity
  8
DETOURAGE
100
AcDbCircle
 10
32.130311
 20
55.662308
 30
0.0
 40
5.0
100
AcDbArc
 50
296.633119
 51
63.366881
  0
ARC
  5
3D3
330
1F
100
AcDbEntity
  8
DETOURAGE
100
AcDbCircle
 10
34.730311
 20
60.846901
 30
0.0
 40
0.7999999998939984
100
AcDbArc
 50
180.0
 51
243.366881
1001
MCSXDATA5
1071
      173
1004
0600000000000000910000001C000000E404000000000000000000001F050A025C020509020FEE020C4D43535F46494C4C45545F3109020FEE020C4D43535F46494C4C45545F3209020FEE020C4D43535F46494C4C45545F3309020FEE020C4D43535F46494C4C45545F3409020FEE020C4D43535F46494C4C45545F351202
1004
2C020502010302010302020201030203069A9999999999E93F02010302012202010302010302010201030201221A
  0
ARC
  5
3D5
330
1F
100
AcDbEntity
  8
DETOURAGE
100
AcDbCircle
 10
73.089422
 20
60.846901
 30
0.0
 40
0.8000000001133172
100
AcDbArc
 50
296.633119
 51
0.0
1001
MCSXDATA5
1071
      173
1004
0600000000000000910000001C000000E404000000000000000000001F050A025C020509020FEE020C4D43535F46494C4C45545F3109020FEE020C4D43535F46494C4C45545F3209020FEE020C4D43535F46494C4C45545F3309020FEE020C4D43535F46494C4C45545F3409020FEE020C4D43535F46494C4C45545F351202
1004
2C020502010302010302020201030203069A9999999999E93F02010302012202010302010302010201030201221A
  0
LINE
  5
3D7
330
1F
100
AcDbEntity
  8
DETOURAGE
100
AcDbLine
 10
21.099531
 20
45.792296
 30
0.0
 11
34.371691
 21
51.192832
 31
0.0
  0
ARC
  5
3EC
102
{ACAD_REACTORS
102
}
330
1F
100
AcDbEntity
  8
DETOURAGE
100
AcDbCircle
 10
72.760005
 20
50.426039
 30
0.0
 40
1.000000000002921
100
AcDbArc
 50
0.001365
 51
60.77528
1001
MCSXDATA5
1071
      167
1004
06000000000000008B0000001C000000E404000000000000000000001F050A025C020509020FEE020C4D43535F46494C4C45545F3109020FEE020C4D43535F46494C4C45545F3209020FEE020C4D43535F46494C4C45545F3309020FEE020C4D43535F46494C4C45545F3409020FEE020C4D43535F46494C4C45545F351202
1004
2602050201030201030202020103020326020102010302012202010302010302010201030201221A
  0
DIMENSION
  5
431
102
{ACAD_REACTORS
330
43F
102
}
102
{ACAD_XDICTIONARY
360
43E
102
}
330
1F
100
AcDbEntity
  8
DIMENSION
100
AcDbDimension
  2
*D5
 10
23.102692
 20
28.484815
 30
0.0
 11
45.046275
 21
31.439324
 31
0.0
 70
   163
  1
{\Q0;%%C}22H7
  3
STANDARD
100
AcDbDiametricDimension
 15
45.097985
 25
28.939859
 35
0.0
 40
0.0
1001
ACAD_DSTYLE_DIMRADIAL_EXTE
1070
   387
1070
     1
1070
   388
1040
0.0
1070
   390
1040
0.0
1001
ACAD
1000
DSTYLE
1002
{
1070
   287
1070
     5
1070
     7
1000

1070
     6
1000

1070
     5
1000

1070
    75
1070
     1
1070
    76
1070
     1
1070
   340
1005
11
1070
   279
1070
     2
1070
   144
1040
1.0
1070
    40
1040
1.0
1070
   173
1070
     1
1070
   283
1070
     1
1002
}
  0
DIMENSION
  5
5F1
102
{ACAD_REACTORS
330
600
102
}
102
{ACAD_XDICTIONARY
360
5FF
102
}
330
1F
100
AcDbEntity
  8
DIMENSION
100
AcDbDimension
  2
*D10
 10
44.55476
 20
41.062933
 30
0.0
 11
48.201006
 21
42.850358
 31
0.0
 70
   163
  1
{\Q0;%%C}3.2
  3
STANDARD
100
AcDbDiametricDimension
 15
47.68617
 25
40.403943
 35
0.0
 40
0.0
1001
ACAD_DSTYLE_DIMRADIAL_EXT0
1070
   387
1070
     1
1070
   388
1040
0.0
1070
   390
1040
0.0
1001
ACAD
1000
DSTYLE
1002
{
1070
   287
1070
     5
1070
     7
1000

1070
     6
1000

1070
     5
1000

1070
    75
1070
     1
1070
    76
1070
     1
1070
   340
1005
11
1070
   279
1070
     2
1070
   144
1040
1.0
1070
    40
1040
1.0
1070
   173
1070
     1
1070
   283
1070
     1
1002
}
  0
DIMENSION
  5
654
102
{ACAD_REACTORS
330
662
102
}
102
{ACAD_XDICTIONARY
360
661
102
}
330
1F
100
AcDbEntity
  8
DIMENSION
100
AcDbDimension
  2
*D11
 10
61.483461
 20
53.73317
 30
0.0
 11
64.780269
 21
59.548757
 31
0.0
 70
   163
  1
{\Q0;%%C}6.2
  3
STANDARD
100
AcDbDiametricDimension
 15
66.336245
 25
57.59199
 35
0.0
 40
0.0
1001
ACAD_DSTYLE_DIMRADIAL_EXT0
1070
   387
1070
     1
1070
   388
1040
0.0
1070
   390
1040
0.0
1001
ACAD
1000
DSTYLE
1002
{
1070
   287
1070
     5
1070
     7
1000

1070
     6
1000

1070
     5
1000

1070
    75
1070
     1
1070
    76
1070
     1
1070
   340
1005
11
1070
   279
1070
     2
1070
   144
1040
1.0
1070
    40
1040
1.0
1070
   173
1070
     1
1070
   283
1070
     1
1002
}
  0
DIMENSION
  5
76B
102
{ACAD_REACTORS
330
778
102
}
102
{ACAD_XDICTIONARY
360
777
102
}
330
1F
100
AcDbEntity
  8
DIMENSION
100
AcDbDimension
  2
*D13
 10
75.689422
 20
55.662308
 30
0.0
 11
82.32736
 21
51.826221
 31
0.0
 70
   164
  1
R5
  3
STANDARD
100
AcDbRadialDimension
 15
71.360332
 25
58.164104
 35
0.0
 40
0.0
1001
ACAD_DSTYLE_DIMRADIAL_EXT0
1070
   387
1070
     1
1070
   388
1040
2.035632
1070
   390
1040
4.202321
1001
ACAD
1000
DSTYLE
1002
{
1070
   287
1070
     4
1070
     7
1000

1070
     6
1000
NONE
1070
     5
1000

1070
   279
1070
     1
1070
   340
1005
11
1070
   144
1040
1.0
1070
    40
1040
1.0
1070
    75
1070
     0
1070
   173
1070
     1
1070
   283
1070
     1
1002
}
  0
DIMENSION
  5
7B0
102
{ACAD_REACTORS
330
7BD
102
}
102
{ACAD_XDICTIONARY
360
7BC
102
}
330
1F
100
AcDbEntity
  8
DIMENSION
100
AcDbDimension
  2
*D14
 10
32.130311
 20
55.662308
 30
0.0
 11
25.634041
 21
51.590913
 31
0.0
 70
   164
  1
R5
  3
STANDARD
100
AcDbRadialDimension
 15
36.367009
 25
58.317566
 35
0.0
 40
0.0
1001
ACAD_DSTYLE_DIMRADIAL_EXT0
1070
   387
1070
     1
1070
   388
1040
5.177225
1070
   390
1040
1.105961
1001
ACAD
1000
DSTYLE
1002
{
1070
   287
1070
     4
1070
     7
1000

1070
     6
1000
NONE
1070
     5
1000

1070
   279
1070
     1
1070
   340
1005
11
1070
   144
1040
1.0
1070
    40
1040
1.0
1070
    75
1070
     0
1070
   173
1070
     1
1070
   283
1070
     1
1002
}
  0
DIMENSION
  5
8E1
102
{ACAD_REACTORS
330
8F0
102
}
102
{ACAD_XDICTIONARY
360
8EF
102
}
330
1F
100
AcDbEntity
  8
DIMENSION
100
AcDbDimension
  2
*D24
 10
30.380027
 20
0.950052
 30
0.0
 11
18.358926
 21
12.970582
 31
0.0
 70
    32
  1
34
  3
STANDARD
100
AcDbAlignedDimension
 13
22.078834
 23
40.732867
 33
0.0
 14
46.121035
 24
16.691807
 34
0.0
 50
-44.99864
100
AcDbRotatedDimension
1001
ACAD
1000
DSTYLE
1002
{
1070
     7
1000

1070
     6
1000

1070
     5
1000

1070
   340
1005
11
1070
   144
1040
1.0
1070
    40
1040
1.0
1070
   173
1070
     1
1070
   283
1070
     1
1002
}
  0
DIMENSION
  5
91B
102
{ACAD_REACTORS
330
92A
102
}
102
{ACAD_XDICTIONARY
360
929
102
}
330
1F
100
AcDbEntity
  8
DIMENSION
100
AcDbDimension
  2
*D27
 10
65.876726
 20
20.978115
 30
0.0
 11
53.856196
 21
8.957014
 31
0.0
 70
    32
  1
34
  3
STANDARD
100
AcDbAlignedDimension
 13
22.079405
 23
16.691237
 33
0.0
 14
46.120465
 24
40.733438
 34
0.0
 50
45.00136
100
AcDbRotatedDimension
1001
ACAD
1000
DSTYLE
1002
{
1070
   287
1070
     4
1070
     7
1000

1070
     6
1000

1070
     5
1000

1070
   279
1070
     1
1070
   340
1005
11
1070
   144
1040
1.0
1070
    40
1040
1.0
1070
   173
1070
     1
1070
   283
1070
     1
1002
}
  0
DIMENSION
  5
94F
102
{ACAD_REACTORS
330
95E
102
}
102
{ACAD_XDICTIONARY
360
95D
102
}
330
1F
100
AcDbEntity
  8
DIMENSION
100
AcDbDimension
  2
*D30
 10
63.909853
 20
75.66258
 30
0.0
 11
53.909866
 21
75.66258
 31
0.0
 70
    32
  1
20
  3
STANDARD
100
AcDbAlignedDimension
 13
43.90988
 23
55.66258
 33
0.0
 14
63.909853
 24
55.66258
 34
0.0
100
AcDbRotatedDimension
1001
ACAD
1000
DSTYLE
1002
{
1070
     7
1000

1070
     6
1000

1070
     5
1000

1070
   340
1005
11
1070
   144
1040
1.0
1070
    40
1040
1.0
1070
   173
1070
     1
1070
   283
1070
     1
1002
}
  0
DIMENSION
  5
982
102
{ACAD_REACTORS
330
991
102
}
102
{ACAD_XDICTIONARY
360
990
102
}
330
1F
100
AcDbEntity
  8
DIMENSION
100
AcDbDimension
  2
*D33
 10
73.889422
 20
87.719363
 30
0.0
 11
53.909866
 21
87.719363
 31
0.0
 70
    32
  1
40
  3
STANDARD
100
AcDbAlignedDimension
 13
33.930311
 23
62.719363
 33
0.0
 14
73.889422
 24
62.719363
 34
0.0
100
AcDbRotatedDimension
1001
ACAD
1000
DSTYLE
1002
{
1070
     7
1000

1070
     6
1000

1070
     5
1000

1070
   340
1005
11
1070
   144
1040
1.0
1070
    40
1040
1.0
1070
   173
1070
     1
1070
   283
1070
     1
1002
}
  0
DIMENSION
  5
992
102
{ACAD_REACTORS
330
9A1
102
}
102
{ACAD_XDICTIONARY
360
9A0
102
}
330
1F
100
AcDbEntity
  8
DIMENSION
100
AcDbDimension
  2
*D34
 10
5.006228
 20
55.66258
 30
0.0
 11
0.047895
 21
53.16258
 31
0.0
 70
    32
  1
10
  3
STANDARD
100
AcDbAlignedDimension
 13
35.006228
 23
65.591825
 33
0.0
 14
43.90988
 24
55.66258
 34
0.0
 50
90.0
100
AcDbRotatedDimension
1001
ACAD
1000
DSTYLE
1002
{
1070
     7
1000

1070
     6
1000

1070
     5
1000

1070
   340
1005
11
1070
   144
1040
1.0
1070
    40
1040
1.0
1070
   173
1070
     1
1070
   283
1070
     1
1002
}
  0
DIMENSION
  5
9A5
102
{ACAD_REACTORS
330
9B4
102
}
102
{ACAD_XDICTIONARY
360
9B3
102
}
330
1F
100
AcDbEntity
  8
DIMENSION
100
AcDbDimension
  2
*D35
 10
107.118526
 20
65.591825
 30
0.0
 11
107.118526
 21
38.651879
 31
0.0
 70
    32
  1
53.9
  3
STANDARD
100
AcDbAlignedDimension
 13
34.099935
 23
11.711934
 33
0.0
 14
59.881597
 24
65.591825
 34
0.0
 50
90.0
100
AcDbRotatedDimension
1001
ACAD
1000
DSTYLE
1002
{
1070
   287
1070
     4
1070
     7
1000

1070
     6
1000

1070
     5
1000

1070
   340
1005
11
1070
   279
1070
     1
1070
   144
1040
1.0
1070
    40
1040
1.0
1070
   173
1070
     1
1070
   283
1070
     1
1002
}
  0
DIMENSION
  5
9B7
102
{ACAD_REACTORS
330
9C7
102
}
102
{ACAD_XDICTIONARY
360
9C6
102
}
330
1F
100
AcDbEntity
  8
DIMENSION
100
AcDbDimension
  2
*D36
 10
33.930311
 20
82.719363
 30
0.0
 11
25.514921
 21
82.719363
 31
0.0
 70
    32
  1
16.8
  3
STANDARD
100
AcDbAlignedDimension
 13
17.099531
 23
39.344674
 33
0.0
 14
33.930311
 24
62.719363
 34
0.0
100
AcDbRotatedDimension
1001
ACAD
1000
DSTYLE
1002
{
1070
     7
1000

1070
     6
1000

1070
     5
1000

1070
   340
1005
11
1070
   144
1040
1.0
1070
    40
1040
1.0
1070
   173
1070
     1
1070
   283
1070
     1
1002
}
  0
DIMENSION
  5
9EE
102
{ACAD_REACTORS
330
9FD
102
}
102
{ACAD_XDICTIONARY
360
9FC
102
}
330
1F
100
AcDbEntity
  8
DIMENSION
100
AcDbDimension
  2
*D37
 10
98.760093
 20
65.591825
 30
0.0
 11
98.760093
 21
56.153314
 31
0.0
 70
    32
  1
18.9
  3
STANDARD
100
AcDbAlignedDimension
 13
73.760093
 23
46.714804
 33
0.0
 14
69.616287
 24
65.591825
 34
0.0
 50
90.0
100
AcDbRotatedDimension
1001
ACAD
1000
DSTYLE
1002
{
1070
     7
1000

1070
     6
1000

1070
     5
1000

1070
   340
1005
11
1070
   144
1040
1.0
1070
    40
1040
1.0
1070
   173
1070
     1
1070
   283
1070
     1
1002
}
  0
DIMENSION
  5
A11
102
{ACAD_REACTORS
330
A1E
102
}
102
{ACAD_XDICTIONARY
360
A1D
102
}
330
1F
100
AcDbEntity
  8
DIMENSION
100
AcDbDimension
  2
*D39
 10
72.760093
 20
46.71478
 30
0.0
 11
77.839641
 21
43.521319
 31
0.0
 70
   164
  1
R1
  3
STANDARD
100
AcDbRadialDimension
 15
73.606684
 25
46.182537
 35
0.0
 40
0.0
1001
ACAD_DSTYLE_DIMRADIAL_EXT0
1070
   387
1070
     1
1070
   388
1040
5.450446
1070
   390
1040
0.000024
1001
ACAD
1000
DSTYLE
1002
{
1070
   287
1070
     4
1070
     7
1000

1070
     6
1000
NONE
1070
     5
1000

1070
   279
1070
     1
1070
   340
1005
11
1070
   144
1040
1.0
1070
    40
1040
1.0
1070
    75
1070
     0
1070
   173
1070
     1
1070
   283
1070
     1
1002
}
  0
VIEWPORT
  5
20F
330
D6
100
AcDbEntity
 67
     1
  8
0
 48
100.0
100
AcDbViewport
 10
0.0
 20
0.0
 30
0.0
 40
466.965848
 41
238.196088
 68
     1
 69
     1
1001
ACAD
1000
MVIEW
1002
{
1070
    16
1010
0.0
1020
0.0
1030
0.0
1010
0.0
1020
0.0
1030
1.0
1040
0.0
1040
238.196088
1040
128.5
1040
97.5
1040
50.0
1040
0.0
1040
0.0
1070
    16
1070
   100
1070
     0
1070
     3
1070
     0
1070
     0
1070
     0
1070
     0
1040
0.0
1040
0.0
1040
0.0
1040
10.0
1040
10.0
1040
10.0
1040
10.0
1070
     0
1002
{
1002
}
1002
}
  0
ENDSEC
  0
SECTION
  2
OBJECTS
  0
DICTIONARY
  5
C
330
0
100
AcDbDictionary
  3
ACAD_COLOR
350
6B
  3
ACAD_GROUP
350
D
  3
ACAD_IMAGE_DICT
350
351
  3
ACAD_LAYOUT
350
1A
  3
ACAD_MATERIAL
350
6A
  3
ACAD_MLEADERSTYLE
350
12D
  3
ACAD_MLINESTYLE
350
17
  3
ACAD_PLOTSETTINGS
350
19
  3
ACAD_SCALELIST
350
10C
  3
ACAD_VISUALSTYLE
350
EF
  3
ACDBHEADERROUNDTRIPXREC
350
B14
  3
ACDBVARIABLEDICTIONARY
350
5E
  3
DWGPROPS
350
B36
  3
MCS_STREAM_DICT
350
34E
  0
DICTIONARY
  5
B37
330
8
100
AcDbDictionary
280
     1
  3
ACAD_XREC_ROUNDTRIP
360
B38
  0
DICTIONARY
  5
234
330
1F
100
AcDbDictionary
280
     1
  3
ACAD_SORTENTS
360
235
  0
DICTIONARY
  5
43E
330
431
100
AcDbDictionary
280
     1
  3
MC_XOBJECT1
360
43F
  0
DICTIONARY
  5
5FF
330
5F1
100
AcDbDictionary
280
     1
  3
MC_XOBJECT1
360
600
  0
DICTIONARY
  5
661
330
654
100
AcDbDictionary
280
     1
  3
MC_XOBJECT1
360
662
  0
DICTIONARY
  5
777
330
76B
100
AcDbDictionary
280
     1
  3
MC_XOBJECT1
360
778
  0
DICTIONARY
  5
7BC
330
7B0
100
AcDbDictionary
280
     1
  3
MC_XOBJECT1
360
7BD
  0
DICTIONARY
  5
8EF
330
8E1
100
AcDbDictionary
280
     1
  3
MC_XOBJECT1
360
8F0
  0
DICTIONARY
  5
929
330
91B
100
AcDbDictionary
280
     1
  3
MC_XOBJECT1
360
92A
  0
DICTIONARY
  5
95D
330
94F
100
AcDbDictionary
280
     1
  3
MC_XOBJECT1
360
95E
  0
DICTIONARY
  5
990
330
982
100
AcDbDictionary
280
     1
  3
MC_XOBJECT1
360
991
  0
DICTIONARY
  5
9A0
330
992
100
AcDbDictionary
280
     1
  3
MC_XOBJECT1
360
9A1
  0
DICTIONARY
  5
9B3
330
9A5
100
AcDbDictionary
280
     1
  3
MC_XOBJECT1
360
9B4
  0
DICTIONARY
  5
9C6
330
9B7
100
AcDbDictionary
280
     1
  3
MC_XOBJECT1
360
9C7
  0
DICTIONARY
  5
9FC
330
9EE
100
AcDbDictionary
280
     1
  3
MC_XOBJECT1
360
9FD
  0
DICTIONARY
  5
A1D
330
A11
100
AcDbDictionary
280
     1
  3
MC_XOBJECT1
360
A1E
  0
DICTIONARY
  5
6B
102
{ACAD_REACTORS
330
C
102
}
330
C
100
AcDbDictionary
  0
DICTIONARY
  5
D
102
{ACAD_REACTORS
330
C
102
}
330
C
100
AcDbDictionary
  0
DICTIONARY
  5
351
102
{ACAD_REACTORS
330
C
102
}
330
C
100
AcDbDictionary
  0
DICTIONARY
  5
1A
102
{ACAD_REACTORS
330
C
102
}
330
C
100
AcDbDictionary
  0
DICTIONARY
  5
6A
102
{ACAD_REACTORS
330
C
102
}
330
C
100
AcDbDictionary
  3
BYBLOCK
350
ED
  3
BYLAYER
350
EC
  3
GLOBAL
350
EE
  0
DICTIONARY
  5
12D
102
{ACAD_REACTORS
330
C
102
}
330
C
100
AcDbDictionary
  3
STANDARD
350
12E
  3
АННОТАТИВНЫЙ
350
13B
  0
DICTIONARY
  5
17
102
{ACAD_REACTORS
330
C
102
}
330
C
100
AcDbDictionary
  3
STANDARD
350
18
  0
DICTIONARY
  5
19
102
{ACAD_REACTORS
330
C
102
}
330
C
100
AcDbDictionary
  0
DICTIONARY
  5
10C
102
{ACAD_REACTORS
330
C
102
}
330
C
100
AcDbDictionary
  3
A0
350
10D
  3
A1
350
1BE
  3
A2
350
1BF
  3
A3
350
1C0
  3
A4
350
1C1
  3
A5
350
1C2
  3
A6
350
1C3
  3
A7
350
1C4
  3
A8
350
1C5
  3
A9
350
1C6
  3
B0
350
1C7
  3
B1
350
1C8
  3
B2
350
1C9
  3
B3
350
1CA
  3
B4
350
1CB
  3
B5
350
1CC
  3
B6
350
1CD
  0
DICTIONARY
  5
EF
102
{ACAD_REACTORS
330
C
102
}
330
C
100
AcDbDictionary
  3
2DWIREFRAME
350
F5
  3
3D_HIDDEN
350
F7
  3
3DWIREFRAME
350
F6
  3
BASIC
350
F4
  3
BRIGHTEN
350
FB
  3
COLORCHANGE
350
FF
  3
CONCEPTUAL
350
F8
  3
DIM
350
FA
  3
EDGECOLOROFF
350
35E
  3
FACEPATTERN
350
FE
  3
FLAT
350
F0
  3
FLATWITHEDGES
350
F1
  3
GOURAUD
350
F2
  3
GOURAUDWITHEDGES
350
F3
  3
HIDDEN
350
35B
  3
JITTEROFF
350
35C
  3
LINEPATTERN
350
FD
  3
OVERHANGOFF
350
35D
  3
REALISTIC
350
F9
  3
SHADED
350
363
  3
Shaded with edges
350
5EF
  3
SHADED_WITH_EDGE0
350
362
  3
Shades of Gray
350
5EE
  3
SHADES_OF_GRA0
350
35F
  3
SKETCHY
350
360
  3
THICKEN
350
FC
  3
WIREFRAME
350
35A
  3
X-RAY
350
361
  0
DICTIONARY
  5
B14
102
{ACAD_REACTORS
330
C
102
}
330
C
100
AcDbDictionary
  3
CEPSNTYPE
350
B1D
  3
COLORDICT
350
B34
  3
DIMSTYLEDATA
350
B33
  3
FINGERPRINTGUID
350
B1E
  3
HYPERLINKBASE
350
B17
  3
INSUNITS
350
B1C
  3
LAYOUTDICT
350
B19
  3
LWETCUNION
350
B1B
  3
MATERIALDICT
350
B35
  3
PLOTSETDICT
350
B1A
  3
PSVPSCALE
350
B20
  3
PUCSBASE
350
B23
  3
PUCSORGBACK
350
B29
  3
PUCSORGBOTTOM
350
B25
  3
PUCSORGFRONT
350
B28
  3
PUCSORGLEFT
350
B26
  3
PUCSORGRIGHT
350
B27
  3
PUCSORGTOP
350
B24
  3
PUCSORTHOREF
350
B21
  3
PUCSORTHOVIEW
350
B22
  3
STYLESHEET
350
B18
  3
TSTACKALIGN
350
B15
  3
TSTACKSIZE
350
B16
  3
UCSBASE
350
B2C
  3
UCSORGBACK
350
B32
  3
UCSORGBOTTOM
350
B2E
  3
UCSORGFRONT
350
B31
  3
UCSORGLEFT
350
B2F
  3
UCSORGRIGHT
350
B30
  3
UCSORGTOP
350
B2D
  3
UCSORTHOREF
350
B2A
  3
UCSORTHOVIEW
350
B2B
  3
VERSIONGUID
350
B1F
  0
DICTIONARY
  5
5E
102
{ACAD_REACTORS
330
C
102
}
330
C
100
AcDbDictionary
  3
CANNOSCALE
350
9C9
  3
CMLEADERSTYLE
350
145
  3
CTABLESTYLE
350
84
  3
DIMASSOC
350
5F
  3
HIDETEXT
350
63
  3
LAYEREVAL
350
1AE
  3
LAYERNOTIFY
350
1AF
  3
MSLTSCALE
350
42A
  3
PSOLHEIGHT
350
B08
  3
PSOLWIDTH
350
B07
  3
XCLIPFRAME
350
356
  0
XRECORD
  5
B36
102
{ACAD_REACTORS
330
C
102
}
330
C
100
AcDbXrecord
  1
DWGPROPS COOKIE
  2

  3

  4

  6

  7

  8
Autodesk
  9

300
=
301
=
302
=
303
=
304
=
305
=
306
=
307
=
308
=
309
=
 40
0.0
 41
2454082.908383
 42
2457736.306209
  1

 90
        0
  0
DICTIONARY
  5
34E
102
{ACAD_REACTORS
330
C
102
}
330
C
100
AcDbDictionary
  3
MC_VERSION_DATA
350
400
  3
MCS_DOCUMENT_ID
350
357
  3
MCS_PARAMS_DATA
350
365
  0
XRECORD
  5
B38
102
{ACAD_REACTORS
330
B37
102
}
330
B37
100
AcDbXrecord
102
VTR_0.000_0.000_1.000_1.000_GRIDDISPLAY
 70
     2
102
VTR_0.000_0.000_1.000_1.000_GRIDMAJOR
 70
     5
102
VTR_0.000_0.000_1.000_1.000_DEFAULTLIGHTING
280
     1
102
VTR_0.000_0.000_1.000_1.000_DEFAULTLIGHTINGTYPE
 70
     1
102
VTR_0.000_0.000_1.000_1.000_BRIGHTNESS
141
0.0
102
VTR_0.000_0.000_1.000_1.000_CONTRAST
142
0.0
  0
SORTENTSTABLE
  5
235
102
{ACAD_REACTORS
330
234
102
}
330
234
100
AcDbSortentsTable
330
1F
331
0
  5
237
  0
McDbContainer2
  5
43F
102
{ACAD_REACTORS
330
43E
102
}
330
43E
100
McDbContainer2
  0
McDbContainer2
  5
600
102
{ACAD_REACTORS
330
5FF
102
}
330
5FF
100
McDbContainer2
  0
McDbContainer2
  5
662
102
{ACAD_REACTORS
330
661
102
}
330
661
100
McDbContainer2
  0
McDbContainer2
  5
778
102
{ACAD_REACTORS
330
777
102
}
330
777
100
McDbContainer2
  0
McDbContainer2
  5
7BD
102
{ACAD_REACTORS
330
7BC
102
}
330
7BC
100
McDbContainer2
  0
McDbContainer2
  5
8F0
102
{ACAD_REACTORS
330
8EF
102
}
330
8EF
100
McDbContainer2
  0
McDbContainer2
  5
92A
102
{ACAD_REACTORS
330
929
102
}
330
929
100
McDbContainer2
  0
McDbContainer2
  5
95E
102
{ACAD_REACTORS
330
95D
102
}
330
95D
100
McDbContainer2
  0
McDbContainer2
  5
991
102
{ACAD_REACTORS
330
990
102
}
330
990
100
McDbContainer2
  0
McDbContainer2
  5
9A1
102
{ACAD_REACTORS
330
9A0
102
}
330
9A0
100
McDbContainer2
  0
McDbContainer2
  5
9B4
102
{ACAD_REACTORS
330
9B3
102
}
330
9B3
100
McDbContainer2
  0
McDbContainer2
  5
9C7
102
{ACAD_REACTORS
330
9C6
102
}
330
9C6
100
McDbContainer2
  0
McDbContainer2
  5
9FD
102
{ACAD_REACTORS
330
9FC
102
}
330
9FC
100
McDbContainer2
  0
McDbContainer2
  5
A1E
102
{ACAD_REACTORS
330
A1D
102
}
330
A1D
100
McDbContainer2
  0
MATERIAL
  5
ED
102
{ACAD_REACTORS
330
6A
102
}
102
{ACAD_XDICTIONARY
360
B39
102
}
330
6A
100
AcDbMaterial
  1
BYBLOCK
 73
     2
 78
     2
172
     2
176
     2
270
     2
274
     2
  0
MATERIAL
  5
EC
102
{ACAD_REACTORS
330
6A
102
}
102
{ACAD_XDICTIONARY
360
B3B
102
}
330
6A
100
AcDbMaterial
  1
BYLAYER
 73
     2
 78
     2
172
     2
176
     2
270
     2
274
     2
  0
MATERIAL
  5
EE
102
{ACAD_REACTORS
330
6A
102
}
102
{ACAD_XDICTIONARY
360
B3D
102
}
330
6A
100
AcDbMaterial
  1
GLOBAL
 73
     2
 43
0.0008
 43
0.0
 43
0.0
 43
0.0
 43
0.0
 43
0.0008
 43
0.0
 43
0.0
 43
0.0
 43
0.0
 43
1.0
 43
0.0
 43
0.0
 43
0.0
 43
0.0
 43
1.0
 78
     2
172
     2
 49
0.0008
 49
0.0
 49
0.0
 49
0.0
 49
0.0
 49
0.0008
 49
0.0
 49
0.0
 49
0.0
 49
0.0
 49
1.0
 49
0.0
 49
0.0
 49
0.0
 49
0.0
 49
1.0
176
     2
142
0.0008
142
0.0
142
0.0
142
0.0
142
0.0
142
0.0008
142
0.0
142
0.0
142
0.0
142
0.0
142
1.0
142
0.0
142
0.0
142
0.0
142
0.0
142
1.0
270
     2
144
0.0008
144
0.0
144
0.0
144
0.0
144
0.0
144
0.0008
144
0.0
144
0.0
144
0.0
144
0.0
144
1.0
144
0.0
144
0.0
144
0.0
144
0.0
144
1.0
274
     2
1001
ACAD
1070
    -1
1070
     3
1070
     0
1000

1071
        0
1070
     0
  0
ACAD_PROXY_OBJECT
  5
12E
102
{ACAD_REACTORS
330
12D
102
}
330
12D
100
AcDbProxyObject
 90
      499
 91
      508
 93
      610
310
40901902A4063FBFFFFFE0000000000000020400000000000020404214DD185B99185C990000000000000104090140501A00000000000004100000000000000041025764000000000000039000
340
14
340
0
340
11
340
0
 94
        0
1001
ACAD_MLEADERVER
1070
     2
  0
ACAD_PROXY_OBJECT
  5
13B
102
{ACAD_REACTORS
330
12D
102
}
330
12D
100
AcDbProxyObject
 90
      499
 91
      508
 93
      610
310
40901902A4063FBFFFFFE0000000000000020400000000000020404214DD185B99185C990000000000000104090140501A00000000000004100000000000000041025766000000000000039000
340
14
340
0
340
11
340
0
 94
        0
1001
ACAD_MLEADERVER
1070
     2
  0
MLINESTYLE
  5
18
102
{ACAD_REACTORS
330
17
102
}
330
17
100
AcDbMlineStyle
  2
STANDARD
 70
     0
  3

 62
   256
 51
90.0
 52
90.0
 71
     2
 49
0.5
 62
   256
  6
BYLAYER
 49
-0.5
 62
   256
  6
BYLAYER
  0
ACAD_PROXY_OBJECT
  5
10D
102
{ACAD_REACTORS
330
10C
102
}
330
10C
100
AcDbProxyObject
 90
      499
 91
      507
 93
       41
310
903313A31580
  0
ACAD_PROXY_OBJECT
  5
1BE
102
{ACAD_REACTORS
330
10C
102
}
330
10C
100
AcDbProxyObject
 90
      499
 91
      507
 93
      105
310
903313A324000000000000004000
  0
ACAD_PROXY_OBJECT
  5
1BF
102
{ACAD_REACTORS
330
10C
102
}
330
10C
100
AcDbProxyObject
 90
      499
 91
      507
 93
      105
310
903313A344000000000000104000
  0
ACAD_PROXY_OBJECT
  5
1C0
102
{ACAD_REACTORS
330
10C
102
}
330
10C
100
AcDbProxyObject
 90
      499
 91
      507
 93
      105
310
903313A354000000000000144000
  0
ACAD_PROXY_OBJECT
  5
1C1
102
{ACAD_REACTORS
330
10C
102
}
330
10C
100
AcDbProxyObject
 90
      499
 91
      507
 93
      105
310
903313A384000000000000204000
  0
ACAD_PROXY_OBJECT
  5
1C2
102
{ACAD_REACTORS
330
10C
102
}
330
10C
100
AcDbProxyObject
 90
      499
 91
      507
 93
      113
310
904313A31304000000000000244000
  0
ACAD_PROXY_OBJECT
  5
1C3
102
{ACAD_REACTORS
330
10C
102
}
330
10C
100
AcDbProxyObject
 90
      499
 91
      507
 93
      113
310
904313A31364000000000000304000
  0
ACAD_PROXY_OBJECT
  5
1C4
102
{ACAD_REACTORS
330
10C
102
}
330
10C
100
AcDbProxyObject
 90
      499
 91
      507
 93
      113
310
904313A32304000000000000344000
  0
ACAD_PROXY_OBJECT
  5
1C5
102
{ACAD_REACTORS
330
10C
102
}
330
10C
100
AcDbProxyObject
 90
      499
 91
      507
 93
      113
310
904313A333040000000000003E4000
  0
ACAD_PROXY_OBJECT
  5
1C6
102
{ACAD_REACTORS
330
10C
102
}
330
10C
100
AcDbProxyObject
 90
      499
 91
      507
 93
      113
310
904313A34304000000000000444000
  0
ACAD_PROXY_OBJECT
  5
1C7
102
{ACAD_REACTORS
330
10C
102
}
330
10C
100
AcDbProxyObject
 90
      499
 91
      507
 93
      113
310
904313A35304000000000000494000
  0
ACAD_PROXY_OBJECT
  5
1C8
102
{ACAD_REACTORS
330
10C
102
}
330
10C
100
AcDbProxyObject
 90
      499
 91
      507
 93
      121
310
905313A3130304000000000000594000
  0
ACAD_PROXY_OBJECT
  5
1C9
102
{ACAD_REACTORS
330
10C
102
}
330
10C
100
AcDbProxyObject
 90
      499
 91
      507
 93
      105
310
903323A310000000000000010100
  0
ACAD_PROXY_OBJECT
  5
1CA
102
{ACAD_REACTORS
330
10C
102
}
330
10C
100
AcDbProxyObject
 90
      499
 91
      507
 93
      105
310
903343A310000000000000410100
  0
ACAD_PROXY_OBJECT
  5
1CB
102
{ACAD_REACTORS
330
10C
102
}
330
10C
100
AcDbProxyObject
 90
      499
 91
      507
 93
      105
310
903383A310000000000000810100
  0
ACAD_PROXY_OBJECT
  5
1CC
102
{ACAD_REACTORS
330
10C
102
}
330
10C
100
AcDbProxyObject
 90
      499
 91
      507
 93
      113
310
90431303A310000000000000910100
  0
ACAD_PROXY_OBJECT
  5
1CD
102
{ACAD_REACTORS
330
10C
102
}
330
10C
100
AcDbProxyObject
 90
      499
 91
      507
 93
      121
310
9053130303A310000000000001650100
  0
ACAD_PROXY_OBJECT
  5
F5
102
{ACAD_REACTORS
330
EF
102
}
330
EF
100
AcDbProxyObject
 90
      499
 91
      506
 93
      444
310
42CC9915DA5C99599C985B59504902404333333333333E3BF0000000000000FB0107901411070040501600405405064090741402480A0340
1001
ACAD
1000
AcDbSavedByObjectVersion
1070
     0
  0
ACAD_PROXY_OBJECT
  5
F7
102
{ACAD_REACTORS
330
EF
102
}
330
EF
100
AcDbProxyObject
 90
      499
 91
      506
 93
      500
310
424CD108121A5919195B90640502408333333333333E3BF0000000000000FB01079024090700405020000000000001110200405405064090740C02480A0340
1001
ACAD
1000
AcDbSavedByObjectVersion
1070
     0
  0
ACAD_PROXY_OBJECT
  5
F6
102
{ACAD_REACTORS
330
EF
102
}
330
EF
100
AcDbProxyObject
 90
      499
 91
      506
 93
      444
310
42CCD915DA5C99599C985B59505902404333333333333E3BF0000000000000FB0107901411070040501600405405064090741402480A0340
1001
ACAD
1000
AcDbSavedByObjectVersion
1070
     0
  0
ACAD_PROXY_OBJECT
  5
F4
102
{ACAD_REACTORS
330
EF
102
}
330
EF
100
AcDbProxyObject
 90
      499
 91
      506
 93
      388
310
4150985CDA58D07406404333333333333E3BF0000000000000FB0107A41107004050150841D405064090741402480A0350
1001
ACAD
1000
AcDbSavedByObjectVersion
1070
     0
  0
ACAD_PROXY_OBJECT
  5
FB
102
{ACAD_REACTORS
330
EF
102
}
330
EF
100
AcDbProxyObject
 90
      499
 91
      506
 93
      436
310
42109C9A59DA1D195B90C40902404333333333333E3BF0000000000000FB010790141107004050150841D405064090741402480A029950
1001
ACAD
1000
AcDbSavedByObjectVersion
1070
     0
  0
ACAD_PROXY_OBJECT
  5
FF
102
{ACAD_REACTORS
330
EF
102
}
330
EF
100
AcDbProxyObject
 90
      499
 91
      506
 93
      452
310
42D0DBDB1BDC90DA185B99D95104090240C333333333333E3BF0000000000000FB0108901411070040501508421405064090741402480A0350
1001
ACAD
1000
AcDbSavedByObjectVersion
1070
     0
  0
ACAD_PROXY_OBJECT
  5
F8
102
{ACAD_REACTORS
330
EF
102
}
330
EF
100
AcDbProxyObject
 90
      499
 91
      506
 93
      508
310
4290DBDB98D95C1D1D585B10940D02404333333333333E3BF0000000000000FB0107902409070040501000000000000111010841D405064090740C02480A0340
1001
ACAD
1000
AcDbSavedByObjectVersion
1070
     0
  0
ACAD_PROXY_OBJECT
  5
FA
102
{ACAD_REACTORS
330
EF
102
}
330
EF
100
AcDbProxyObject
 90
      499
 91
      506
 93
      420
310
40D11A5B50B40902404333333333333E3BF0000000000000FB010790141107004050150841D405064090741402480A02677FFFFFD0
1001
ACAD
1000
AcDbSavedByObjectVersion
1070
     0
  0
ACAD_PROXY_OBJECT
  5
35E
102
{ACAD_REACTORS
330
EF
102
}
330
EF
100
AcDbProxyObject
 90
      499
 91
      506
 93
      452
310
43115919D950DBDB1BDC93D999916409028333333333333E33F0000000000000F9010790141107004050150841D405064090741402480A0350
1001
ACAD
1000
AcDbSavedByObjectVersion
1070
     0
  0
ACAD_PROXY_OBJECT
  5
FE
102
{ACAD_REACTORS
330
EF
102
}
330
EF
100
AcDbProxyObject
 90
      499
 91
      506
 93
      452
310
42D19858D95C185D1D195C9B90F40902404333333333333E3BF0000000000000FB010790141107004050150841D405064090741402480A0350
1001
ACAD
1000
AcDbSavedByObjectVersion
1070
     0
  0
ACAD_PROXY_OBJECT
  5
F0
102
{ACAD_REACTORS
330
EF
102
}
330
EF
100
AcDbProxyObject
 90
      499
 91
      506
 93
      388
310
41119B185D240901404333333333333E3BF0000000000000F9010740A41107004050150841D405064090741402480A0350
1001
ACAD
1000
AcDbSavedByObjectVersion
1070
     0
  0
ACAD_PROXY_OBJECT
  5
F1
102
{ACAD_REACTORS
330
EF
102
}
330
EF
100
AcDbProxyObject
 90
      499
 91
      506
 93
      476
310
43519B185D15DA5D1A115919D95CD0140901404333333333333E3BF0000000000000F9010740901411070040501600405405064090741402480A0350
1001
ACAD
1000
AcDbSavedByObjectVersion
1070
     0
  0
ACAD_PROXY_OBJECT
  5
F2
102
{ACAD_REACTORS
330
EF
102
}
330
EF
100
AcDbProxyObject
 90
      499
 91
      506
 93
      412
310
41D1DBDD5C985D5910240902404333333333333E3BF0000000000000F9010740A411070040501641D405064090741402480A0350
1001
ACAD
1000
AcDbSavedByObjectVersion
1070
     0
  0
ACAD_PROXY_OBJECT
  5
F3
102
{ACAD_REACTORS
330
EF
102
}
330
EF
100
AcDbProxyObject
 90
      499
 91
      506
 93
      500
310
4411DBDD5C985D5915DA5D1A115919D95CD0340902404333333333333E3BF0000000000000F9010740901411070040501600405405064090741402480A0350
1001
ACAD
1000
AcDbSavedByObjectVersion
1070
     0
  0
ACAD_PROXY_OBJECT
  5
35B
102
{ACAD_REACTORS
330
EF
102
}
330
EF
100
AcDbProxyObject
 90
      499
 91
      506
 93
      476
310
41921A5919195B90640502408333333333333E33F0000000000000F901079024090700405020000000000001110200405405064090740C02480A0340
1001
ACAD
1000
AcDbSavedByObjectVersion
1070
     0
  0
ACAD_PROXY_OBJECT
  5
35C
102
{ACAD_REACTORS
330
EF
102
}
330
EF
100
AcDbProxyObject
 90
      499
 91
      506
 93
      428
310
42529A5D1D195C93D999914409028333333333333E33F0000000000000F9010790141107004050150A41D405064090741402480A0350
1001
ACAD
1000
AcDbSavedByObjectVersion
1070
     0
  0
ACAD_PROXY_OBJECT
  5
FD
102
{ACAD_REACTORS
330
EF
102
}
330
EF
100
AcDbProxyObject
 90
      499
 91
      506
 93
      452
310
42D31A5B995C185D1D195C9B90E40902404333333333333E3BF0000000000000FB010790141107004050750841D405064090741402483A0350
1001
ACAD
1000
AcDbSavedByObjectVersion
1070
     0
  0
ACAD_PROXY_OBJECT
  5
35D
102
{ACAD_REACTORS
330
EF
102
}
330
EF
100
AcDbProxyObject
 90
      499
 91
      506
 93
      444
310
42D3DD995C9A185B99D3D999915409028333333333333E33F0000000000000F9010790141107004050150941D405064090741402480A0350
1001
ACAD
1000
AcDbSavedByObjectVersion
1070
     0
  0
ACAD_PROXY_OBJECT
  5
F9
102
{ACAD_REACTORS
330
EF
102
}
330
EF
100
AcDbProxyObject
 90
      499
 91
      506
 93
      428
310
425499585B1A5CDD1A58D0840902404333333333333E3BF0000000000000FB01079019070040501508421405064090741402480A1B40
1001
ACAD
1000
AcDbSavedByObjectVersion
1070
     0
  0
ACAD_PROXY_OBJECT
  5
363
102
{ACAD_REACTORS
330
EF
102
}
330
EF
100
AcDbProxyObject
 90
      499
 91
      506
 93
      420
310
4194DA1859195911B40902404333333333333E33F0000000000000F9010740A41107004050150800405405064090840C02480A0B40
1001
ACAD
1000
AcDbSavedByObjectVersion
1070
     0
  0
ACAD_PROXY_OBJECT
  5
5EF
102
{ACAD_REACTORS
330
EF
102
}
330
EF
100
AcDbProxyObject
 90
      499
 91
      506
 93
      516
310
4454DA18591959081DDA5D1A08195919D95CD1A40902404333333333333E33F0000000000000F901074090142907004050250800405405064090740C02480A0B40
1001
ACAD
1000
AcDbSavedByObjectVersion
1070
     0
  0
ACAD_PROXY_OBJECT
  5
362
102
{ACAD_REACTORS
330
EF
102
}
330
EF
100
AcDbProxyObject
 90
      499
 91
      506
 93
      516
310
4454DA18591959081DDA5D1A08195919D95CD1A40902404333333333333E33F0000000000000F901074090142907004050250800405405064090740C02480A0B40
1001
ACAD
1000
AcDbSavedByObjectVersion
1070
     0
  0
ACAD_PROXY_OBJECT
  5
5EE
102
{ACAD_REACTORS
330
EF
102
}
330
EF
100
AcDbProxyObject
 90
      499
 91
      506
 93
      532
310
4394DA1859195CC81BD98811DC985E5174090240C333333333333E33F0000000000000F901079024090741D01000000000000111010841D405064090740C02480A0340
1001
ACAD
1000
AcDbSavedByObjectVersion
1070
     0
  0
ACAD_PROXY_OBJECT
  5
35F
102
{ACAD_REACTORS
330
EF
102
}
330
EF
100
AcDbProxyObject
 90
      499
 91
      506
 93
      532
310
4394DA1859195CC81BD98811DC985E5174090240C333333333333E33F0000000000000F901079024090741D01000000000000111010841D405064090740C02480A0340
1001
ACAD
1000
AcDbSavedByObjectVersion
1070
     0
  0
ACAD_PROXY_OBJECT
  5
360
102
{ACAD_REACTORS
330
EF
102
}
330
EF
100
AcDbProxyObject
 90
      499
 91
      506
 93
      476
310
41D4DAD95D18DA1E51840502408333333333333E33F0000000000000F901079024090741D01000000000000111010B41D405064090741802480A0340
1001
ACAD
1000
AcDbSavedByObjectVersion
1070
     0
  0
ACAD_PROXY_OBJECT
  5
FC
102
{ACAD_REACTORS
330
EF
102
}
330
EF
100
AcDbProxyObject
 90
      499
 91
      506
 93
      420
310
41D51A1A58DAD95B90D40902404333333333333E3BF0000000000000FB010790141107004050150C41D405064090741402480A0350
1001
ACAD
1000
AcDbSavedByObjectVersion
1070
     0
  0
ACAD_PROXY_OBJECT
  5
35A
102
{ACAD_REACTORS
330
EF
102
}
330
EF
100
AcDbProxyObject
 90
      499
 91
      506
 93
      420
310
4255DA5C99599C985B595059028333333333333E33F0000000000000F90107901411070040501600405405064090740C02480A0340
1001
ACAD
1000
AcDbSavedByObjectVersion
1070
     0
  0
ACAD_PROXY_OBJECT
  5
361
102
{ACAD_REACTORS
330
EF
102
}
330
EF
100
AcDbProxyObject
 90
      499
 91
      506
 93
      404
310
41560B54985E51940902404000000000000E03F0000000000000F9010740501907004050150841D405064090740C02480A1B40
1001
ACAD
1000
AcDbSavedByObjectVersion
1070
     0
  0
XRECORD
  5
B1D
102
{ACAD_REACTORS
330
B14
102
}
330
B14
100
AcDbXrecord
 90
        0
  0
XRECORD
  5
B34
102
{ACAD_REACTORS
330
B14
102
}
330
B14
100
AcDbXrecord
340
6B
  0
XRECORD
  5
B33
102
{ACAD_REACTORS
330
B14
102
}
330
B14
100
AcDbXrecord
1000
DSTYLE
1002
{
1070
   171
 70
     2
1070
   143
 40
25.4
1070
   274
 70
     2
1070
   271
 70
     4
1070
    43
 40
6.0
1070
   278
 70
    46
1070
    44
 40
0.0
1070
    42
 40
0.5
1070
   147
 40
1.0
1070
    77
 70
     0
1070
   272
 70
     4
1070
   279
 70
     2
1070
   172
 70
     0
1070
    74
 70
     1
1070
   283
 70
     1
1070
   340
340
11
1070
   284
 70
     0
1070
    78
 70
     0
1070
    50
 40
0.785398
1070
   345
340
15
1070
   346
340
15
1070
   347
340
15
1002
}
  0
XRECORD
  5
B1E
102
{ACAD_REACTORS
330
B14
102
}
330
B14
100
AcDbXrecord
  1
{78B0F746-B111-4909-95E5-2EF5CBA97683}
  0
XRECORD
  5
B17
102
{ACAD_REACTORS
330
B14
102
}
330
B14
100
AcDbXrecord
  1

  0
XRECORD
  5
B1C
102
{ACAD_REACTORS
330
B14
102
}
330
B14
100
AcDbXrecord
 90
        4
  0
XRECORD
  5
B19
102
{ACAD_REACTORS
330
B14
102
}
330
B14
100
AcDbXrecord
340
1A
  0
XRECORD
  5
B1B
102
{ACAD_REACTORS
330
B14
102
}
330
B14
100
AcDbXrecord
 90
    10269
  0
XRECORD
  5
B35
102
{ACAD_REACTORS
330
B14
102
}
330
B14
100
AcDbXrecord
340
6A
  0
XRECORD
  5
B1A
102
{ACAD_REACTORS
330
B14
102
}
330
B14
100
AcDbXrecord
340
19
  0
XRECORD
  5
B20
102
{ACAD_REACTORS
330
B14
102
}
330
B14
100
AcDbXrecord
 40
0.0
  0
XRECORD
  5
B23
102
{ACAD_REACTORS
330
B14
102
}
330
B14
100
AcDbXrecord
340
0
  0
XRECORD
  5
B29
102
{ACAD_REACTORS
330
B14
102
}
330
B14
100
AcDbXrecord
 10
0.0
 20
0.0
 30
0.0
  0
XRECORD
  5
B25
102
{ACAD_REACTORS
330
B14
102
}
330
B14
100
AcDbXrecord
 10
0.0
 20
0.0
 30
0.0
  0
XRECORD
  5
B28
102
{ACAD_REACTORS
330
B14
102
}
330
B14
100
AcDbXrecord
 10
0.0
 20
0.0
 30
0.0
  0
XRECORD
  5
B26
102
{ACAD_REACTORS
330
B14
102
}
330
B14
100
AcDbXrecord
 10
0.0
 20
0.0
 30
0.0
  0
XRECORD
  5
B27
102
{ACAD_REACTORS
330
B14
102
}
330
B14
100
AcDbXrecord
 10
0.0
 20
0.0
 30
0.0
  0
XRECORD
  5
B24
102
{ACAD_REACTORS
330
B14
102
}
330
B14
100
AcDbXrecord
 10
0.0
 20
0.0
 30
0.0
  0
XRECORD
  5
B21
102
{ACAD_REACTORS
330
B14
102
}
330
B14
100
AcDbXrecord
340
0
  0
XRECORD
  5
B22
102
{ACAD_REACTORS
330
B14
102
}
330
B14
100
AcDbXrecord
 70
     0
  0
XRECORD
  5
B18
102
{ACAD_REACTORS
330
B14
102
}
330
B14
100
AcDbXrecord
  1

  0
XRECORD
  5
B15
102
{ACAD_REACTORS
330
B14
102
}
330
B14
100
AcDbXrecord
 90
        1
  0
XRECORD
  5
B16
102
{ACAD_REACTORS
330
B14
102
}
330
B14
100
AcDbXrecord
 90
       70
  0
XRECORD
  5
B2C
102
{ACAD_REACTORS
330
B14
102
}
330
B14
100
AcDbXrecord
340
0
  0
XRECORD
  5
B32
102
{ACAD_REACTORS
330
B14
102
}
330
B14
100
AcDbXrecord
 10
0.0
 20
0.0
 30
0.0
  0
XRECORD
  5
B2E
102
{ACAD_REACTORS
330
B14
102
}
330
B14
100
AcDbXrecord
 10
0.0
 20
0.0
 30
0.0
  0
XRECORD
  5
B31
102
{ACAD_REACTORS
330
B14
102
}
330
B14
100
AcDbXrecord
 10
0.0
 20
0.0
 30
0.0
  0
XRECORD
  5
B2F
102
{ACAD_REACTORS
330
B14
102
}
330
B14
100
AcDbXrecord
 10
0.0
 20
0.0
 30
0.0
  0
XRECORD
  5
B30
102
{ACAD_REACTORS
330
B14
102
}
330
B14
100
AcDbXrecord
 10
0.0
 20
0.0
 30
0.0
  0
XRECORD
  5
B2D
102
{ACAD_REACTORS
330
B14
102
}
330
B14
100
AcDbXrecord
 10
0.0
 20
0.0
 30
0.0
  0
XRECORD
  5
B2A
102
{ACAD_REACTORS
330
B14
102
}
330
B14
100
AcDbXrecord
340
0
  0
XRECORD
  5
B2B
102
{ACAD_REACTORS
330
B14
102
}
330
B14
100
AcDbXrecord
 70
     0
  0
XRECORD
  5
B1F
102
{ACAD_REACTORS
330
B14
102
}
330
B14
100
AcDbXrecord
  1
{88884FFE-1838-4093-901C-E4DA6EFB818F}
  0
DICTIONARYVAR
  5
9C9
102
{ACAD_REACTORS
330
5E
102
}
330
5E
100
DictionaryVariables
280
     0
  1
1:1
  0
DICTIONARYVAR
  5
145
102
{ACAD_REACTORS
330
5E
102
}
330
5E
100
DictionaryVariables
280
     0
  1
STANDARD
  0
DICTIONARYVAR
  5
84
102
{ACAD_REACTORS
330
5E
102
}
330
5E
100
DictionaryVariables
280
     0
  1
Standard
  0
DICTIONARYVAR
  5
5F
102
{ACAD_REACTORS
330
5E
102
}
330
5E
100
DictionaryVariables
280
     0
  1
2
  0
DICTIONARYVAR
  5
63
102
{ACAD_REACTORS
330
5E
102
}
330
5E
100
DictionaryVariables
280
     0
  1
1
  0
DICTIONARYVAR
  5
1AE
102
{ACAD_REACTORS
330
5E
102
}
330
5E
100
DictionaryVariables
280
     0
  1
0
  0
DICTIONARYVAR
  5
1AF
102
{ACAD_REACTORS
330
5E
102
}
330
5E
100
DictionaryVariables
280
     0
  1
0
  0
DICTIONARYVAR
  5
42A
102
{ACAD_REACTORS
330
5E
102
}
330
5E
100
DictionaryVariables
280
     0
  1
1
  0
DICTIONARYVAR
  5
B08
102
{ACAD_REACTORS
330
5E
102
}
330
5E
100
DictionaryVariables
280
     0
  1
80.000000
  0
DICTIONARYVAR
  5
B07
102
{ACAD_REACTORS
330
5E
102
}
330
5E
100
DictionaryVariables
280
     0
  1
5.000000
  0
DICTIONARYVAR
  5
356
102
{ACAD_REACTORS
330
5E
102
}
330
5E
100
DictionaryVariables
280
     0
  1
0
  0
XRECORD
  5
400
102
{ACAD_REACTORS
330
34E
102
}
330
34E
100
AcDbXrecord
300
MC_VERSION_DATA
 90
       95
310
0600000002000000570000001C000000E404000000000000000000007801936764E5D8CF7A8393818115C460606066E0646662626666706006F214793899F8DE3171E725E6E53B3BBA2878E6951050AF75FEFFFFFF520032DE0F3057000000
  0
XRECORD
  5
357
102
{ACAD_REACTORS
330
34E
102
}
330
34E
100
AcDbXrecord
300
MCS_DOCUMENT_ID
 90
       60
310
0600000002000000150000001C000000E404000000000000000000007801E33DD33B2D76074F9DDBDEB40FD31C365CD8F01F080077E60CF715000000
1001
MCS_DOCUMENT_ID
1071
       45
1004
05000000000000001500000018000100E3040000000000000DBF618EF1E6FC7F438A70C1EC46F95924FFFFFFFF
  0
XRECORD
  5
365
102
{ACAD_REACTORS
330
34E
102
}
330
34E
100
AcDbXrecord
300
MCS_PARAMS_DATA
 90
     3313
310
0600000002000000F64B00001C000000E404000000000000000000007801C55C5B6C5CC519DE9D595FD6B9DF494B53970A1A6F4A58DF92A6426A1A1210527090E23EF0543976A2BA75E25CAC160A6DA92AF5A55255A96AD556551F4A49A0CF15A03EC0438190865E482021147221409310B6900B3826B1FB7F7366CEFC73E6
310
1CAFBDDE3D9B07D8FF3F73CEF7DFE6FB67E6ECBA757EA3143929F767A4FCCE8636299AA49C90529036BB402C105929F279912F89C6DEAF6FD8BC69AB14A46C51EAC2B9898909BA39945F872C1FCD848A834A91A13B1AD51D6D5266E8A9FAF627E9AABE92BD45CA6F03BD81A3CFC24D59D990C96408C7E066656E0232E13A03
310
14B0AB01724443F05CC3F08780DFC8F19B03FC710A073DC8486413411B49060E3311A05C24C45064703B01D7CCE196A818E5C59C9268B967CBD6DED68ED59DC52EEB78BEF08E09F8223D745649346F1DE9DB35D0B777C089FC5FC3C8EB60BF1A286CF47FE3467F17CC59C5CD990B0CD948C1A77FB9F5CA0E4F479188EA541E
310
3C25A2E22BC99C8892456878B2821857F6B05492C2AD881B41409C21325211340605C9C6DC6006EC49AC088A0CCBB25B1159B72248E415019155047D5453031360047082A7405D92B72AB0F03379693EAB50870260AC609E2C6F6510BB3D081DFE4EF5EFECD71494A7B3590EC7F12C5B25CB32539229914732934ECE22AF1D
310
D259AC8B7B7649E437DE7BDFA69EADF76EE95186E95A7ED74C032DBFA66A9BF1CEF341B19B78E45DDED9EF56FE29189043E4814BF734E1FF34659991678231F23A51010DA578E8294D435524988818E84710A7B2643B4F7C134F5CC6936D1E4176D01398C4D0A83AE0A6BDC86B0BB5C3E1E8299D70A5A945AC12322FE697C4
310
9C8DC3BBBE34D2BA77FBEEA1BEFEED79D15C120DF70F0FEE1A093EF60C8FF47F4BCAB3B0ED666EDB17F5733E2B445B5E2C298985C507BB8BEBBA3A3A3774178B1D777FA5B36B9D327BBE1ED84C030BC74C9EDAB5B64D88BC405AEF1E1CD9D73A34B88F70838775AD5DDBD1B9B6BBABBB73A0ABA37F5D7BE0E757F57D1DB80F
310
037BFBB60D6D6F1DDED1DA3B3CB47D6FDF2EF8A0AD5933506CEF2FF6F7ADD9D6B56D5DFF9A60D6A95222FF670B51F8295953F8455019945B7EE9315C7A8AFEC352DE9D4B4A5050256AA6D1B42D5F0C265BEED4473538E9811F770DEFDCDD3732B86D706870E4A1D69DC303E45F6349C807B6EFCB8B8692103DC352AE816545
310
9E9E798813B5E9A692C86DD9B1A355A5424F8E0BF018466AF90D150136590E2905AA568F782650907D5A7180140B84AD0159F8156902B8F63BDA8BE1A72E29AF48322EA98B5F578631B6F5489B26184C63434803DB221A328E6B58DEAED6DB808FEB6DC068BD0DF8A4DE065CABB7018B3045EB390B3EAD7704C6EA6DC07518
310
10B79C17773A0DB6C361F03BDD064B22C8C7303844629E5064B47323116EB9039777E096BB70247238880C6E39831B9F221C81B3E543C57019D4736C30574EE2DD4AD73B12B9771099772B997713E97A974DF4CECD5D9582B938116EC00926492C777A7F676A8F441E4C882C98032C983211AE26DE8974E196022EC7174366
310
F9AE62C95769E105B5C4B012E2E82ED8CD3516C5E34D519CF0D1F6765A8551C6CC0505130A3E8ABEC46EF81CED54DC1DA04AB7BC4DB0CA082453194AB29B82400C2B438BA6322032B88FE093B3E13470C11297490C8EEF78E88158D51A8AD42283A38F61044E78707A57F8BBDFE2DF2167F36975041D1DA7FCF59430C35792
310
05112533A905D5D3CAAB4759DBB4CA160F3E9309466F934A1794E7E1154C402D3088858048DCDF7EA3E7FECD5B7A7B376D5480CBF43A7E5E49CCBE6BEB37D945B2402FC65F52AB73B67E7F3A58AE93F37A04F6B7011D680556EBCCA2819BC8A21C320F385BBDB4EE56E6E32CE2CB18E358AD7676B4C7C096B1674BAF7B1278
310
1E906198B0DF8681EA696AF34D20563061CAB731C0DB01185B8B0DCA46538BD880EB0E2C6FC3120B40E62289BC162112587895C11513E18290E892090EBF46A9321968C513E0BB89A0AE8F2431B88A7DFC9E07A7BD0A8E668E3AF3CDEA083A3A8ECFB770A00AB53712018F2859D8DB3D93C2E4D422CB77A40BB73A5DB807A7
310
0857A5727AC8838BE45965D0D3D5B29CBEEF99145F4E558AC0C3E9C23D922EDC0FD285FBA107E7958EEDE721E98018A3E3AAC64E7F5C166D7ABA81B65C437BB31D766C74A6ED6E1FBC2766B7AFDAD87156F9771BF44A2A724C461AB43EE729AAFB710D63E2111810BBA3ABC9AE6037E09AB9BF3AB40BE8309F8736AB64CAB2
310
BE7E3364E5AC569CA6976081AF5A311628A8EF68C5B3A4609E3E86AC3AA156E3E83562F4B5A292099A878C61EB3B549CF92354989982613F016CE7AD5A4D09AA1F5126387AAD451EE384D9C035A925859E39C1AA865EE9A9B8DA21CEE289167F7CF1D4C4BC7A125EC5AED5D8BB0B5A9D9144D134CFA71BF85A8D44BE568348
310
F6AA55A2F3CAEACF6982FD29118CC249D3CBF852A586F278BA70FBD3853B90085793EDE51E143F0AD06C6B4CB2242BDDBDD1419166C2865E85F9CE1648F3CBF54B2E655D5432557AB8C599EEE6E763403914E55050D879E2BFFA30F366F009F0CB378371CA9B99D05949929DD07465EA8797A3808B6B06B9536E64AF9C844C
310
903AF2F3709D3783A318A078E4F37AEBBCEC2DD1B228B722F785DC2DB9D64C476675A63353CC74E937B1FA39BFA7DB58A6AFC19E49583A4A9B6110A6BA038D3C80418F79D091B18A763C1D8524AA5361F194EC4CC4B23EDBA3192533E95398E41423EB6DCA1C239B4DBF91D13F6D762A6897D7013D496371DC8BECCAA7D45E
310
0C251095ABC98AA38E1B6540CD3DACF829EF15C38D27C2B92DA64A071D13897001094F16523EC1C9E5A99FF465029665AB5B13C49AF8984D174EA40B273D389D33BB29A272F6749622C2719C22AC925104534E7A8CF33714555C6B3CF3BE4BE0AF28994CA9B8353E0F28878DD26D8D2F007FBAAD11BD305CEB4EAB35BE08B8
310
B8D678FEB81BD9134AB6ADF10A644BBEF9C2334A81E4EAA6772450D87DD2AF49C178F020A0EBD3055FF292CC5B8AB3FC4114C86BA708ACDB15F49C43C04EBBE7FCBD0CA8A1CB2AF59CC3897035E1E39713E16AD873FE91085A131FFF19C04DBEDBF8D75406FD3B3A2842E56C8ABE82A171BC3BF89ECB0E0F287926BC7B0450
310
75E4DDA3C09F2EEF56BE2579157071BCBBE7881BD93E255BDE7D04B225A07C61BD5230DE1DBA8C1158736B225E412358525F03747D78F79897E472BCCBAF5BAF2BA0DDE3804E9B765F2F035A65DA3D910857134A7A2311AE52DA8D6E0E9C1341735A873DD47F12A16BE2E99BE9C275792B70532835F1AEDB838B7404B509F7
310
74C449519D9AA19EB28205FF5B08785CE3F9307262735AC933693C270155C7C6730AF8E9359ED3808B6B3CA387DDC6734EC9B6F1C897238DE72006D89713F9C2E58B91C6F3388D608DE70CA0A7DA7866D30F8008DC16BEAA2D26A2AAB848F4108A0CF46D0F54D7A73989E2C56D75B6B8431D2F6EAB64C5CD94644C04869974
310
1626C5B6A280378D1BEE62BCE2C3917700E714386FAA719B1D7E7D464DF7DD444F8317374E8CAA75BEF65E19D0F8F0523EC21D7470DCC60B8CAEF29753FC38EF4760CFDBF99B4673F680D0869F6742513F06849341B61DF57EE3400A02734628D75C0DBC8B68A868B98655ECA330208EA3C6F1B52E3DF1E8849E2433679564
310
431A886148B568E62C4406F75F64308EFD2F9D7039EA6D259B5B2BF91AD8396F72B01004EFC5CD6C88F911E8CCDF849C077E5C64E9488747967101058B73015D99FA9B900B808B63FFB117DCC85E50324556799F2F34BC086EC70CD18A4318C0D9FF2AB6807CDB718046B0A4BE0FE8B4D9FFA207EA504E3D7E65FA014C7226
310
B329B0E8D703AAFEBAA304E869379E693123CD68457958A4FF2F11AE86ECFF6119D078F6E7138AD87FF2370F86D6E1E34789702D76FED2134932CCA824CB8C811832A3160D33426421BD940847AF6F0C11D33DEECB1CFE9B7175D1F926045DE5BD8DBFBDBE9C081764D0049324E6DDB40A8607F34A225C4D16463974B5B836
310
F3B3A32E193EACE499B49986C93A780A6DA631A981D7A6CD34012EAECDFCF23937B23F51B26D337F80CCDBCC36A5C0ECD07DE7E7A7236D663D8D6033A419D0536D33E07F56B8C4CA7C0D48229F9610695A461A0883CE7B494E8DD95B004DF38E8247AB09FE45AC1A52EDAC32A0861DD8DA85D8A76276989D08579353913989
310
700119397510D9BB4CAB9DF096393711B4263ECE4B176E7EBA700B3C389DB3F0B5335AA6A7234288EA142D784A9083AFB414616018456CF64C3293C4CD2F49D3E5A5F0410CEE3E0F2E6A6FEA11580893E29AEE529C2FC11C4DF48D4AA628982DB44A422820F8563073C8F989CF2240392BED74F7768B819FDEDE6E09E0E29A
310
EE0AFA030B3CB273954C91D5916E83CC9BEE074FAB1E6B73B11CFB6CBEB73B4C23589D2D05F4CC9AAE2E4C768646F0614DBB4BD40606BDCC4B726A4DF72640A7DD749797013521AB4ED3C5971C1BF2225712D922FD192CAA82F186C253F467B664EED8B163100EA1787299890C1D4314EEF90B040C236113FD72905624B8F0
310
99FF03A92412CEF64B0000
  0
DICTIONARY
  5
B39
330
ED
100
AcDbDictionary
280
     1
  3
ACAD_XREC_ROUNDTRIP
360
B3A
  0
DICTIONARY
  5
B3B
330
EC
100
AcDbDictionary
280
     1
  3
ACAD_XREC_ROUNDTRIP
360
B3C
  0
DICTIONARY
  5
B3D
330
EE
100
AcDbDictionary
280
     1
  3
ACAD_XREC_ROUNDTRIP
360
B3E
  0
XRECORD
  5
B3A
102
{ACAD_REACTORS
330
B39
102
}
330
B39
100
AcDbXrecord
102
MATERIAL
148
0.0
149
0.0
149
0.0
 93
        0
 94
       63
282
     0
 72
     1
 77
     1
171
     1
175
     1
179
     1
273
     0
  0
XRECORD
  5
B3C
102
{ACAD_REACTORS
330
B3B
102
}
330
B3B
100
AcDbXrecord
102
MATERIAL
148
0.0
149
0.0
149
0.0
 93
        0
 94
       63
282
     0
 72
     1
 77
     1
171
     1
175
     1
179
     1
273
     0
  0
XRECORD
  5
B3E
102
{ACAD_REACTORS
330
B3D
102
}
330
B3D
100
AcDbXrecord
102
MATERIAL
148
0.0
149
0.0
149
0.0
 93
        0
 94
       63
282
     0
 72
     1
 77
     1
171
     1
175
     1
179
     1
273
     0
  0
ENDSEC
  0
EOF
