  0
SECTION
  2
HEADER
  9
$ACADVER
  1
AC1027
  9
$ACADMAINTVER
 70
     8
  9
$DWGCODEPAGE
  3
ANSI_1251
  9
$REQUIREDVERSIONS
160
                 0
  9
$LASTSAVEDBY
  1
Autodesk
  9
$INSBASE
 10
0.0
 20
0.0
 30
0.0
  9
$EXTMIN
 10
681.379497
 20
174.552607
 30
0.0
  9
$EXTMAX
 10
774.385457
 20
267.605472
 30
0.0
  9
$LIMMIN
 10
0.0
 20
0.0
  9
$LIMMAX
 10
420.0
 20
297.0
  9
$ORTHOMODE
 70
     1
  9
$REGENMODE
 70
     1
  9
$FILLMODE
 70
     1
  9
$QTEXTMODE
 70
     0
  9
$MIRRTEXT
 70
     0
  9
$LTSCALE
 40
1.0
  9
$ATTMODE
 70
     1
  9
$TEXTSIZE
 40
2.5
  9
$TRACEWID
 40
1.0
  9
$TEXTSTYLE
  7
STANDARD
  9
$CLAYER
  8
detourage
  9
$CELTYPE
  6
BYLAYER
  9
$CECOLOR
 62
   256
  9
$CELTSCALE
 40
1.0
  9
$DISPSILH
 70
     0
  9
$DIMSCALE
 40
1.0
  9
$DIMASZ
 40
2.5
  9
$DIMEXO
 40
0.5
  9
$DIMDLI
 40
6.0
  9
$DIMRND
 40
0.0
  9
$DIMDLE
 40
0.0
  9
$DIMEXE
 40
0.0
  9
$DIMTP
 40
0.0
  9
$DIMTM
 40
0.0
  9
$DIMTXT
 40
2.5
  9
$DIMCEN
 40
2.5
  9
$DIMTSZ
 40
0.0
  9
$DIMTOL
 70
     0
  9
$DIMLIM
 70
     0
  9
$DIMTIH
 70
     0
  9
$DIMTOH
 70
     1
  9
$DIMSE1
 70
     0
  9
$DIMSE2
 70
     0
  9
$DIMTAD
 70
     0
  9
$DIMZIN
 70
     0
  9
$DIMBLK
  1

  9
$DIMASO
 70
     1
  9
$DIMSHO
 70
     1
  9
$DIMPOST
  1

  9
$DIMAPOST
  1

  9
$DIMALT
 70
     0
  9
$DIMALTD
 70
     2
  9
$DIMALTF
 40
25.4
  9
$DIMLFAC
 40
1.0
  9
$DIMTOFL
 70
     0
  9
$DIMTVP
 40
0.0
  9
$DIMTIX
 70
     0
  9
$DIMSOXD
 70
     0
  9
$DIMSAH
 70
     0
  9
$DIMBLK1
  1

  9
$DIMBLK2
  1

  9
$DIMSTYLE
  2
STANDARD
  9
$DIMCLRD
 70
     0
  9
$DIMCLRE
 70
     0
  9
$DIMCLRT
 70
     0
  9
$DIMTFAC
 40
1.0
  9
$DIMGAP
 40
1.0
  9
$DIMJUST
 70
     0
  9
$DIMSD1
 70
     0
  9
$DIMSD2
 70
     0
  9
$DIMTOLJ
 70
     1
  9
$DIMTZIN
 70
     0
  9
$DIMALTZ
 70
     0
  9
$DIMALTTZ
 70
     0
  9
$DIMUPT
 70
     0
  9
$DIMDEC
 70
     4
  9
$DIMTDEC
 70
     4
  9
$DIMALTU
 70
     2
  9
$DIMALTTD
 70
     2
  9
$DIMTXSTY
  7
STANDARD
  9
$DIMAUNIT
 70
     0
  9
$DIMADEC
 70
     0
  9
$DIMALTRND
 40
0.0
  9
$DIMAZIN
 70
     0
  9
$DIMDSEP
 70
    46
  9
$DIMATFIT
 70
     3
  9
$DIMFRAC
 70
     0
  9
$DIMLDRBLK
  1

  9
$DIMLUNIT
 70
     2
  9
$DIMLWD
 70
    -2
  9
$DIMLWE
 70
    -2
  9
$DIMTMOVE
 70
     2
  9
$DIMFXL
 40
1.0
  9
$DIMFXLON
 70
     0
  9
$DIMJOGANG
 40
0.785398
  9
$DIMTFILL
 70
     0
  9
$DIMTFILLCLR
 70
     0
  9
$DIMARCSYM
 70
     0
  9
$DIMLTYPE
  6
BYLAYER
  9
$DIMLTEX1
  6
BYLAYER
  9
$DIMLTEX2
  6
BYLAYER
  9
$DIMTXTDIRECTION
 70
     0
  9
$LUNITS
 70
     2
  9
$LUPREC
 70
     4
  9
$SKETCHINC
 40
1.0
  9
$FILLETRAD
 40
0.0
  9
$AUNITS
 70
     0
  9
$AUPREC
 70
     0
  9
$MENU
  1
.
  9
$ELEVATION
 40
0.0
  9
$PELEVATION
 40
0.0
  9
$THICKNESS
 40
0.0
  9
$LIMCHECK
 70
     0
  9
$CHAMFERA
 40
0.0
  9
$CHAMFERB
 40
0.0
  9
$CHAMFERC
 40
0.0
  9
$CHAMFERD
 40
0.0
  9
$SKPOLY
 70
     0
  9
$TDCREATE
 40
2454082.950050035
  9
$TDUCREATE
 40
2454082.866716702
  9
$TDUPDATE
 40
2457612.713759143
  9
$TDUUPDATE
 40
2457612.63042581
  9
$TDINDWG
 40
0.0105753588
  9
$TDUSRTIMER
 40
0.0105751505
  9
$USRTIMER
 70
     1
  9
$ANGBASE
 50
0.0
  9
$ANGDIR
 70
     0
  9
$PDMODE
 70
     0
  9
$PDSIZE
 40
0.0
  9
$PLINEWID
 40
0.0
  9
$SPLFRAME
 70
     0
  9
$SPLINETYPE
 70
     6
  9
$SPLINESEGS
 70
     8
  9
$HANDSEED
  5
1631
  9
$SURFTAB1
 70
     6
  9
$SURFTAB2
 70
     6
  9
$SURFTYPE
 70
     6
  9
$SURFU
 70
     6
  9
$SURFV
 70
     6
  9
$UCSBASE
  2

  9
$UCSNAME
  2

  9
$UCSORG
 10
0.0
 20
0.0
 30
0.0
  9
$UCSXDIR
 10
1.0
 20
0.0
 30
0.0
  9
$UCSYDIR
 10
0.0
 20
1.0
 30
0.0
  9
$UCSORTHOREF
  2

  9
$UCSORTHOVIEW
 70
     0
  9
$UCSORGTOP
 10
0.0
 20
0.0
 30
0.0
  9
$UCSORGBOTTOM
 10
0.0
 20
0.0
 30
0.0
  9
$UCSORGLEFT
 10
0.0
 20
0.0
 30
0.0
  9
$UCSORGRIGHT
 10
0.0
 20
0.0
 30
0.0
  9
$UCSORGFRONT
 10
0.0
 20
0.0
 30
0.0
  9
$UCSORGBACK
 10
0.0
 20
0.0
 30
0.0
  9
$PUCSBASE
  2

  9
$PUCSNAME
  2

  9
$PUCSORG
 10
0.0
 20
0.0
 30
0.0
  9
$PUCSXDIR
 10
1.0
 20
0.0
 30
0.0
  9
$PUCSYDIR
 10
0.0
 20
1.0
 30
0.0
  9
$PUCSORTHOREF
  2

  9
$PUCSORTHOVIEW
 70
     0
  9
$PUCSORGTOP
 10
0.0
 20
0.0
 30
0.0
  9
$PUCSORGBOTTOM
 10
0.0
 20
0.0
 30
0.0
  9
$PUCSORGLEFT
 10
0.0
 20
0.0
 30
0.0
  9
$PUCSORGRIGHT
 10
0.0
 20
0.0
 30
0.0
  9
$PUCSORGFRONT
 10
0.0
 20
0.0
 30
0.0
  9
$PUCSORGBACK
 10
0.0
 20
0.0
 30
0.0
  9
$USERI1
 70
     0
  9
$USERI2
 70
     0
  9
$USERI3
 70
     0
  9
$USERI4
 70
     0
  9
$USERI5
 70
     0
  9
$USERR1
 40
0.0
  9
$USERR2
 40
0.0
  9
$USERR3
 40
0.0
  9
$USERR4
 40
0.0
  9
$USERR5
 40
0.0
  9
$WORLDVIEW
 70
     1
  9
$SHADEDGE
 70
     3
  9
$SHADEDIF
 70
    70
  9
$TILEMODE
 70
     1
  9
$MAXACTVP
 70
    64
  9
$PINSBASE
 10
0.0
 20
0.0
 30
0.0
  9
$PLIMCHECK
 70
     0
  9
$PEXTMIN
 10
0.0
 20
0.0
 30
0.0
  9
$PEXTMAX
 10
0.0
 20
0.0
 30
0.0
  9
$PLIMMIN
 10
-20.0
 20
-7.5
  9
$PLIMMAX
 10
277.0
 20
202.5
  9
$UNITMODE
 70
     0
  9
$VISRETAIN
 70
     1
  9
$PLINEGEN
 70
     0
  9
$PSLTSCALE
 70
     0
  9
$TREEDEPTH
 70
  3020
  9
$CMLSTYLE
  2
STANDARD
  9
$CMLJUST
 70
     0
  9
$CMLSCALE
 40
20.0
  9
$PROXYGRAPHICS
 70
     1
  9
$MEASUREMENT
 70
     1
  9
$CELWEIGHT
370
    -1
  9
$ENDCAPS
280
     0
  9
$JOINSTYLE
280
     0
  9
$LWDISPLAY
290
     1
  9
$INSUNITS
 70
     4
  9
$HYPERLINKBASE
  1

  9
$STYLESHEET
  1

  9
$XEDIT
290
     1
  9
$CEPSNTYPE
380
     0
  9
$PSTYLEMODE
290
     1
  9
$FINGERPRINTGUID
  2
{78B0F746-B111-4909-95E5-2EF5CBA97683}
  9
$VERSIONGUID
  2
{88884FFE-1838-4093-901C-E4DA6EFB818F}
  9
$EXTNAMES
290
     1
  9
$PSVPSCALE
 40
0.0
  9
$OLESTARTUP
290
     0
  9
$SORTENTS
280
   127
  9
$INDEXCTL
280
     0
  9
$HIDETEXT
280
     1
  9
$XCLIPFRAME
280
     0
  9
$HALOGAP
280
     0
  9
$OBSCOLOR
 70
   257
  9
$OBSLTYPE
280
     0
  9
$INTERSECTIONDISPLAY
280
     0
  9
$INTERSECTIONCOLOR
 70
   257
  9
$DIMASSOC
280
     2
  9
$PROJECTNAME
  1

  9
$CAMERADISPLAY
290
     0
  9
$LENSLENGTH
 40
50.0
  9
$CAMERAHEIGHT
 40
0.0
  9
$STEPSPERSEC
 40
2.0
  9
$STEPSIZE
 40
6.0
  9
$3DDWFPREC
 40
2.0
  9
$PSOLWIDTH
 40
5.0
  9
$PSOLHEIGHT
 40
80.0
  9
$LOFTANG1
 40
1.570796
  9
$LOFTANG2
 40
1.570796
  9
$LOFTMAG1
 40
0.0
  9
$LOFTMAG2
 40
0.0
  9
$LOFTPARAM
 70
     7
  9
$LOFTNORMALS
280
     1
  9
$LATITUDE
 40
37.795
  9
$LONGITUDE
 40
-122.394
  9
$NORTHDIRECTION
 40
0.0
  9
$TIMEZONE
 70
 -8000
  9
$LIGHTGLYPHDISPLAY
280
     1
  9
$TILEMODELIGHTSYNCH
280
     1
  9
$SOLIDHIST
280
     1
  9
$SHOWHIST
280
     1
  9
$DWFFRAME
280
     2
  9
$DGNFRAME
280
     2
  9
$REALWORLDSCALE
290
     1
  9
$INTERFERECOLOR
 62
   256
  9
$CSHADOW
280
     0
  9
$SHADOWPLANELOCATION
 40
0.0
  0
ENDSEC
  0
SECTION
  2
CLASSES
  0
CLASS
  1
ACDBDICTIONARYWDFLT
  2
AcDbDictionaryWithDefault
  3
ObjectDBX Classes
 90
        0
 91
        6
280
     0
281
     0
  0
CLASS
  1
ACDBPLACEHOLDER
  2
AcDbPlaceHolder
  3
ObjectDBX Classes
 90
        0
 91
        1
280
     0
281
     0
  0
CLASS
  1
LAYOUT
  2
AcDbLayout
  3
ObjectDBX Classes
 90
        0
 91
        1
280
     0
281
     0
  0
CLASS
  1
DICTIONARYVAR
  2
AcDbDictionaryVar
  3
ObjectDBX Classes
 90
        0
 91
        4
280
     0
281
     0
  0
CLASS
  1
TABLESTYLE
  2
AcDbTableStyle
  3
ObjectDBX Classes
 90
     4095
 91
        5
280
     0
281
     0
  0
CLASS
  1
MATERIAL
  2
AcDbMaterial
  3
ObjectDBX Classes
 90
     1153
 91
        5
280
     0
281
     0
  0
CLASS
  1
VISUALSTYLE
  2
AcDbVisualStyle
  3
ObjectDBX Classes
 90
     4095
 91
        5
280
     0
281
     0
  0
CLASS
  1
SCALE
  2
AcDbScale
  3
ObjectDBX Classes
 90
     1153
 91
        5
280
     0
281
     0
  0
CLASS
  1
MLEADERSTYLE
  2
AcDbMLeaderStyle
  3
ACDB_MLEADERSTYLE_CLASS
 90
     4095
 91
        4
280
     0
281
     0
  0
CLASS
  1
CELLSTYLEMAP
  2
AcDbCellStyleMap
  3
ObjectDBX Classes
 90
     1152
 91
        4
280
     0
281
     0
  0
CLASS
  1
EXACXREFPANELOBJECT
  2
ExAcXREFPanelObject
  3
EXAC_ESW
 90
     1025
 91
        1
280
     1
281
     0
  0
CLASS
  1
NPOCOLLECTION
  2
AcDbImpNonPersistentObjectsCollection
  3
ObjectDBX Classes
 90
     1153
 91
        1
280
     1
281
     0
  0
CLASS
  1
LAYER_INDEX
  2
AcDbLayerIndex
  3
ObjectDBX Classes
 90
        0
 91
        4
280
     0
281
     0
  0
CLASS
  1
SPATIAL_INDEX
  2
AcDbSpatialIndex
  3
AutoCAD 2000
 90
        0
 91
        4
280
     0
281
     0
  0
CLASS
  1
IDBUFFER
  2
AcDbIdBuffer
  3
ObjectDBX Classes
 90
        0
 91
        4
280
     0
281
     0
  0
CLASS
  1
Wall
  2
PtDbWall
  3
NanoSPDS
 90
      893
 91
        1
280
     1
281
     1
  0
CLASS
  1
SORTENTSTABLE
  2
AcDbSortentsTable
  3
ObjectDBX Classes
 90
        0
 91
        4
280
     0
281
     0
  0
CLASS
  1
Format
  2
mcsDbObjectFormat
  3
NanoSPDS
 90
      893
 91
        1
280
     1
281
     1
  0
CLASS
  1
NOTEPOSITION
  2
mcsDbObjectNotePosition
  3
NanoSPDS
 90
      893
 91
        4
280
     0
281
     1
  0
CLASS
  1
mcsDbObject
  2
mcsDbObject
  3
NanoSPDS
 90
      893
 91
       21
280
     0
281
     1
  0
CLASS
  1
McDbContainer2
  2
McDbContainer2
  3
NanoSPDS
 90
      893
 91
        5
280
     0
281
     0
  0
CLASS
  1
spdsLevelMark
  2
mcsDbObjectLevelMark
  3
NanoSPDS
 90
      893
 91
        1
280
     1
281
     1
  0
CLASS
  1
spdsRelationMark
  2
mcsDbObjectRelationMark
  3
NanoSPDS
 90
      893
 91
        1
280
     1
281
     1
  0
CLASS
  1
LAYOUTPRINTCONFIG
  2
CAcLayoutPrintConfig
  3
"CSD_APP"
 90
     4095
 91
        4
280
     0
281
     1
  0
CLASS
  1
SUN
  2
AcDbSun
  3
SCENEOE
 90
     1153
 91
        5
280
     0
281
     0
  0
CLASS
  1
XRECORD
  2
AcDbXrecord
  3
ObjectDBX Classes
 90
        0
 91
        1
280
     0
281
     0
  0
CLASS
  1
LWPOLYLINE
  2
AcDbPolyline
  3
ObjectDBX Classes
 90
        0
 91
        1
280
     0
281
     1
  0
CLASS
  1
HATCH
  2
AcDbHatch
  3
ObjectDBX Classes
 90
        0
 91
        1
280
     0
281
     1
  0
CLASS
  1
McDbMarker
  2
McDbMarker
  3
NanoSPDS
 90
      893
 91
        4
280
     0
281
     1
  0
ENDSEC
  0
SECTION
  2
TABLES
  0
TABLE
  2
VPORT
  5
8
330
0
100
AcDbSymbolTable
 70
     1
  0
VPORT
  5
EA
330
8
100
AcDbSymbolTableRecord
100
AcDbViewportTableRecord
  2
*ACTIVE
 70
     0
 10
0.0
 20
0.0
 11
1.0
 21
1.0
 12
517.882477
 22
72.579039
 13
0.0
 23
0.0
 14
10.0
 24
10.0
 15
10.0
 25
10.0
 16
0.0
 26
0.0
 36
1.0
 17
210.0
 27
148.5
 37
0.0
 40
94.913922
 41
1.850866
 42
50.0
 43
0.0
 44
0.0
 50
0.0
 51
0.0
 71
    16
 72
  1000
 73
     1
 74
     2
 75
     0
 76
     0
 77
     0
 78
     0
281
     0
 65
     1
110
0.0
120
0.0
130
0.0
111
1.0
121
0.0
131
0.0
112
0.0
122
1.0
132
0.0
 79
     0
146
0.0
 60
     2
 61
     5
292
     1
282
     1
141
0.0
142
0.0
 63
   256
361
F02
  0
ENDTAB
  0
TABLE
  2
LTYPE
  5
5
330
0
100
AcDbSymbolTable
 70
     1
  0
LTYPE
  5
14
330
5
100
AcDbSymbolTableRecord
100
AcDbLinetypeTableRecord
  2
BYBLOCK
 70
     0
  3

 72
    65
 73
     0
 40
0.0
  0
LTYPE
  5
15
330
5
100
AcDbSymbolTableRecord
100
AcDbLinetypeTableRecord
  2
BYLAYER
 70
     0
  3

 72
    65
 73
     0
 40
0.0
  0
LTYPE
  5
16
330
5
100
AcDbSymbolTableRecord
100
AcDbLinetypeTableRecord
  2
CONTINUOUS
 70
     0
  3
Solid line
 72
    65
 73
     0
 40
0.0
  0
ENDTAB
  0
TABLE
  2
LAYER
  5
2
330
0
100
AcDbSymbolTable
 70
     5
  0
LAYER
  5
10
330
2
100
AcDbSymbolTableRecord
100
AcDbLayerTableRecord
  2
0
 70
     0
 62
     7
  6
CONTINUOUS
370
    -3
390
0
347
EE
348
0
  0
LAYER
  5
22D
330
2
100
AcDbSymbolTableRecord
100
AcDbLayerTableRecord
  2
DEFPOINTS
 70
     0
 62
     7
  6
CONTINUOUS
290
     0
370
    -3
390
0
347
EE
348
0
  0
LAYER
  5
366
330
2
100
AcDbSymbolTableRecord
100
AcDbLayerTableRecord
  2
detourage
 70
     0
 62
     6
  6
CONTINUOUS
370
    -3
390
0
347
EE
348
0
  0
LAYER
  5
557
330
2
100
AcDbSymbolTableRecord
100
AcDbLayerTableRecord
  2
DIMENSION
 70
     0
 62
     3
  6
CONTINUOUS
370
    -3
390
0
347
EE
348
0
  0
LAYER
  5
11ED
330
2
100
AcDbSymbolTableRecord
100
AcDbLayerTableRecord
  2
M3-sur-tranche
 70
     0
 62
     4
  6
CONTINUOUS
370
    -3
390
0
347
EE
348
0
  0
ENDTAB
  0
TABLE
  2
STYLE
  5
3
330
0
100
AcDbSymbolTable
 70
     2
  0
STYLE
  5
11
330
3
100
AcDbSymbolTableRecord
100
AcDbTextStyleTableRecord
  2
STANDARD
 70
     0
 40
0.0
 41
1.0
 50
0.0
 71
     0
 42
2.5
  3
txt.shx
  4

  0
STYLE
  5
1E3
330
3
100
AcDbSymbolTableRecord
100
AcDbTextStyleTableRecord
  2

 70
     1
 40
0.0
 41
1.0
 50
0.0
 71
     0
 42
0.2
  3
GOST 2.303-68.shx
  4

  0
ENDTAB
  0
TABLE
  2
VIEW
  5
6
330
0
100
AcDbSymbolTable
 70
     0
  0
ENDTAB
  0
TABLE
  2
UCS
  5
7
330
0
100
AcDbSymbolTable
 70
     0
  0
ENDTAB
  0
TABLE
  2
APPID
  5
9
330
0
100
AcDbSymbolTable
 70
    17
  0
APPID
  5
12
330
9
100
AcDbSymbolTableRecord
100
AcDbRegAppTableRecord
  2
ACAD
 70
     0
  0
APPID
  5
9E
330
9
100
AcDbSymbolTableRecord
100
AcDbRegAppTableRecord
  2
ACAD_PSEXT
 70
     0
  0
APPID
  5
133
330
9
100
AcDbSymbolTableRecord
100
AcDbRegAppTableRecord
  2
ACADANNOPO
 70
     0
  0
APPID
  5
134
330
9
100
AcDbSymbolTableRecord
100
AcDbRegAppTableRecord
  2
ACADANNOTATIVE
 70
     0
  0
APPID
  5
135
330
9
100
AcDbSymbolTableRecord
100
AcDbRegAppTableRecord
  2
ACAD_DSTYLE_DIMJAG
 70
     0
  0
APPID
  5
136
330
9
100
AcDbSymbolTableRecord
100
AcDbRegAppTableRecord
  2
ACAD_DSTYLE_DIMTALN
 70
     0
  0
APPID
  5
165
330
9
100
AcDbSymbolTableRecord
100
AcDbRegAppTableRecord
  2
ACAD_MLEADERVER
 70
     0
  0
APPID
  5
1E1
330
9
100
AcDbSymbolTableRecord
100
AcDbRegAppTableRecord
  2
MCS_DIM1
 70
     0
  0
APPID
  5
1E2
330
9
100
AcDbSymbolTableRecord
100
AcDbRegAppTableRecord
  2
MCSXDATA5
 70
     0
  0
APPID
  5
209
330
9
100
AcDbSymbolTableRecord
100
AcDbRegAppTableRecord
  2
MCS_PARAMS_DATA
 70
     0
  0
APPID
  5
20C
330
9
100
AcDbSymbolTableRecord
100
AcDbRegAppTableRecord
  2
MCS_PARAMS_HIDDEN_DATA
 70
     0
  0
APPID
  5
34D
330
9
100
AcDbSymbolTableRecord
100
AcDbRegAppTableRecord
  2
MCS_DOCUMENT_ID
 70
     0
  0
APPID
  5
353
330
9
100
AcDbSymbolTableRecord
100
AcDbRegAppTableRecord
  2
MCSUBENTIDENTIFICATION
 70
     0
  0
APPID
  5
355
330
9
100
AcDbSymbolTableRecord
100
AcDbRegAppTableRecord
  2
MC_VERSION_DATA
 70
     0
  0
APPID
  5
548
330
9
100
AcDbSymbolTableRecord
100
AcDbRegAppTableRecord
  2
ACAD_DSTYLE_DIMRADIAL_EXTE
 70
     0
  0
APPID
  5
DEB
330
9
100
AcDbSymbolTableRecord
100
AcDbRegAppTableRecord
  2
ACAD_DSTYLE_DIMRADIAL_EXT0
 70
     0
  0
APPID
  5
F50
330
9
100
AcDbSymbolTableRecord
100
AcDbRegAppTableRecord
  2
ACAD_DSTYLE_DIMRADIAL_EXTENSION
 70
     0
  0
ENDTAB
  0
TABLE
  2
DIMSTYLE
  5
A
330
0
100
AcDbSymbolTable
 70
     1
100
AcDbDimStyleTable
  0
DIMSTYLE
105
1B0
102
{ACAD_REACTORS
330
1238
330
13B4
330
15D5
330
1618
102
}
330
A
100
AcDbSymbolTableRecord
100
AcDbDimStyleTableRecord
  2
STANDARD
 70
     0
 40
100.0
 41
2.5
 42
0.5
 43
6.0
 44
0.0
 73
     0
140
2.5
141
2.5
147
1.0
178
     0
340
11
  0
ENDTAB
  0
TABLE
  2
BLOCK_RECORD
  5
1
330
0
100
AcDbSymbolTable
 70
    41
  0
BLOCK_RECORD
  5
1F
102
{ACAD_XDICTIONARY
360
234
102
}
330
1
100
AcDbSymbolTableRecord
100
AcDbBlockTableRecord
  2
*MODEL_SPACE
340
F00
 70
     0
280
     1
281
     0
  0
BLOCK_RECORD
  5
D6
330
1
100
AcDbSymbolTableRecord
100
AcDbBlockTableRecord
  2
*PAPER_SPACE
340
F01
 70
     0
280
     1
281
     0
  0
BLOCK_RECORD
  5
1EC
330
1
100
AcDbSymbolTableRecord
100
AcDbBlockTableRecord
  2
_ARCHTICK
340
0
 70
     0
280
     1
281
     0
  0
BLOCK_RECORD
  5
1F4
330
1
100
AcDbSymbolTableRecord
100
AcDbBlockTableRecord
  2
_OPEN30
340
0
 70
     0
280
     1
281
     0
  0
BLOCK_RECORD
  5
1FC
330
1
100
AcDbSymbolTableRecord
100
AcDbBlockTableRecord
  2
_DOT
340
0
 70
     0
280
     1
281
     0
  0
BLOCK_RECORD
  5
549
330
1
100
AcDbSymbolTableRecord
100
AcDbBlockTableRecord
  2
*D3
340
0
 70
     0
280
     1
281
     0
  0
BLOCK_RECORD
  5
554
330
1
100
AcDbSymbolTableRecord
100
AcDbBlockTableRecord
  2
_NONE
340
0
 70
     0
280
     1
281
     0
  0
BLOCK_RECORD
  5
55C
330
1
100
AcDbSymbolTableRecord
100
AcDbBlockTableRecord
  2
*D5
340
0
 70
     0
280
     1
281
     0
  0
BLOCK_RECORD
  5
5C4
330
1
100
AcDbSymbolTableRecord
100
AcDbBlockTableRecord
  2
FLANC_SANS
340
0
 70
     4
280
     1
281
     0
1001
ACAD
1000
DesignCenter Data
1002
{
1070
     1
1070
     4
1002
}
  0
BLOCK_RECORD
  5
5EB
330
1
100
AcDbSymbolTableRecord
100
AcDbBlockTableRecord
  2
FLANC_AVEC
340
0
 70
     4
280
     1
281
     0
1001
ACAD
1000
DesignCenter Data
1002
{
1070
     1
1070
     4
1002
}
  0
BLOCK_RECORD
  5
61E
330
1
100
AcDbSymbolTableRecord
100
AcDbBlockTableRecord
  2
SUPPORT_BROCHE
340
0
 70
     4
280
     1
281
     0
1001
ACAD
1000
DesignCenter Data
1002
{
1070
     1
1070
     4
1002
}
  0
BLOCK_RECORD
  5
653
330
1
100
AcDbSymbolTableRecord
100
AcDbBlockTableRecord
  2
ECROU
340
0
 70
     4
280
     1
281
     0
1001
ACAD
1000
DesignCenter Data
1002
{
1070
     1
1070
     4
1002
}
  0
BLOCK_RECORD
  5
679
330
1
100
AcDbSymbolTableRecord
100
AcDbBlockTableRecord
  2
STYLO
340
0
 70
     4
280
     1
281
     0
1001
ACAD
1000
DesignCenter Data
1002
{
1070
     1
1070
     4
1002
}
  0
BLOCK_RECORD
  5
6AF
330
1
100
AcDbSymbolTableRecord
100
AcDbBlockTableRecord
  2
STYLO-MOD1
340
0
 70
     4
280
     1
281
     0
1001
ACAD
1000
DesignCenter Data
1002
{
1070
     1
1070
     4
1002
}
  0
BLOCK_RECORD
  5
6BC
330
1
100
AcDbSymbolTableRecord
100
AcDbBlockTableRecord
  2
CUTTER
340
0
 70
     4
280
     1
281
     0
1001
ACAD
1000
DesignCenter Data
1002
{
1070
     1
1070
     4
1002
}
  0
BLOCK_RECORD
  5
6D2
330
1
100
AcDbSymbolTableRecord
100
AcDbBlockTableRecord
  2
*D13
340
0
 70
     0
280
     1
281
     0
  0
BLOCK_RECORD
  5
763
330
1
100
AcDbSymbolTableRecord
100
AcDbBlockTableRecord
  2
BROCHE
340
0
 70
     4
280
     1
281
     0
1001
ACAD
1000
DesignCenter Data
1002
{
1070
     1
1070
     4
1002
}
  0
BLOCK_RECORD
  5
79D
330
1
100
AcDbSymbolTableRecord
100
AcDbBlockTableRecord
  2
FDC_X
340
0
 70
     4
280
     1
281
     0
1001
ACAD
1000
DesignCenter Data
1002
{
1070
     1
1070
     4
1002
}
  0
BLOCK_RECORD
  5
7B7
330
1
100
AcDbSymbolTableRecord
100
AcDbBlockTableRecord
  2
FDC_Y
340
0
 70
     4
280
     1
281
     0
1001
ACAD
1000
DesignCenter Data
1002
{
1070
     1
1070
     4
1002
}
  0
BLOCK_RECORD
  5
DEC
330
1
100
AcDbSymbolTableRecord
100
AcDbBlockTableRecord
  2
*D17
340
0
 70
     0
280
     1
281
     0
  0
BLOCK_RECORD
  5
E05
330
1
100
AcDbSymbolTableRecord
100
AcDbBlockTableRecord
  2
*D18
340
0
 70
     0
280
     1
281
     0
  0
BLOCK_RECORD
  5
E25
330
1
100
AcDbSymbolTableRecord
100
AcDbBlockTableRecord
  2
*D19
340
0
 70
     0
280
     1
281
     0
  0
BLOCK_RECORD
  5
F51
330
1
100
AcDbSymbolTableRecord
100
AcDbBlockTableRecord
  2
*D20
340
0
 70
     0
280
     1
281
     0
  0
BLOCK_RECORD
  5
F60
330
1
100
AcDbSymbolTableRecord
100
AcDbBlockTableRecord
  2
*D21
340
0
 70
     0
280
     1
281
     0
  0
BLOCK_RECORD
  5
F90
330
1
100
AcDbSymbolTableRecord
100
AcDbBlockTableRecord
  2
*D22
340
0
 70
     0
280
     1
281
     0
  0
BLOCK_RECORD
  5
FA1
330
1
100
AcDbSymbolTableRecord
100
AcDbBlockTableRecord
  2
*D23
340
0
 70
     0
280
     1
281
     0
  0
BLOCK_RECORD
  5
FB2
330
1
100
AcDbSymbolTableRecord
100
AcDbBlockTableRecord
  2
*D24
340
0
 70
     0
280
     1
281
     0
  0
BLOCK_RECORD
  5
FF0
330
1
100
AcDbSymbolTableRecord
100
AcDbBlockTableRecord
  2
*D25
340
0
 70
     0
280
     1
281
     0
  0
BLOCK_RECORD
  5
1000
330
1
100
AcDbSymbolTableRecord
100
AcDbBlockTableRecord
  2
*D26
340
0
 70
     0
280
     1
281
     0
  0
BLOCK_RECORD
  5
11DB
330
1
100
AcDbSymbolTableRecord
100
AcDbBlockTableRecord
  2
*D27
340
0
 70
     0
280
     1
281
     0
  0
BLOCK_RECORD
  5
11F1
330
1
100
AcDbSymbolTableRecord
100
AcDbBlockTableRecord
  2
*D28
340
0
 70
     0
280
     1
281
     0
  0
BLOCK_RECORD
  5
1201
330
1
100
AcDbSymbolTableRecord
100
AcDbBlockTableRecord
  2
*D29
340
0
 70
     0
280
     1
281
     0
  0
BLOCK_RECORD
  5
1239
330
1
100
AcDbSymbolTableRecord
100
AcDbBlockTableRecord
  2
*D30
340
0
 70
     0
280
     1
281
     0
  0
BLOCK_RECORD
  5
13B5
330
1
100
AcDbSymbolTableRecord
100
AcDbBlockTableRecord
  2
*D31
340
0
 70
     0
280
     1
281
     0
  0
BLOCK_RECORD
  5
158B
330
1
100
AcDbSymbolTableRecord
100
AcDbBlockTableRecord
  2
*D32
340
0
 70
     0
280
     1
281
     0
  0
BLOCK_RECORD
  5
159E
330
1
100
AcDbSymbolTableRecord
100
AcDbBlockTableRecord
  2
*D33
340
0
 70
     0
280
     1
281
     0
  0
BLOCK_RECORD
  5
15AE
330
1
100
AcDbSymbolTableRecord
100
AcDbBlockTableRecord
  2
*D34
340
0
 70
     0
280
     1
281
     0
  0
BLOCK_RECORD
  5
15C6
330
1
100
AcDbSymbolTableRecord
100
AcDbBlockTableRecord
  2
*D35
340
0
 70
     0
280
     1
281
     0
  0
BLOCK_RECORD
  5
15D6
330
1
100
AcDbSymbolTableRecord
100
AcDbBlockTableRecord
  2
*D36
340
0
 70
     0
280
     1
281
     0
  0
BLOCK_RECORD
  5
15E6
330
1
100
AcDbSymbolTableRecord
100
AcDbBlockTableRecord
  2
*D37
340
0
 70
     0
280
     1
281
     0
  0
BLOCK_RECORD
  5
15F6
330
1
100
AcDbSymbolTableRecord
100
AcDbBlockTableRecord
  2
*D38
340
0
 70
     0
280
     1
281
     0
  0
BLOCK_RECORD
  5
1607
330
1
100
AcDbSymbolTableRecord
100
AcDbBlockTableRecord
  2
*D39
340
0
 70
     0
280
     1
281
     0
  0
BLOCK_RECORD
  5
1619
330
1
100
AcDbSymbolTableRecord
100
AcDbBlockTableRecord
  2
*D40
340
0
 70
     0
280
     1
281
     0
  0
ENDTAB
  0
ENDSEC
  0
SECTION
  2
BLOCKS
  0
BLOCK
  5
20
330
1F
100
AcDbEntity
  8
0
100
AcDbBlockBegin
  2
*MODEL_SPACE
 70
     0
 10
0.0
 20
0.0
 30
0.0
  3
*MODEL_SPACE
  1
*MODEL_SPACE
  0
ENDBLK
  5
21
330
1F
100
AcDbEntity
  8
0
100
AcDbBlockEnd
  0
BLOCK
  5
D8
330
D6
100
AcDbEntity
 67
     1
  8
0
100
AcDbBlockBegin
  2
*PAPER_SPACE
 70
     0
 10
0.0
 20
0.0
 30
0.0
  3
*PAPER_SPACE
  1
*PAPER_SPACE
  0
ENDBLK
  5
D9
330
D6
100
AcDbEntity
 67
     1
  8
0
100
AcDbBlockEnd
  0
BLOCK
  5
1ED
330
1EC
100
AcDbEntity
  8
0
100
AcDbBlockBegin
  2
_ARCHTICK
 70
     0
 10
0.0
 20
0.0
 30
0.0
  3
_ARCHTICK
  1
_ARCHTICK
  0
LWPOLYLINE
  5
1EF
330
1EC
100
AcDbEntity
  8
0
  6
ByBlock
 62
     0
100
AcDbPolyline
 90
        2
 70
     0
 43
0.15
 10
-0.5
 20
-0.5
 10
0.5
 20
0.5
  0
ENDBLK
  5
1EE
330
1EC
100
AcDbEntity
  8
0
100
AcDbBlockEnd
  0
BLOCK
  5
1F5
330
1F4
100
AcDbEntity
  8
0
100
AcDbBlockBegin
  2
_OPEN30
 70
     0
 10
0.0
 20
0.0
 30
0.0
  3
_OPEN30
  1
_OPEN30
  0
LINE
  5
1F7
330
1F4
100
AcDbEntity
  8
0
  6
ByBlock
 62
     0
100
AcDbLine
 10
-1.0
 20
0.267949
 30
0.0
 11
0.0
 21
0.0
 31
0.0
  0
LINE
  5
1F8
330
1F4
100
AcDbEntity
  8
0
  6
ByBlock
 62
     0
100
AcDbLine
 10
0.0
 20
0.0
 30
0.0
 11
-1.0
 21
-0.267949
 31
0.0
  0
LINE
  5
1F9
330
1F4
100
AcDbEntity
  8
0
  6
ByBlock
 62
     0
100
AcDbLine
 10
0.0
 20
0.0
 30
0.0
 11
-1.0
 21
0.0
 31
0.0
  0
ENDBLK
  5
1F6
330
1F4
100
AcDbEntity
  8
0
100
AcDbBlockEnd
  0
BLOCK
  5
1FD
330
1FC
100
AcDbEntity
  8
0
100
AcDbBlockBegin
  2
_DOT
 70
     0
 10
0.0
 20
0.0
 30
0.0
  3
_DOT
  1
_DOT
  0
LWPOLYLINE
  5
1FF
330
1FC
100
AcDbEntity
  8
0
  6
ByBlock
 62
     0
100
AcDbPolyline
 90
        2
 70
     1
 43
0.5
 10
-0.25
 20
0.0
 42
1.0
 10
0.25
 20
0.0
 42
1.0
  0
LINE
  5
200
330
1FC
100
AcDbEntity
  8
0
  6
ByBlock
 62
     0
100
AcDbLine
 10
-0.5
 20
0.0
 30
0.0
 11
-1.0
 21
0.0
 31
0.0
  0
ENDBLK
  5
1FE
330
1FC
100
AcDbEntity
  8
0
100
AcDbBlockEnd
  0
BLOCK
  5
54A
330
549
100
AcDbEntity
  8
0
100
AcDbBlockBegin
  2
*D3
 70
     1
 10
0.0
 20
0.0
 30
0.0
  3
*D3
  1
*D3
  0
LINE
  5
54C
330
549
100
AcDbEntity
  8
DIMENSION
 62
     0
100
AcDbLine
 10
42.643514
 20
143.608539
 30
0.0
 11
45.143514
 21
143.608539
 31
0.0
  0
LINE
  5
54D
330
549
100
AcDbEntity
  8
DIMENSION
 62
     0
100
AcDbLine
 10
49.407529
 20
140.997374
 30
0.0
 11
45.143514
 21
143.608539
 31
0.0
  0
MTEXT
  5
54E
330
549
100
AcDbEntity
  8
DIMENSION
 62
     0
100
AcDbMText
 10
34.976848
 20
143.608539
 30
0.0
 40
2.5
 41
0.0
 46
0.0
 71
     5
 72
     1
  1
\A1;R5.0000
 73
     1
 44
1.0
  0
SOLID
  5
54F
330
549
100
AcDbEntity
  8
DIMENSION
 62
     0
100
AcDbTrace
 10
47.057924
 20
141.947622
 30
0.0
 11
47.493119
 21
142.658291
 31
0.0
 12
49.407529
 22
140.997374
 32
0.0
 13
49.407529
 23
140.997374
 33
0.0
  0
LINE
  5
550
330
549
100
AcDbEntity
  8
DIMENSION
 62
     0
100
AcDbLine
 10
51.171543
 20
138.386209
 30
0.0
 11
56.171543
 21
138.386209
 31
0.0
  0
LINE
  5
551
330
549
100
AcDbEntity
  8
DIMENSION
 62
     0
100
AcDbLine
 10
53.671543
 20
135.886209
 30
0.0
 11
53.671543
 21
140.886209
 31
0.0
  0
POINT
  5
552
330
549
100
AcDbEntity
  8
DEFPOINTS
 62
     0
100
AcDbPoint
 10
49.407529
 20
140.997374
 30
0.0
  0
POINT
  5
553
330
549
100
AcDbEntity
  8
DEFPOINTS
 62
     0
100
AcDbPoint
 10
53.671543
 20
138.386209
 30
0.0
  0
ENDBLK
  5
54B
330
549
100
AcDbEntity
  8
0
100
AcDbBlockEnd
  0
BLOCK
  5
555
330
554
100
AcDbEntity
  8
0
100
AcDbBlockBegin
  2
_NONE
 70
     0
 10
0.0
 20
0.0
 30
0.0
  3
_NONE
  1
_NONE
  0
ENDBLK
  5
556
330
554
100
AcDbEntity
  8
0
100
AcDbBlockEnd
  0
BLOCK
  5
55D
330
55C
100
AcDbEntity
  8
0
100
AcDbBlockBegin
  2
*D5
 70
     1
 10
0.0
 20
0.0
 30
0.0
  3
*D5
  1
*D5
  0
LINE
  5
55F
330
55C
100
AcDbEntity
  8
DIMENSION
 62
     0
100
AcDbLine
 10
35.705529
 20
126.643528
 30
0.0
 11
33.205529
 21
126.643528
 31
0.0
  0
LINE
  5
560
330
55C
100
AcDbEntity
  8
DIMENSION
 62
     0
100
AcDbLine
 10
29.252682
 20
129.70539
 30
0.0
 11
33.205529
 21
126.643528
 31
0.0
  0
MTEXT
  5
561
330
55C
100
AcDbEntity
  8
DIMENSION
 62
     0
100
AcDbMText
 10
43.372196
 20
126.643528
 30
0.0
 40
2.5
 41
0.0
 46
0.0
 71
     5
 72
     1
  1
\A1;R2.0000
 73
     1
 44
1.0
  0
SOLID
  5
562
330
55C
100
AcDbEntity
  8
DIMENSION
 62
     0
100
AcDbTrace
 10
31.484261
 20
128.503863
 30
0.0
 11
30.97395
 21
127.845055
 31
0.0
 12
29.252682
 22
129.70539
 32
0.0
 13
29.252682
 23
129.70539
 33
0.0
  0
LINE
  5
563
330
55C
100
AcDbEntity
  8
DIMENSION
 62
     0
100
AcDbLine
 10
25.171543
 20
130.930135
 30
0.0
 11
30.171543
 21
130.930135
 31
0.0
  0
LINE
  5
564
330
55C
100
AcDbEntity
  8
DIMENSION
 62
     0
100
AcDbLine
 10
27.671543
 20
128.430135
 30
0.0
 11
27.671543
 21
133.430135
 31
0.0
  0
POINT
  5
565
330
55C
100
AcDbEntity
  8
DEFPOINTS
 62
     0
100
AcDbPoint
 10
29.252682
 20
129.70539
 30
0.0
  0
POINT
  5
566
330
55C
100
AcDbEntity
  8
DEFPOINTS
 62
     0
100
AcDbPoint
 10
27.671543
 20
130.930135
 30
0.0
  0
ENDBLK
  5
55E
330
55C
100
AcDbEntity
  8
0
100
AcDbBlockEnd
  0
BLOCK
  5
5C5
330
5C4
100
AcDbEntity
  8
0
100
AcDbBlockBegin
  2
FLANC_SANS
 70
     0
 10
0.0
 20
0.0
 30
0.0
  3
FLANC_SANS
  1
FLANC_SANS
  0
LINE
  5
5C7
330
5C4
100
AcDbEntity
  8
detourage
100
AcDbLine
 10
512.894698
 20
44.120764
 30
0.0
 11
403.894698
 21
44.120764
 31
-0.000002
  0
LINE
  5
5C8
330
5C4
100
AcDbEntity
  8
detourage
100
AcDbLine
 10
395.894698
 20
52.120764
 30
0.0
 11
395.894698
 21
128.568633
 31
0.0
  0
LINE
  5
5C9
330
5C4
100
AcDbEntity
  8
detourage
100
AcDbLine
 10
520.894698
 20
119.590642
 30
0.0
 11
520.894698
 21
52.120764
 31
0.0
  0
LINE
  5
5CA
330
5C4
100
AcDbEntity
  8
detourage
100
AcDbLine
 10
466.446193
 20
158.120764
 30
0.0
 11
471.046193
 21
158.120764
 31
0.0
  0
LINE
  5
5CB
330
5C4
100
AcDbEntity
  8
detourage
100
AcDbLine
 10
466.446193
 20
160.620936
 30
0.0
 11
471.046193
 21
160.620936
 31
0.0
  0
LINE
  5
5CC
330
5C4
100
AcDbEntity
  8
detourage
100
AcDbLine
 10
397.099456
 20
136.984929
 30
0.0
 11
409.650364
 21
179.926196
 31
0.0
  0
LINE
  5
5CD
330
5C4
100
AcDbEntity
  8
detourage
100
AcDbLine
 10
452.213999
 20
187.120764
 30
-0.000001
 11
419.248778
 21
187.120764
 31
-0.000002
  0
ARC
  5
5CE
330
5C4
100
AcDbEntity
  8
detourage
100
AcDbCircle
 10
419.248778
 20
177.120764
 30
0.000019
 40
9.99999999999588
210
2.398051575347473E-8
220
6.071531424429608E-8
230
0.999999999999998
100
AcDbArc
 50
90.0
 51
163.707372
1001
MCSXDATA5
1071
      167
1004
06000000000000008B0000001C000000E404000000000000000000001F050A025C020509020FEE020C4D43535F46494C4C45545F3109020FEE020C4D43535F46494C4C45545F3209020FEE020C4D43535F46494C4C45545F3309020FEE020C4D43535F46494C4C45545F3409020FEE020C4D43535F46494C4C45545F351202
1004
2602050201030201030202020103020326020A02010302012202010302010302010201030201221A
  0
CIRCLE
  5
5CF
330
5C4
100
AcDbEntity
  8
detourage
  6
ByBlock
100
AcDbCircle
 10
435.894698
 20
163.720764
 30
-0.000001
 40
11.4
  0
CIRCLE
  5
5D0
330
5C4
100
AcDbEntity
  8
detourage
  6
ByBlock
100
AcDbCircle
 10
420.394698
 20
179.220764
 30
-0.000002
 40
1.800000000000012
  0
CIRCLE
  5
5D1
330
5C4
100
AcDbEntity
  8
detourage
  6
ByBlock
100
AcDbCircle
 10
451.394698
 20
179.220764
 30
-0.000001
 40
1.800000000000012
  0
CIRCLE
  5
5D2
330
5C4
100
AcDbEntity
  8
detourage
  6
ByBlock
100
AcDbCircle
 10
451.394698
 20
148.220764
 30
-0.000001
 40
1.800000000000012
  0
CIRCLE
  5
5D3
330
5C4
100
AcDbEntity
  8
detourage
  6
ByBlock
100
AcDbCircle
 10
420.394698
 20
148.220764
 30
-0.000002
 40
1.800000000000011
  0
CIRCLE
  5
5D4
330
5C4
100
AcDbEntity
  8
detourage
  6
ByBlock
100
AcDbCircle
 10
464.24664
 20
140.320765
 30
-0.000002
 40
1.249999999999517
  0
CIRCLE
  5
5D5
330
5C4
100
AcDbEntity
  8
detourage
  6
ByBlock
100
AcDbCircle
 10
448.846193
 20
130.420764
 30
-0.000001
 40
3.199999999999505
  0
CIRCLE
  5
5D6
330
5C4
100
AcDbEntity
  8
detourage
  6
ByBlock
100
AcDbCircle
 10
428.946193
 20
130.420764
 30
-0.000002
 40
3.199999999999988
  0
CIRCLE
  5
5D7
330
5C4
100
AcDbEntity
  8
detourage
  6
ByBlock
100
AcDbCircle
 10
468.746193
 20
150.320764
 30
-0.000001
 40
3.200000000000017
  0
CIRCLE
  5
5D8
330
5C4
100
AcDbEntity
  8
detourage
  6
ByBlock
100
AcDbCircle
 10
468.746193
 20
130.420764
 30
-0.000001
 40
3.199999999999988
  0
CIRCLE
  5
5D9
330
5C4
100
AcDbEntity
  8
detourage
  6
ByBlock
100
AcDbCircle
 10
473.24664
 20
140.320765
 30
-0.000002
 40
1.25
  0
CIRCLE
  5
5DA
330
5C4
100
AcDbEntity
  8
detourage
  6
ByBlock
100
AcDbCircle
 10
405.894698
 20
116.720764
 30
-0.000002
 40
2.5
  0
CIRCLE
  5
5DB
330
5C4
100
AcDbEntity
  8
detourage
  6
ByBlock
100
AcDbCircle
 10
510.894698
 20
116.720764
 30
0.0
 40
2.499999999999972
  0
CIRCLE
  5
5DC
330
5C4
100
AcDbEntity
  8
detourage
  6
ByBlock
100
AcDbCircle
 10
510.894698
 20
56.120764
 30
0.0
 40
3.799999999999983
  0
CIRCLE
  5
5DD
330
5C4
100
AcDbEntity
  8
detourage
  6
ByBlock
100
AcDbCircle
 10
405.894698
 20
56.120764
 30
-0.000002
 40
3.799999999999982
  0
LINE
  5
5DE
330
5C4
100
AcDbEntity
  8
detourage
  6
ByBlock
100
AcDbLine
 10
465.546193
 20
159.020764
 30
0.0
 11
465.546193
 21
159.720936
 31
0.0
  0
LINE
  5
5DF
330
5C4
100
AcDbEntity
  8
detourage
  6
ByBlock
100
AcDbLine
 10
471.946193
 20
159.020764
 30
0.0
 11
471.946193
 21
159.720936
 31
0.0
  0
ARC
  5
5E0
330
5C4
100
AcDbEntity
  8
detourage
100
AcDbCircle
 10
471.046193
 20
159.720936
 30
0.0
 40
0.8999999999099373
100
AcDbArc
 50
0.0
 51
90.0
1001
MCSXDATA5
1071
      173
1004
0600000000000000910000001C000000E404000000000000000000001F050A025C020509020FEE020C4D43535F46494C4C45545F3109020FEE020C4D43535F46494C4C45545F3209020FEE020C4D43535F46494C4C45545F3309020FEE020C4D43535F46494C4C45545F3409020FEE020C4D43535F46494C4C45545F351202
1004
2C02050201030201030202020103020306CDCCCCCCCCCCEC3F02010302012202010302010302010201030201221A
  0
ARC
  5
5E1
330
5C4
100
AcDbEntity
  8
detourage
  6
ByBlock
100
AcDbCircle
 10
471.046193
 20
159.020764
 30
0.0
 40
0.8999999999099373
100
AcDbArc
 50
270.0
 51
0.0
1001
MCSXDATA5
1071
      173
1004
0600000000000000910000001C000000E404000000000000000000001F050A025C020509020FEE020C4D43535F46494C4C45545F3109020FEE020C4D43535F46494C4C45545F3209020FEE020C4D43535F46494C4C45545F3309020FEE020C4D43535F46494C4C45545F3409020FEE020C4D43535F46494C4C45545F351202
1004
2C02050201030201030202020103020306CDCCCCCCCCCCEC3F02010302012202010302010302010201030201221A
  0
ARC
  5
5E2
330
5C4
100
AcDbEntity
  8
detourage
100
AcDbCircle
 10
466.446193
 20
159.020764
 30
0.0
 40
0.8999999999643933
100
AcDbArc
 50
180.0
 51
270.0
1001
MCSXDATA5
1071
      173
1004
0600000000000000910000001C000000E404000000000000000000001F050A025C020509020FEE020C4D43535F46494C4C45545F3109020FEE020C4D43535F46494C4C45545F3209020FEE020C4D43535F46494C4C45545F3309020FEE020C4D43535F46494C4C45545F3409020FEE020C4D43535F46494C4C45545F351202
1004
2C02050201030201030202020103020306CDCCCCCCCCCCEC3F02010302012202010302010302010201030201221A
  0
ARC
  5
5E3
330
5C4
100
AcDbEntity
  8
detourage
  6
ByBlock
100
AcDbCircle
 10
466.446193
 20
159.720936
 30
0.0
 40
0.8999999999644501
100
AcDbArc
 50
90.0
 51
180.0
1001
MCSXDATA5
1071
      173
1004
0600000000000000910000001C000000E404000000000000000000001F050A025C020509020FEE020C4D43535F46494C4C45545F3109020FEE020C4D43535F46494C4C45545F3209020FEE020C4D43535F46494C4C45545F3309020FEE020C4D43535F46494C4C45545F3409020FEE020C4D43535F46494C4C45545F351202
1004
2C02050201030201030202020103020306CDCCCCCCCCCCEC3F02010302012202010302010302010201030201221A
  0
ARC
  5
5E4
330
5C4
100
AcDbEntity
  8
detourage
100
AcDbCircle
 10
512.894698
 20
52.120764
 30
-0.000011
 40
7.999999999991418
210
-2.204762486019908E-8
220
5.043830708336454E-9
230
0.9999999999999998
100
AcDbArc
 50
270.0
 51
0.0
1001
MCSXDATA5
1071
      167
1004
06000000000000008B0000001C000000E404000000000000000000001F050A025C020509020FEE020C4D43535F46494C4C45545F3109020FEE020C4D43535F46494C4C45545F3209020FEE020C4D43535F46494C4C45545F3309020FEE020C4D43535F46494C4C45545F3409020FEE020C4D43535F46494C4C45545F351202
1004
2602050201030201030202020103020326020802010302012202010302010302010201030201221A
  0
ARC
  5
5E5
330
5C4
100
AcDbEntity
  8
detourage
100
AcDbCircle
 10
403.894698
 20
52.120764
 30
-0.000012
 40
8.000000000002274
210
-2.174429308355416E-8
220
-1.094373287081108E-8
230
0.9999999999999998
100
AcDbArc
 50
180.0
 51
270.0
1001
MCSXDATA5
1071
      167
1004
06000000000000008B0000001C000000E404000000000000000000001F050A025C020509020FEE020C4D43535F46494C4C45545F3109020FEE020C4D43535F46494C4C45545F3209020FEE020C4D43535F46494C4C45545F3309020FEE020C4D43535F46494C4C45545F3409020FEE020C4D43535F46494C4C45545F351202
1004
2602050201030201030202020103020326020802010302012202010302010302010201030201221A
  0
LINE
  5
5E6
330
5C4
100
AcDbEntity
  8
detourage
  6
ByBlock
100
AcDbLine
 10
461.923913
 20
183.553943
 30
0.0
 11
510.314526
 21
142.456999
 31
0.0
  0
ARC
  5
5E7
330
5C4
100
AcDbEntity
  8
detourage
100
AcDbCircle
 10
425.894698
 20
128.568633
 30
0.0
 40
29.99999999986988
100
AcDbArc
 50
163.707372
 51
180.0
1001
MCSXDATA5
1071
      167
1004
06000000000000008B0000001C000000E404000000000000000000001F050A025C020509020FEE020C4D43535F46494C4C45545F3109020FEE020C4D43535F46494C4C45545F3209020FEE020C4D43535F46494C4C45545F3309020FEE020C4D43535F46494C4C45545F3409020FEE020C4D43535F46494C4C45545F351202
1004
2602050201030201030202020103020326021E02010302012202010302010302010201030201221A
  0
ARC
  5
5E8
330
5C4
100
AcDbEntity
  8
detourage
  6
ByBlock
100
AcDbCircle
 10
490.894698
 20
119.590642
 30
0.0
 40
30.00000000000261
100
AcDbArc
 50
0.0
 51
49.659584
1001
MCSXDATA5
1071
      167
1004
06000000000000008B0000001C000000E404000000000000000000001F050A025C020509020FEE020C4D43535F46494C4C45545F3109020FEE020C4D43535F46494C4C45545F3209020FEE020C4D43535F46494C4C45545F3309020FEE020C4D43535F46494C4C45545F3409020FEE020C4D43535F46494C4C45545F351202
1004
2602050201030201030202020103020326021E02010302012202010302010302010201030201221A
  0
ARC
  5
5E9
330
5C4
100
AcDbEntity
  8
detourage
  6
ByBlock
100
AcDbCircle
 10
452.213999
 20
172.120764
 30
-0.000055
 40
14.99999999997685
210
-1.046785963359301E-7
220
-3.587120541363020E-8
230
0.9999999999999939
100
AcDbArc
 50
49.659584
 51
90.0
1001
MCSXDATA5
1071
      167
1004
06000000000000008B0000001C000000E404000000000000000000001F050A025C020509020FEE020C4D43535F46494C4C45545F3109020FEE020C4D43535F46494C4C45545F3209020FEE020C4D43535F46494C4C45545F3309020FEE020C4D43535F46494C4C45545F3409020FEE020C4D43535F46494C4C45545F351202
1004
2602050201030201030202020103020326020F02010302012202010302010302010201030201221A
  0
ENDBLK
  5
5C6
330
5C4
100
AcDbEntity
  8
0
100
AcDbBlockEnd
  0
BLOCK
  5
5EC
330
5EB
100
AcDbEntity
  8
0
100
AcDbBlockBegin
  2
FLANC_AVEC
 70
     0
 10
0.0
 20
0.0
 30
0.0
  3
FLANC_AVEC
  1
FLANC_AVEC
  0
LINE
  5
5EE
330
5EB
100
AcDbEntity
  8
detourage
100
AcDbLine
 10
255.081254
 20
44.120764
 30
0.0
 11
364.081254
 21
44.120764
 31
-0.000002
  0
LINE
  5
5EF
330
5EB
100
AcDbEntity
  8
detourage
100
AcDbLine
 10
371.91086
 20
129.999031
 30
-0.000002
 11
372.081254
 21
124.276536
 31
-0.000002
  0
LINE
  5
5F0
330
5EB
100
AcDbEntity
  8
detourage
100
AcDbLine
 10
372.081254
 20
52.120764
 30
-0.000003
 11
372.081254
 21
124.276536
 31
-0.000002
  0
LINE
  5
5F1
330
5EB
100
AcDbEntity
  8
detourage
100
AcDbLine
 10
247.081254
 20
125.744097
 30
0.0
 11
247.081254
 21
52.120764
 31
0.0
  0
LINE
  5
5F2
330
5EB
100
AcDbEntity
  8
detourage
100
AcDbLine
 10
301.529759
 20
158.120764
 30
0.0
 11
296.929759
 21
158.120764
 31
0.0
  0
LINE
  5
5F3
330
5EB
100
AcDbEntity
  8
detourage
100
AcDbLine
 10
301.529759
 20
160.620936
 30
0.0
 11
296.929759
 21
160.620936
 31
0.0
  0
LINE
  5
5F4
330
5EB
100
AcDbEntity
  8
detourage
100
AcDbLine
 10
370.719392
 20
137.522438
 30
-0.000002
 11
358.325588
 21
179.926196
 31
-0.000001
  0
LINE
  5
5F5
330
5EB
100
AcDbEntity
  8
detourage
100
AcDbLine
 10
270.4791
 20
181.438078
 30
-0.000001
 11
250.021188
 21
138.69604
 31
0.0
  0
LINE
  5
5F6
330
5EB
100
AcDbEntity
  8
detourage
100
AcDbLine
 10
279.499122
 20
187.120764
 30
0.0
 11
348.727174
 21
187.120764
 31
-0.000002
  0
ARC
  5
5F7
330
5EB
100
AcDbEntity
  8
detourage
100
AcDbCircle
 10
348.727174
 20
177.120764
 30
0.000001
 40
9.99999999999588
210
-2.398051575347473E-8
220
6.071531424429608E-8
230
0.999999999999998
100
AcDbArc
 50
16.292628
 51
90.0
1001
MCSXDATA5
1071
      167
1004
06000000000000008B0000001C000000E404000000000000000000001F050A025C020509020FEE020C4D43535F46494C4C45545F3109020FEE020C4D43535F46494C4C45545F3209020FEE020C4D43535F46494C4C45545F3309020FEE020C4D43535F46494C4C45545F3409020FEE020C4D43535F46494C4C45545F351202
1004
2602050201030201030202020103020326020A02010302012202010302010302010201030201221A
  0
ARC
  5
5F8
330
5EB
100
AcDbEntity
  8
detourage
100
AcDbCircle
 10
279.499122
 20
177.120764
 30
-0.000023
 40
10.00000000000171
210
-7.953981932332618E-8
220
-4.657994389840236E-9
230
0.999999999999997
100
AcDbArc
 50
90.0
 51
154.422509
1001
MCSXDATA5
1071
      167
1004
06000000000000008B0000001C000000E404000000000000000000001F050A025C020509020FEE020C4D43535F46494C4C45545F3109020FEE020C4D43535F46494C4C45545F3209020FEE020C4D43535F46494C4C45545F3309020FEE020C4D43535F46494C4C45545F3409020FEE020C4D43535F46494C4C45545F351202
1004
2602050201030201030202020103020326020A02010302012202010302010302010201030201221A
  0
LINE
  5
5F9
330
5EB
100
AcDbEntity
  8
detourage
  6
ByBlock
100
AcDbLine
 10
278.129787
 20
179.658987
 30
0.0
 11
278.129787
 21
158.658987
 31
0.0
  0
LINE
  5
5FA
330
5EB
100
AcDbEntity
  8
detourage
  6
ByBlock
100
AcDbLine
 10
285.129787
 20
179.658987
 30
0.0
 11
285.129787
 21
158.658987
 31
0.0
  0
LINE
  5
5FB
330
5EB
100
AcDbEntity
  8
detourage
  6
ByBlock
100
AcDbLine
 10
279.129787
 20
180.658987
 30
0.0
 11
284.129787
 21
180.658987
 31
0.0
  0
LINE
  5
5FC
330
5EB
100
AcDbEntity
  8
detourage
  6
ByBlock
100
AcDbLine
 10
279.129787
 20
157.658987
 30
0.0
 11
284.129787
 21
157.658987
 31
0.0
  0
ARC
  5
5FD
330
5EB
100
AcDbEntity
  8
detourage
  6
ByBlock
100
AcDbCircle
 10
279.129787
 20
158.658987
 30
0.0
 40
1.000000000013642
100
AcDbArc
 50
180.0
 51
270.0
1001
MCSXDATA5
1071
      167
1004
06000000000000008B0000001C000000E404000000000000000000001F050A025C020509020FEE020C4D43535F46494C4C45545F3109020FEE020C4D43535F46494C4C45545F3209020FEE020C4D43535F46494C4C45545F3309020FEE020C4D43535F46494C4C45545F3409020FEE020C4D43535F46494C4C45545F351202
1004
2602050201030201030202020103020326020102010302012202010302010302010201030201221A
  0
ARC
  5
5FE
330
5EB
100
AcDbEntity
  8
detourage
  6
ByBlock
100
AcDbCircle
 10
284.129787
 20
158.658987
 30
0.0
 40
1.000000000013642
100
AcDbArc
 50
270.0
 51
0.0
1001
MCSXDATA5
1071
      167
1004
06000000000000008B0000001C000000E404000000000000000000001F050A025C020509020FEE020C4D43535F46494C4C45545F3109020FEE020C4D43535F46494C4C45545F3209020FEE020C4D43535F46494C4C45545F3309020FEE020C4D43535F46494C4C45545F3409020FEE020C4D43535F46494C4C45545F351202
1004
2602050201030201030202020103020326020102010302012202010302010302010201030201221A
  0
ARC
  5
5FF
330
5EB
100
AcDbEntity
  8
detourage
  6
ByBlock
100
AcDbCircle
 10
284.129787
 20
179.658987
 30
0.0
 40
1.000000000013642
100
AcDbArc
 50
0.0
 51
90.0
1001
MCSXDATA5
1071
      167
1004
06000000000000008B0000001C000000E404000000000000000000001F050A025C020509020FEE020C4D43535F46494C4C45545F3109020FEE020C4D43535F46494C4C45545F3209020FEE020C4D43535F46494C4C45545F3309020FEE020C4D43535F46494C4C45545F3409020FEE020C4D43535F46494C4C45545F351202
1004
2602050201030201030202020103020326020102010302012202010302010302010201030201221A
  0
ARC
  5
600
330
5EB
100
AcDbEntity
  8
detourage
  6
ByBlock
100
AcDbCircle
 10
279.129787
 20
179.658987
 30
0.0
 40
1.000000000013642
100
AcDbArc
 50
90.0
 51
180.0
1001
MCSXDATA5
1071
      167
1004
06000000000000008B0000001C000000E404000000000000000000001F050A025C020509020FEE020C4D43535F46494C4C45545F3109020FEE020C4D43535F46494C4C45545F3209020FEE020C4D43535F46494C4C45545F3309020FEE020C4D43535F46494C4C45545F3409020FEE020C4D43535F46494C4C45545F351202
1004
2602050201030201030202020103020326020102010302012202010302010302010201030201221A
  0
CIRCLE
  5
601
330
5EB
100
AcDbEntity
  8
detourage
  6
ByBlock
100
AcDbCircle
 10
332.081254
 20
163.720764
 30
-0.000001
 40
11.4
  0
CIRCLE
  5
602
330
5EB
100
AcDbEntity
  8
detourage
  6
ByBlock
100
AcDbCircle
 10
347.581254
 20
179.220764
 30
-0.000002
 40
1.800000000000012
  0
CIRCLE
  5
603
330
5EB
100
AcDbEntity
  8
detourage
  6
ByBlock
100
AcDbCircle
 10
316.581254
 20
179.220764
 30
-0.000001
 40
1.800000000000012
  0
CIRCLE
  5
604
330
5EB
100
AcDbEntity
  8
detourage
  6
ByBlock
100
AcDbCircle
 10
316.581254
 20
148.220764
 30
-0.000001
 40
1.800000000000012
  0
CIRCLE
  5
605
330
5EB
100
AcDbEntity
  8
detourage
  6
ByBlock
100
AcDbCircle
 10
347.581254
 20
148.220764
 30
-0.000002
 40
1.800000000000011
  0
CIRCLE
  5
606
330
5EB
100
AcDbEntity
  8
detourage
  6
ByBlock
100
AcDbCircle
 10
303.729312
 20
140.320765
 30
-0.000002
 40
1.249999999999517
  0
CIRCLE
  5
607
330
5EB
100
AcDbEntity
  8
detourage
  6
ByBlock
100
AcDbCircle
 10
319.129759
 20
130.420764
 30
-0.000001
 40
3.199999999999505
  0
CIRCLE
  5
608
330
5EB
100
AcDbEntity
  8
detourage
  6
ByBlock
100
AcDbCircle
 10
339.029759
 20
130.420764
 30
-0.000002
 40
3.199999999999988
  0
CIRCLE
  5
609
330
5EB
100
AcDbEntity
  8
detourage
  6
ByBlock
100
AcDbCircle
 10
299.229759
 20
150.320764
 30
-0.000001
 40
3.200000000000017
  0
CIRCLE
  5
60A
330
5EB
100
AcDbEntity
  8
detourage
  6
ByBlock
100
AcDbCircle
 10
299.229759
 20
130.420764
 30
-0.000001
 40
3.199999999999988
  0
CIRCLE
  5
60B
330
5EB
100
AcDbEntity
  8
detourage
  6
ByBlock
100
AcDbCircle
 10
294.729312
 20
140.320765
 30
-0.000002
 40
1.25
  0
CIRCLE
  5
60C
330
5EB
100
AcDbEntity
  8
detourage
  6
ByBlock
100
AcDbCircle
 10
362.081254
 20
116.720764
 30
-0.000002
 40
2.5
  0
CIRCLE
  5
60D
330
5EB
100
AcDbEntity
  8
detourage
  6
ByBlock
100
AcDbCircle
 10
257.081254
 20
116.720764
 30
0.0
 40
2.499999999999972
  0
CIRCLE
  5
60E
330
5EB
100
AcDbEntity
  8
detourage
  6
ByBlock
100
AcDbCircle
 10
257.081254
 20
56.120764
 30
0.0
 40
3.799999999999983
  0
CIRCLE
  5
60F
330
5EB
100
AcDbEntity
  8
detourage
  6
ByBlock
100
AcDbCircle
 10
362.081254
 20
56.120764
 30
-0.000002
 40
3.799999999999982
  0
LINE
  5
610
330
5EB
100
AcDbEntity
  8
detourage
  6
ByBlock
100
AcDbLine
 10
302.429759
 20
159.020764
 30
0.0
 11
302.429759
 21
159.720936
 31
0.0
  0
LINE
  5
611
330
5EB
100
AcDbEntity
  8
detourage
  6
ByBlock
100
AcDbLine
 10
296.029759
 20
159.020764
 30
0.0
 11
296.029759
 21
159.720936
 31
0.0
  0
ARC
  5
612
330
5EB
100
AcDbEntity
  8
detourage
100
AcDbCircle
 10
296.929759
 20
159.720936
 30
0.0
 40
0.8999999999099373
100
AcDbArc
 50
90.0
 51
180.0
1001
MCSXDATA5
1071
      173
1004
0600000000000000910000001C000000E404000000000000000000001F050A025C020509020FEE020C4D43535F46494C4C45545F3109020FEE020C4D43535F46494C4C45545F3209020FEE020C4D43535F46494C4C45545F3309020FEE020C4D43535F46494C4C45545F3409020FEE020C4D43535F46494C4C45545F351202
1004
2C02050201030201030202020103020306CDCCCCCCCCCCEC3F02010302012202010302010302010201030201221A
  0
ARC
  5
613
330
5EB
100
AcDbEntity
  8
detourage
  6
ByBlock
100
AcDbCircle
 10
296.929759
 20
159.020764
 30
0.0
 40
0.8999999999099373
100
AcDbArc
 50
180.0
 51
270.0
1001
MCSXDATA5
1071
      173
1004
0600000000000000910000001C000000E404000000000000000000001F050A025C020509020FEE020C4D43535F46494C4C45545F3109020FEE020C4D43535F46494C4C45545F3209020FEE020C4D43535F46494C4C45545F3309020FEE020C4D43535F46494C4C45545F3409020FEE020C4D43535F46494C4C45545F351202
1004
2C02050201030201030202020103020306CDCCCCCCCCCCEC3F02010302012202010302010302010201030201221A
  0
ARC
  5
614
330
5EB
100
AcDbEntity
  8
detourage
100
AcDbCircle
 10
301.529759
 20
159.020764
 30
0.0
 40
0.8999999999643933
100
AcDbArc
 50
270.0
 51
0.0
1001
MCSXDATA5
1071
      173
1004
0600000000000000910000001C000000E404000000000000000000001F050A025C020509020FEE020C4D43535F46494C4C45545F3109020FEE020C4D43535F46494C4C45545F3209020FEE020C4D43535F46494C4C45545F3309020FEE020C4D43535F46494C4C45545F3409020FEE020C4D43535F46494C4C45545F351202
1004
2C02050201030201030202020103020306CDCCCCCCCCCCEC3F02010302012202010302010302010201030201221A
  0
ARC
  5
615
330
5EB
100
AcDbEntity
  8
detourage
  6
ByBlock
100
AcDbCircle
 10
301.529759
 20
159.720936
 30
0.0
 40
0.8999999999644501
100
AcDbArc
 50
0.0
 51
90.0
1001
MCSXDATA5
1071
      173
1004
0600000000000000910000001C000000E404000000000000000000001F050A025C020509020FEE020C4D43535F46494C4C45545F3109020FEE020C4D43535F46494C4C45545F3209020FEE020C4D43535F46494C4C45545F3309020FEE020C4D43535F46494C4C45545F3409020FEE020C4D43535F46494C4C45545F351202
1004
2C02050201030201030202020103020306CDCCCCCCCCCCEC3F02010302012202010302010302010201030201221A
  0
ARC
  5
616
330
5EB
100
AcDbEntity
  8
detourage
100
AcDbCircle
 10
255.081254
 20
52.120764
 30
0.000006
 40
7.999999999991418
210
2.204762486019908E-8
220
5.043830708336454E-9
230
0.9999999999999998
100
AcDbArc
 50
180.0
 51
270.0
1001
MCSXDATA5
1071
      167
1004
06000000000000008B0000001C000000E404000000000000000000001F050A025C020509020FEE020C4D43535F46494C4C45545F3109020FEE020C4D43535F46494C4C45545F3209020FEE020C4D43535F46494C4C45545F3309020FEE020C4D43535F46494C4C45545F3409020FEE020C4D43535F46494C4C45545F351202
1004
2602050201030201030202020103020326020802010302012202010302010302010201030201221A
  0
ARC
  5
617
330
5EB
100
AcDbEntity
  8
detourage
100
AcDbCircle
 10
364.081254
 20
52.120764
 30
0.000005
 40
8.000000000002274
210
2.174429308355416E-8
220
-1.094373287081108E-8
230
0.9999999999999998
100
AcDbArc
 50
270.0
 51
0.0
1001
MCSXDATA5
1071
      167
1004
06000000000000008B0000001C000000E404000000000000000000001F050A025C020509020FEE020C4D43535F46494C4C45545F3109020FEE020C4D43535F46494C4C45545F3209020FEE020C4D43535F46494C4C45545F3309020FEE020C4D43535F46494C4C45545F3409020FEE020C4D43535F46494C4C45545F351202
1004
2602050201030201030202020103020326020802010302012202010302010302010201030201221A
  0
ARC
  5
618
330
5EB
100
AcDbEntity
  8
detourage
100
AcDbCircle
 10
277.081254
 20
125.744097
 30
0.000003
 40
30.00000000006859
210
1.149879116467738E-8
220
4.756937707764113E-9
230
1.0
100
AcDbArc
 50
154.422509
 51
180.0
1001
MCSXDATA5
1071
      167
1004
06000000000000008B0000001C000000E404000000000000000000001F050A025C020509020FEE020C4D43535F46494C4C45545F3109020FEE020C4D43535F46494C4C45545F3209020FEE020C4D43535F46494C4C45545F3309020FEE020C4D43535F46494C4C45545F3409020FEE020C4D43535F46494C4C45545F351202
1004
2602050201030201030202020103020326021E02010302012202010302010302010201030201221A
  0
ARC
  5
619
330
5EB
100
AcDbEntity
  8
detourage
100
AcDbCircle
 10
341.924151
 20
129.106142
 30
-0.000011
 40
29.99999999991141
210
-2.186000614036588E-8
220
-8.323692758903330E-9
230
0.9999999999999998
100
AcDbArc
 50
1.705545
 51
16.292628
1001
MCSXDATA5
1071
      167
1004
06000000000000008B0000001C000000E404000000000000000000001F050A025C020509020FEE020C4D43535F46494C4C45545F3109020FEE020C4D43535F46494C4C45545F3209020FEE020C4D43535F46494C4C45545F3309020FEE020C4D43535F46494C4C45545F3409020FEE020C4D43535F46494C4C45545F351202
1004
2602050201030201030202020103020326021E02010302012202010302010302010201030201221A
  0
CIRCLE
  5
61A
330
5EB
100
AcDbEntity
  8
detourage
  6
ByBlock
100
AcDbCircle
 10
294.081254
 20
114.120764
 30
0.0
 40
2.5
  0
CIRCLE
  5
61B
330
5EB
100
AcDbEntity
  8
detourage
  6
ByBlock
100
AcDbCircle
 10
291.129787
 20
179.658987
 30
0.0
 40
1.25
  0
CIRCLE
  5
61C
330
5EB
100
AcDbEntity
  8
detourage
  6
ByBlock
100
AcDbCircle
 10
272.129787
 20
154.658987
 30
0.0
 40
1.25
  0
ENDBLK
  5
5ED
330
5EB
100
AcDbEntity
  8
0
100
AcDbBlockEnd
  0
BLOCK
  5
61F
330
61E
100
AcDbEntity
  8
0
100
AcDbBlockBegin
  2
SUPPORT_BROCHE
 70
     0
 10
0.0
 20
0.0
 30
0.0
  3
SUPPORT_BROCHE
  1
SUPPORT_BROCHE
  0
LINE
  5
621
330
61E
100
AcDbEntity
  8
detourage
100
AcDbLine
 10
79.67528
 20
202.939367
 30
0.0
 11
79.67528
 21
169.558775
 31
-0.000002
  0
LINE
  5
622
330
61E
100
AcDbEntity
  8
detourage
100
AcDbLine
 10
163.97528
 20
130.678857
 30
-0.000008
 11
163.97528
 21
152.274694
 31
-0.000007
  0
LINE
  5
623
330
61E
100
AcDbEntity
  8
detourage
100
AcDbLine
 10
162.773198
 20
153.476775
 30
0.0
 11
159.177361
 21
153.476775
 31
0.0
  0
LINE
  5
624
330
61E
100
AcDbEntity
  8
detourage
100
AcDbLine
 10
159.177361
 20
129.476775
 30
-0.000008
 11
162.773198
 21
129.476775
 31
-0.000008
  0
LINE
  5
625
330
61E
100
AcDbEntity
  8
detourage
100
AcDbLine
 10
157.97528
 20
152.274694
 30
0.0
 11
157.97528
 21
130.678857
 31
0.0
  0
LINE
  5
626
330
61E
100
AcDbEntity
  8
detourage
100
AcDbLine
 10
198.275277
 20
83.476777
 30
-0.000011
 11
100.387181
 21
83.476809
 31
-0.00012
  0
LINE
  5
627
330
61E
100
AcDbEntity
  8
detourage
100
AcDbLine
 10
129.742466
 20
225.476775
 30
0.000001
 11
198.27528
 21
225.476775
 31
0.000001
  0
LINE
  5
628
330
61E
100
AcDbEntity
  8
detourage
100
AcDbLine
 10
118.084898
 20
223.119154
 30
0.000001
 11
83.343766
 21
208.467843
 31
0.0
  0
LINE
  5
629
330
61E
100
AcDbEntity
  8
detourage
100
AcDbLine
 10
106.787778
 20
107.746994
 30
-0.000263
 11
99.585943
 21
107.022058
 31
-0.000314
  0
LINE
  5
62A
330
61E
100
AcDbEntity
  8
detourage
100
AcDbLine
 10
92.387174
 20
99.062272
 30
-0.000305
 11
92.387184
 21
91.476799
 31
-0.000218
  0
LINE
  5
62B
330
61E
100
AcDbEntity
  8
detourage
100
AcDbLine
 10
206.27528
 20
217.476775
 30
0.000001
 11
206.275279
 21
91.476777
 31
-0.000004
  0
LINE
  5
62C
330
61E
100
AcDbEntity
  8
detourage
100
AcDbLine
 10
108.38715
 20
165.55874
 30
-0.000087
 11
83.675274
 21
165.558775
 31
-0.000001
  0
LINE
  5
62D
330
61E
100
AcDbEntity
  8
detourage
100
AcDbLine
 10
110.387148
 20
163.55874
 30
-0.0001
 11
110.387163
 21
111.726883
 31
-0.00025
  0
LINE
  5
62E
330
61E
100
AcDbEntity
  8
detourage
100
AcDbLine
 10
195.275279
 20
162.576766
 30
0.000019
 11
184.275279
 21
162.576766
 31
0.000019
  0
LINE
  5
62F
330
61E
100
AcDbEntity
  8
detourage
100
AcDbLine
 10
184.275279
 20
159.376766
 30
0.000015
 11
195.275279
 21
159.376766
 31
0.000015
  0
LINE
  5
630
330
61E
100
AcDbEntity
  8
detourage
100
AcDbLine
 10
195.27528
 20
152.57677
 30
0.000011
 11
184.27528
 21
152.57677
 31
0.000013
  0
LINE
  5
631
330
61E
100
AcDbEntity
  8
detourage
100
AcDbLine
 10
184.27528
 20
149.37677
 30
0.000012
 11
195.27528
 21
149.37677
 31
0.000011
  0
ARC
  5
632
330
61E
100
AcDbEntity
  8
detourage
100
AcDbCircle
 10
198.27528
 20
217.476775
 30
-0.000008
 40
7.999999999994344
210
-4.893512001596448E-9
220
-3.814977417774820E-8
230
0.9999999999999993
100
AcDbArc
 50
0.0
 51
90.0
1001
MCSXDATA5
1071
      167
1004
06000000000000008B0000001C000000E404000000000000000000001F050A025C020509020FEE020C4D43535F46494C4C45545F3109020FEE020C4D43535F46494C4C45545F3209020FEE020C4D43535F46494C4C45545F3309020FEE020C4D43535F46494C4C45545F3409020FEE020C4D43535F46494C4C45545F351202
1004
2602050201030201030202020103020326020802010302012202010302010302010201030201221A
  0
ARC
  5
633
330
61E
100
AcDbEntity
  8
detourage
100
AcDbCircle
 10
198.275279
 20
91.476777
 30
-0.000186
 40
8.000000000000275
210
-9.364584610068073E-7
220
1.261115305464225E-7
230
0.9999999999995536
100
AcDbArc
 50
269.999981
 51
0.0
1001
MCSXDATA5
1071
      167
1004
06000000000000008B0000001C000000E404000000000000000000001F050A025C020509020FEE020C4D43535F46494C4C45545F3109020FEE020C4D43535F46494C4C45545F3209020FEE020C4D43535F46494C4C45545F3309020FEE020C4D43535F46494C4C45545F3409020FEE020C4D43535F46494C4C45545F351202
1004
2602050201030201030202020103020326020802010302012202010302010302010201030201221A
  0
ARC
  5
634
330
61E
100
AcDbEntity
  8
detourage
100
AcDbCircle
 10
100.387184
 20
91.476809
 30
0.000704
 40
7.99999999997244
210
-1.112997718722520E-6
220
1.120150436531445E-5
230
0.9999999999366438
100
AcDbArc
 50
180.000072
 51
269.999981
1001
MCSXDATA5
1071
      167
1004
06000000000000008B0000001C000000E404000000000000000000001F050A025C020509020FEE020C4D43535F46494C4C45545F3109020FEE020C4D43535F46494C4C45545F3209020FEE020C4D43535F46494C4C45545F3309020FEE020C4D43535F46494C4C45545F3409020FEE020C4D43535F46494C4C45545F351202
1004
2602050201030201030202020103020326020802010302012202010302010302010201030201221A
  0
ARC
  5
635
330
61E
100
AcDbEntity
  8
detourage
100
AcDbCircle
 10
100.387174
 20
99.062282
 30
-0.000213
 40
8.000000000013936
210
-1.022139578146375E-5
220
1.046217497980286E-5
230
0.999999999893033
100
AcDbArc
 50
95.748031
 51
180.000072
1001
MCSXDATA5
1071
      167
1004
06000000000000008B0000001C000000E404000000000000000000001F050A025C020509020FEE020C4D43535F46494C4C45545F3109020FEE020C4D43535F46494C4C45545F3209020FEE020C4D43535F46494C4C45545F3309020FEE020C4D43535F46494C4C45545F3409020FEE020C4D43535F46494C4C45545F351202
1004
2602050201030201030202020103020326020802010302012202010302010302010201030201221A
  0
ARC
  5
636
330
61E
100
AcDbEntity
  8
detourage
100
AcDbCircle
 10
106.387163
 20
111.726882
 30
-0.000651
 40
4.000000000032277
210
-3.845860546295125E-6
220
2.099045211525826E-7
230
0.9999999999925827
100
AcDbArc
 50
275.748031
 51
0.000017
1001
MCSXDATA5
1071
      167
1004
06000000000000008B0000001C000000E404000000000000000000001F050A025C020509020FEE020C4D43535F46494C4C45545F3109020FEE020C4D43535F46494C4C45545F3209020FEE020C4D43535F46494C4C45545F3309020FEE020C4D43535F46494C4C45545F3409020FEE020C4D43535F46494C4C45545F351202
1004
2602050201030201030202020103020326020402010302012202010302010302010201030201221A
  0
ARC
  5
637
330
61E
100
AcDbEntity
  8
detourage
100
AcDbCircle
 10
108.387148
 20
163.55874
 30
-0.000188
 40
2.000000000030822
210
3.501823508824702E-6
220
-2.897271192697079E-6
230
0.9999999999896717
100
AcDbArc
 50
0.000017
 51
89.999917
1001
MCSXDATA5
1071
      167
1004
06000000000000008B0000001C000000E404000000000000000000001F050A025C020509020FEE020C4D43535F46494C4C45545F3109020FEE020C4D43535F46494C4C45545F3209020FEE020C4D43535F46494C4C45545F3309020FEE020C4D43535F46494C4C45545F3409020FEE020C4D43535F46494C4C45545F351202
1004
2602050201030201030202020103020326020202010302012202010302010302010201030201221A
  0
ARC
  5
638
330
61E
100
AcDbEntity
  8
detourage
100
AcDbCircle
 10
83.67528
 20
169.558775
 30
0.000499
 40
4.000000000017477
210
1.834922649584720E-6
220
2.092942182225137E-6
230
0.9999999999961264
100
AcDbArc
 50
180.0
 51
269.999917
1001
MCSXDATA5
1071
      167
1004
06000000000000008B0000001C000000E404000000000000000000001F050A025C020509020FEE020C4D43535F46494C4C45545F3109020FEE020C4D43535F46494C4C45545F3209020FEE020C4D43535F46494C4C45545F3309020FEE020C4D43535F46494C4C45545F3409020FEE020C4D43535F46494C4C45545F351202
1004
2602050201030201030202020103020326020402010302012202010302010302010201030201221A
  0
ARC
  5
639
330
61E
100
AcDbEntity
  8
detourage
100
AcDbCircle
 10
85.67528
 20
202.939367
 30
0.000007
 40
6.000000000029806
210
5.110390999614501E-8
220
1.013902471587048E-8
230
0.9999999999999987
100
AcDbArc
 50
112.86652
 51
180.0
1001
MCSXDATA5
1071
      167
1004
06000000000000008B0000001C000000E404000000000000000000001F050A025C020509020FEE020C4D43535F46494C4C45545F3109020FEE020C4D43535F46494C4C45545F3209020FEE020C4D43535F46494C4C45545F3309020FEE020C4D43535F46494C4C45545F3409020FEE020C4D43535F46494C4C45545F351202
1004
2602050201030201030202020103020326020602010302012202010302010302010201030201221A
  0
ARC
  5
63A
330
61E
100
AcDbEntity
  8
detourage
100
AcDbCircle
 10
129.742466
 20
195.476775
 30
-0.000005
 40
30.000000000024
210
-5.599774995020179E-9
220
-2.254845084256453E-8
230
0.9999999999999998
100
AcDbArc
 50
90.0
 51
112.86652
1001
MCSXDATA5
1071
      167
1004
06000000000000008B0000001C000000E404000000000000000000001F050A025C020509020FEE020C4D43535F46494C4C45545F3109020FEE020C4D43535F46494C4C45545F3209020FEE020C4D43535F46494C4C45545F3309020FEE020C4D43535F46494C4C45545F3409020FEE020C4D43535F46494C4C45545F351202
1004
2602050201030201030202020103020326021E02010302012202010302010302010201030201221A
  0
CIRCLE
  5
63B
330
61E
100
AcDbEntity
  8
detourage
  6
ByBlock
100
AcDbCircle
 10
102.07528
 20
186.476809
 30
-0.000089
 40
11.39999999999913
  0
CIRCLE
  5
63C
330
61E
100
AcDbEntity
  8
detourage
  6
ByBlock
100
AcDbCircle
 10
86.57528
 20
201.976814
 30
-0.000097
 40
1.8
  0
CIRCLE
  5
63D
330
61E
100
AcDbEntity
  8
detourage
  6
ByBlock
100
AcDbCircle
 10
117.57528
 20
201.976804
 30
-0.00008
 40
1.8
  0
CIRCLE
  5
63E
330
61E
100
AcDbEntity
  8
detourage
  6
ByBlock
100
AcDbCircle
 10
86.57528
 20
170.976814
 30
-0.000097
 40
1.8
  0
CIRCLE
  5
63F
330
61E
100
AcDbEntity
  8
detourage
  6
ByBlock
100
AcDbCircle
 10
117.57528
 20
170.976804
 30
-0.00008
 40
1.8
  0
CIRCLE
  5
640
330
61E
100
AcDbEntity
  8
detourage
  6
ByBlock
100
AcDbCircle
 10
137.176508
 20
172.0051
 30
-0.000074
 40
2.499999999994998
  0
CIRCLE
  5
641
330
61E
100
AcDbEntity
  8
detourage
  6
ByBlock
100
AcDbCircle
 10
133.27528
 20
160.640785
 30
0.0
 40
2.499999999346045
  0
CIRCLE
  5
642
330
61E
100
AcDbEntity
  8
detourage
  6
ByBlock
100
AcDbCircle
 10
193.276509
 20
172.0051
 30
0.000001
 40
2.499999999994998
  0
CIRCLE
  5
643
330
61E
100
AcDbEntity
  8
detourage
  6
ByBlock
100
AcDbCircle
 10
133.67528
 20
215.476775
 30
0.000001
 40
2.5
  0
CIRCLE
  5
644
330
61E
100
AcDbEntity
  8
detourage
  6
ByBlock
100
AcDbCircle
 10
194.17528
 20
215.476775
 30
0.000001
 40
3.799999999005806
  0
CIRCLE
  5
645
330
61E
100
AcDbEntity
  8
detourage
  6
ByBlock
100
AcDbCircle
 10
193.276509
 20
111.5051
 30
0.000004
 40
3.799999999999997
  0
CIRCLE
  5
646
330
61E
100
AcDbEntity
  8
detourage
  6
ByBlock
100
AcDbCircle
 10
194.175279
 20
93.476775
 30
-0.000004
 40
3.799999999999996
  0
CIRCLE
  5
647
330
61E
100
AcDbEntity
  8
detourage
  6
ByBlock
100
AcDbCircle
 10
137.176508
 20
111.5051
 30
-0.000071
 40
3.799999999005863
  0
CIRCLE
  5
648
330
61E
100
AcDbEntity
  8
detourage
  6
ByBlock
100
AcDbCircle
 10
133.675279
 20
93.476775
 30
-0.000003
 40
2.5
  0
CIRCLE
  5
649
330
61E
100
AcDbEntity
  8
detourage
  6
ByBlock
100
AcDbCircle
 10
102.38719
 20
93.476775
 30
-0.000178
 40
2.499999999266276
  0
ARC
  5
64A
330
61E
100
AcDbEntity
  8
detourage
100
AcDbCircle
 10
184.275279
 20
160.976766
 30
-0.000166
 40
1.60000000000151
210
-1.506296290967663E-9
220
-1.135762064665601E-6
230
0.9999999999993551
100
AcDbArc
 50
90.0
 51
270.0
1001
MCSXDATA5
1071
      173
1004
0600000000000000910000001C000000E404000000000000000000001F050A025C020509020FEE020C4D43535F46494C4C45545F3109020FEE020C4D43535F46494C4C45545F3209020FEE020C4D43535F46494C4C45545F3309020FEE020C4D43535F46494C4C45545F3409020FEE020C4D43535F46494C4C45545F351202
1004
2C020502010302010302020201030203069A9999999999F93F02010302012202010302010302010201030201221A
  0
ARC
  5
64B
330
61E
100
AcDbEntity
  8
detourage
100
AcDbCircle
 10
195.275279
 20
160.976766
 30
-0.000166
 40
1.60000000000151
210
-1.506296290968765E-9
220
-1.135762064665598E-6
230
0.9999999999993551
100
AcDbArc
 50
270.0
 51
90.0
1001
MCSXDATA5
1071
      173
1004
0600000000000000910000001C000000E404000000000000000000001F050A025C020509020FEE020C4D43535F46494C4C45545F3109020FEE020C4D43535F46494C4C45545F3209020FEE020C4D43535F46494C4C45545F3309020FEE020C4D43535F46494C4C45545F3409020FEE020C4D43535F46494C4C45545F351202
1004
2C020502010302010302020201030203069A9999999999F93F02010302012202010302010302010201030201221A
  0
ARC
  5
64C
330
61E
100
AcDbEntity
  8
detourage
100
AcDbCircle
 10
184.27528
 20
150.97677
 30
-0.000001
 40
1.599999999999034
210
9.968746024454004E-8
220
-2.062165698277813E-7
230
0.9999999999999738
100
AcDbArc
 50
90.0
 51
270.0
1001
MCSXDATA5
1071
      173
1004
0600000000000000910000001C000000E404000000000000000000001F050A025C020509020FEE020C4D43535F46494C4C45545F3109020FEE020C4D43535F46494C4C45545F3209020FEE020C4D43535F46494C4C45545F3309020FEE020C4D43535F46494C4C45545F3409020FEE020C4D43535F46494C4C45545F351202
1004
2C020502010302010302020201030203069A9999999999F93F02010302012202010302010302010201030201221A
  0
ARC
  5
64D
330
61E
100
AcDbEntity
  8
detourage
100
AcDbCircle
 10
195.27528
 20
150.97677
 30
-0.000001
 40
1.599999999999034
210
9.968746024453897E-8
220
-2.062165698277803E-7
230
0.9999999999999738
100
AcDbArc
 50
270.0
 51
90.0
1001
MCSXDATA5
1071
      173
1004
0600000000000000910000001C000000E404000000000000000000001F050A025C020509020FEE020C4D43535F46494C4C45545F3109020FEE020C4D43535F46494C4C45545F3209020FEE020C4D43535F46494C4C45545F3309020FEE020C4D43535F46494C4C45545F3409020FEE020C4D43535F46494C4C45545F351202
1004
2C020502010302010302020201030203069A9999999999F93F02010302012202010302010302010201030201221A
  0
ARC
  5
64E
330
61E
100
AcDbEntity
  8
detourage
  6
ByBlock
100
AcDbCircle
 10
158.57632
 20
152.875734
 30
0.0
 40
0.8499999999995589
100
AcDbArc
 50
45.000001
 51
225.0
  0
ARC
  5
64F
330
61E
100
AcDbEntity
  8
detourage
  6
ByBlock
100
AcDbCircle
 10
163.374239
 20
152.875734
 30
-0.000007
 40
0.8499999999999205
100
AcDbArc
 50
315.0
 51
135.0
  0
ARC
  5
650
330
61E
100
AcDbEntity
  8
detourage
  6
ByBlock
100
AcDbCircle
 10
158.57632
 20
130.077816
 30
-0.000008
 40
0.850000000000272
100
AcDbArc
 50
135.0
 51
314.999999
  0
ARC
  5
651
330
61E
100
AcDbEntity
  8
detourage
  6
ByBlock
100
AcDbCircle
 10
163.374239
 20
130.077816
 30
-0.000008
 40
0.8500000000002923
100
AcDbArc
 50
225.0
 51
45.0
  0
ENDBLK
  5
620
330
61E
100
AcDbEntity
  8
0
100
AcDbBlockEnd
  0
BLOCK
  5
654
330
653
100
AcDbEntity
  8
0
100
AcDbBlockBegin
  2
ECROU
 70
     0
 10
0.0
 20
0.0
 30
0.0
  3
ECROU
  1
ECROU
  0
LINE
  5
656
330
653
100
AcDbEntity
  8
detourage
100
AcDbLine
 10
126.716598
 20
46.893271
 30
-0.000002
 11
125.790274
 21
46.430109
 31
-0.000002
  0
LINE
  5
657
330
653
100
AcDbEntity
  8
detourage
100
AcDbLine
 10
126.716598
 20
46.893271
 30
-0.000002
 11
127.069471
 21
47.013862
 31
-0.000002
  0
LINE
  5
658
330
653
100
AcDbEntity
  8
detourage
100
AcDbLine
 10
127.069471
 20
47.013862
 30
-0.000002
 11
128.214273
 21
47.246825
 31
-0.000002
  0
LINE
  5
659
330
653
100
AcDbEntity
  8
detourage
100
AcDbLine
 10
128.214273
 20
47.246825
 30
-0.000002
 11
140.765213
 21
47.246825
 31
-0.000003
  0
LINE
  5
65A
330
653
100
AcDbEntity
  8
detourage
100
AcDbLine
 10
140.765213
 20
47.246825
 30
-0.000003
 11
140.924067
 21
47.196874
 31
-0.000003
  0
LINE
  5
65B
330
653
100
AcDbEntity
  8
detourage
100
AcDbLine
 10
140.924067
 20
47.196874
 30
-0.000003
 11
141.217773
 21
47.013862
 31
-0.000003
  0
LINE
  5
65C
330
653
100
AcDbEntity
  8
detourage
100
AcDbLine
 10
141.217773
 20
47.013862
 30
-0.000003
 11
141.33261
 21
46.893271
 31
-0.000003
  0
LINE
  5
65D
330
653
100
AcDbEntity
  8
detourage
100
AcDbLine
 10
141.33261
 20
46.893271
 30
-0.000003
 11
141.415111
 21
46.763862
 31
-0.000003
  0
LINE
  5
65E
330
653
100
AcDbEntity
  8
detourage
100
AcDbLine
 10
141.415111
 20
46.763862
 30
-0.000003
 11
142.088171
 21
45.39268
 31
-0.000003
  0
LINE
  5
65F
330
653
100
AcDbEntity
  8
detourage
100
AcDbLine
 10
142.088171
 20
45.39268
 30
-0.000003
 11
142.848437
 21
43.45182
 31
-0.000003
  0
LINE
  5
660
330
653
100
AcDbEntity
  8
detourage
100
AcDbLine
 10
142.848437
 20
43.45182
 30
-0.000003
 11
143.445249
 21
41.454631
 31
-0.000003
  0
LINE
  5
661
330
653
100
AcDbEntity
  8
detourage
100
AcDbLine
 10
143.445249
 20
41.454631
 30
-0.000003
 11
143.8745
 21
39.414854
 31
-0.000003
  0
LINE
  5
662
330
653
100
AcDbEntity
  8
detourage
100
AcDbLine
 10
143.8745
 20
39.414854
 30
-0.000003
 11
144.133237
 21
37.346522
 31
-0.000003
  0
LINE
  5
663
330
653
100
AcDbEntity
  8
detourage
100
AcDbLine
 10
144.133237
 20
37.346522
 30
-0.000003
 11
144.219681
 21
35.263862
 31
-0.000003
  0
LINE
  5
664
330
653
100
AcDbEntity
  8
detourage
100
AcDbLine
 10
144.219681
 20
35.263862
 30
-0.000003
 11
144.133237
 21
33.181201
 31
-0.000003
  0
LINE
  5
665
330
653
100
AcDbEntity
  8
detourage
100
AcDbLine
 10
144.133237
 20
33.181201
 30
-0.000003
 11
143.8745
 21
31.112869
 31
-0.000003
  0
LINE
  5
666
330
653
100
AcDbEntity
  8
detourage
100
AcDbLine
 10
143.8745
 20
31.112869
 30
-0.000003
 11
143.445248
 21
29.073092
 31
-0.000003
  0
LINE
  5
667
330
653
100
AcDbEntity
  8
detourage
100
AcDbLine
 10
143.445248
 20
29.073092
 30
-0.000003
 11
142.848437
 21
27.075904
 31
-0.000003
  0
LINE
  5
668
330
653
100
AcDbEntity
  8
detourage
100
AcDbLine
 10
142.848437
 20
27.075904
 30
-0.000003
 11
142.08817
 21
25.135043
 31
-0.000003
  0
LINE
  5
669
330
653
100
AcDbEntity
  8
detourage
100
AcDbLine
 10
142.08817
 20
25.135043
 30
-0.000003
 11
141.41511
 21
23.763862
 31
-0.000003
  0
LINE
  5
66A
330
653
100
AcDbEntity
  8
detourage
100
AcDbLine
 10
125.436721
 20
45.858048
 30
-0.000002
 11
125.56613
 21
46.173353
 31
-0.000002
  0
LINE
  5
66B
330
653
100
AcDbEntity
  8
detourage
100
AcDbLine
 10
125.56613
 20
46.173353
 30
-0.000002
 11
125.790274
 21
46.430109
 31
-0.000002
  0
LINE
  5
66C
330
653
100
AcDbEntity
  8
detourage
100
AcDbLine
 10
126.716598
 20
23.634452
 30
-0.000003
 11
127.069471
 21
23.513862
 31
-0.000003
  0
LINE
  5
66D
330
653
100
AcDbEntity
  8
detourage
100
AcDbLine
 10
126.716598
 20
23.634452
 30
-0.000003
 11
125.790274
 21
24.097614
 31
-0.000004
  0
LINE
  5
66E
330
653
100
AcDbEntity
  8
detourage
100
AcDbLine
 10
127.069471
 20
23.513862
 30
-0.000003
 11
128.214273
 21
23.280899
 31
-0.000003
  0
LINE
  5
66F
330
653
100
AcDbEntity
  8
detourage
100
AcDbLine
 10
128.214273
 20
23.280899
 30
-0.000003
 11
140.765213
 21
23.280899
 31
-0.000003
  0
LINE
  5
670
330
653
100
AcDbEntity
  8
detourage
100
AcDbLine
 10
140.765213
 20
23.280899
 30
-0.000003
 11
140.924067
 21
23.330849
 31
-0.000003
  0
LINE
  5
671
330
653
100
AcDbEntity
  8
detourage
100
AcDbLine
 10
140.924067
 20
23.330849
 30
-0.000003
 11
141.217773
 21
23.513862
 31
-0.000003
  0
LINE
  5
672
330
653
100
AcDbEntity
  8
detourage
100
AcDbLine
 10
141.217773
 20
23.513862
 30
-0.000003
 11
141.33261
 21
23.634452
 31
-0.000003
  0
LINE
  5
673
330
653
100
AcDbEntity
  8
detourage
100
AcDbLine
 10
125.436721
 20
24.669676
 30
-0.000004
 11
125.56613
 21
24.354371
 31
-0.000004
  0
LINE
  5
674
330
653
100
AcDbEntity
  8
detourage
100
AcDbLine
 10
125.56613
 20
24.354371
 30
-0.000004
 11
125.790274
 21
24.097614
 31
-0.000004
  0
LINE
  5
675
330
653
100
AcDbEntity
  8
detourage
100
AcDbLine
 10
141.33261
 20
23.634452
 30
-0.000003
 11
141.41511
 21
23.763862
 31
-0.000003
  0
LINE
  5
676
330
653
100
AcDbEntity
  8
detourage
100
AcDbLine
 10
125.436721
 20
24.669676
 30
-0.000004
 11
125.436721
 21
45.858048
 31
-0.000002
  0
CIRCLE
  5
677
330
653
100
AcDbEntity
  8
detourage
  6
ByBlock
100
AcDbCircle
 10
139.169679
 20
35.263862
 30
-0.000003
 40
2.500000000000001
  0
ENDBLK
  5
655
330
653
100
AcDbEntity
  8
0
100
AcDbBlockEnd
  0
BLOCK
  5
67A
330
679
100
AcDbEntity
  8
0
100
AcDbBlockBegin
  2
STYLO
 70
     0
 10
0.0
 20
0.0
 30
0.0
  3
STYLO
  1
STYLO
  0
LINE
  5
67C
330
679
100
AcDbEntity
  8
detourage
100
AcDbLine
 10
196.605215
 20
55.163018
 30
0.0
 11
196.529319
 21
54.489827
 31
0.0
  0
LINE
  5
67D
330
679
100
AcDbEntity
  8
detourage
100
AcDbLine
 10
198.429723
 20
48.863959
 30
0.0
 11
199.811169
 21
47.42149
 31
0.0
  0
LINE
  5
67E
330
679
100
AcDbEntity
  8
detourage
100
AcDbLine
 10
204.082485
 20
45.307211
 30
0.0
 11
221.900904
 21
43.298359
 31
0.0
  0
LINE
  5
67F
330
679
100
AcDbEntity
  8
detourage
100
AcDbLine
 10
226.535748
 20
44.408555
 30
0.0
 11
228.203683
 21
45.507236
 31
0.0
  0
LINE
  5
680
330
679
100
AcDbEntity
  8
detourage
100
AcDbLine
 10
231.308986
 20
50.56876
 30
0.0
 11
231.384785
 21
51.241095
 31
0.0
  0
LINE
  5
681
330
679
100
AcDbEntity
  8
detourage
100
AcDbLine
 10
229.136077
 20
57.206238
 30
0.0
 11
221.497059
 21
64.146802
 31
0.0
  0
LINE
  5
682
330
679
100
AcDbEntity
  8
detourage
100
AcDbLine
 10
217.571103
 20
65.922137
 30
0.0
 11
213.324775
 21
66.399048
 31
0.0
  0
LINE
  5
683
330
679
100
AcDbEntity
  8
detourage
100
AcDbLine
 10
200.123441
 20
60.476523
 30
0.0
 11
209.1058
 21
65.540502
 31
0.0
  0
CIRCLE
  5
684
330
679
100
AcDbEntity
  8
detourage
  6
ByBlock
100
AcDbCircle
 10
214.188398
 20
54.917489
 30
0.0
 40
3.75
  0
CIRCLE
  5
685
330
679
100
AcDbEntity
  8
detourage
  6
ByBlock
100
AcDbCircle
 10
202.348303
 20
52.547069
 30
0.0
 40
1.25
  0
CIRCLE
  5
686
330
679
100
AcDbEntity
  8
detourage
  6
ByBlock
100
AcDbCircle
 10
225.203512
 20
49.970368
 30
0.0
 40
1.25
  0
ARC
  5
687
330
679
100
AcDbEntity
  8
detourage
100
AcDbCircle
 10
203.485252
 20
53.705614
 30
0.0
 40
6.999999999919737
210
8.302832757860476E-10
220
-5.364658852367890E-10
230
1.0
100
AcDbArc
 50
173.567623
 51
223.762051
1001
MCSXDATA5
1071
      167
1004
06000000000000008B0000001C000000E404000000000000000000001F050A025C020509020FEE020C4D43535F46494C4C45545F3109020FEE020C4D43535F46494C4C45545F3209020FEE020C4D43535F46494C4C45545F3309020FEE020C4D43535F46494C4C45545F3409020FEE020C4D43535F46494C4C45545F351202
1004
2602050201030201030202020103020326020702010302012202010302010302010201030201221A
  0
ARC
  5
688
330
679
100
AcDbEntity
  8
detourage
100
AcDbCircle
 10
204.866698
 20
52.263144
 30
0.0
 40
6.999999999949672
210
-6.026582580675357E-10
220
-1.908786360806168E-9
230
1.0
100
AcDbArc
 50
223.762051
 51
263.567623
1001
MCSXDATA5
1071
      167
1004
06000000000000008B0000001C000000E404000000000000000000001F050A025C020509020FEE020C4D43535F46494C4C45545F3109020FEE020C4D43535F46494C4C45545F3209020FEE020C4D43535F46494C4C45545F3309020FEE020C4D43535F46494C4C45545F3409020FEE020C4D43535F46494C4C45545F351202
1004
2602050201030201030202020103020326020702010302012202010302010302010201030201221A
  0
ARC
  5
689
330
679
100
AcDbEntity
  8
detourage
100
AcDbCircle
 10
222.685117
 20
50.254292
 30
0.0
 40
7.000000000013874
210
-4.918937688527592E-10
220
-9.263101266653763E-10
230
1.0
100
AcDbArc
 50
263.567623
 51
303.373194
1001
MCSXDATA5
1071
      167
1004
06000000000000008B0000001C000000E404000000000000000000001F050A025C020509020FEE020C4D43535F46494C4C45545F3109020FEE020C4D43535F46494C4C45545F3209020FEE020C4D43535F46494C4C45545F3309020FEE020C4D43535F46494C4C45545F3409020FEE020C4D43535F46494C4C45545F351202
1004
2602050201030201030202020103020326020702010302012202010302010302010201030201221A
  0
ARC
  5
68A
330
679
100
AcDbEntity
  8
detourage
100
AcDbCircle
 10
224.353053
 20
51.352973
 30
0.0
 40
6.999999999992182
210
-8.572395756798458E-10
220
-3.716685039286936E-10
230
1.0
100
AcDbArc
 50
303.373194
 51
353.567623
1001
MCSXDATA5
1071
      167
1004
06000000000000008B0000001C000000E404000000000000000000001F050A025C020509020FEE020C4D43535F46494C4C45545F3109020FEE020C4D43535F46494C4C45545F3209020FEE020C4D43535F46494C4C45545F3309020FEE020C4D43535F46494C4C45545F3409020FEE020C4D43535F46494C4C45545F351202
1004
2602050201030201030202020103020326020702010302012202010302010302010201030201221A
  0
ARC
  5
68B
330
679
100
AcDbEntity
  8
detourage
100
AcDbCircle
 10
224.428852
 20
52.025308
 30
0.0
 40
7.0000000000873
210
-2.663267027257087E-10
220
-4.382875915277737E-10
230
1.0
100
AcDbArc
 50
353.567623
 51
47.742732
1001
MCSXDATA5
1071
      167
1004
06000000000000008B0000001C000000E404000000000000000000001F050A025C020509020FEE020C4D43535F46494C4C45545F3109020FEE020C4D43535F46494C4C45545F3209020FEE020C4D43535F46494C4C45545F3309020FEE020C4D43535F46494C4C45545F3409020FEE020C4D43535F46494C4C45545F351202
1004
2602050201030201030202020103020326020702010302012202010302010302010201030201221A
  0
ARC
  5
68C
330
679
100
AcDbEntity
  8
detourage
100
AcDbCircle
 10
216.789834
 20
58.965872
 30
0.0
 40
6.999999999973515
210
-4.500150336525548E-10
220
-6.404613898660519E-10
230
1.0
100
AcDbArc
 50
47.742732
 51
83.591881
1001
MCSXDATA5
1071
      167
1004
06000000000000008B0000001C000000E404000000000000000000001F050A025C020509020FEE020C4D43535F46494C4C45545F3109020FEE020C4D43535F46494C4C45545F3209020FEE020C4D43535F46494C4C45545F3309020FEE020C4D43535F46494C4C45545F3409020FEE020C4D43535F46494C4C45545F351202
1004
2602050201030201030202020103020326020702010302012202010302010302010201030201221A
  0
ARC
  5
68D
330
679
100
AcDbEntity
  8
detourage
100
AcDbCircle
 10
212.543507
 20
59.442783
 30
0.0
 40
7.000000000055413
210
-3.978616543514624E-10
220
-1.760949668530421E-10
230
1.0
100
AcDbArc
 50
83.591881
 51
119.412973
1001
MCSXDATA5
1071
      167
1004
06000000000000008B0000001C000000E404000000000000000000001F050A025C020509020FEE020C4D43535F46494C4C45545F3109020FEE020C4D43535F46494C4C45545F3209020FEE020C4D43535F46494C4C45545F3309020FEE020C4D43535F46494C4C45545F3409020FEE020C4D43535F46494C4C45545F351202
1004
2602050201030201030202020103020326020702010302012202010302010302010201030201221A
  0
ARC
  5
68E
330
679
100
AcDbEntity
  8
detourage
100
AcDbCircle
 10
203.561148
 20
54.378804
 30
0.0
 40
7.000000000034141
210
-2.642643543803703E-10
220
-4.130662091527675E-10
230
1.0
100
AcDbArc
 50
119.412973
 51
173.567623
1001
MCSXDATA5
1071
      167
1004
06000000000000008B0000001C000000E404000000000000000000001F050A025C020509020FEE020C4D43535F46494C4C45545F3109020FEE020C4D43535F46494C4C45545F3209020FEE020C4D43535F46494C4C45545F3309020FEE020C4D43535F46494C4C45545F3409020FEE020C4D43535F46494C4C45545F351202
1004
2602050201030201030202020103020326020702010302012202010302010302010201030201221A
  0
ENDBLK
  5
67B
330
679
100
AcDbEntity
  8
0
100
AcDbBlockEnd
  0
BLOCK
  5
6B0
330
6AF
100
AcDbEntity
  8
0
100
AcDbBlockBegin
  2
STYLO-MOD1
 70
     0
 10
0.0
 20
0.0
 30
0.0
  3
STYLO-MOD1
  1
STYLO-MOD1
  0
CIRCLE
  5
6B2
330
6AF
100
AcDbEntity
  8
detourage
  6
ByBlock
100
AcDbCircle
 10
214.188398
 20
54.917489
 30
0.0
 40
3.75
  0
CIRCLE
  5
6B3
330
6AF
100
AcDbEntity
  8
detourage
  6
ByBlock
100
AcDbCircle
 10
202.348303
 20
52.547069
 30
0.0
 40
1.7
  0
CIRCLE
  5
6B4
330
6AF
100
AcDbEntity
  8
detourage
  6
ByBlock
100
AcDbCircle
 10
225.203512
 20
49.970368
 30
0.0
 40
1.7
  0
LINE
  5
6B5
330
6AF
100
AcDbEntity
  8
detourage
100
AcDbLine
 10
203.389959
 20
46.232407
 30
0.0
 11
222.972697
 21
43.971746
 31
0.0
  0
LINE
  5
6B6
330
6AF
100
AcDbEntity
  8
detourage
100
AcDbLine
 10
223.232169
 20
61.179294
 30
0.0
 11
229.792307
 21
54.431642
 31
0.0
  0
LINE
  5
6B7
330
6AF
100
AcDbEntity
  8
detourage
100
AcDbLine
 10
206.843003
 20
63.1056
 30
0.0
 11
198.858589
 21
57.911945
 31
0.0
  0
ARC
  5
6B8
330
6AF
100
AcDbEntity
  8
detourage
100
AcDbCircle
 10
214.188398
 20
54.917489
 30
0.0
 40
11.0
100
AcDbArc
 50
34.698293
 51
131.894662
  0
ARC
  5
6B9
330
6AF
100
AcDbEntity
  8
detourage
100
AcDbCircle
 10
225.203512
 20
49.970368
 30
0.0
 40
6.4
100
AcDbArc
 50
249.600442
 51
44.192721
  0
ARC
  5
6BA
330
6AF
100
AcDbEntity
  8
detourage
100
AcDbCircle
 10
202.348303
 20
52.547069
 30
0.0
 40
6.4
100
AcDbArc
 50
123.042964
 51
279.367062
  0
ENDBLK
  5
6B1
330
6AF
100
AcDbEntity
  8
0
100
AcDbBlockEnd
  0
BLOCK
  5
6BD
330
6BC
100
AcDbEntity
  8
0
100
AcDbBlockBegin
  2
CUTTER
 70
     0
 10
0.0
 20
0.0
 30
0.0
  3
CUTTER
  1
CUTTER
  0
LINE
  5
6BF
330
6BC
100
AcDbEntity
  8
detourage
100
AcDbLine
 10
169.300044
 20
29.898513
 30
0.0
 11
169.684203
 21
31.558417
 31
0.0
  0
LINE
  5
6C0
330
6BC
100
AcDbEntity
  8
detourage
100
AcDbLine
 10
187.177236
 20
12.23336
 30
0.0
 11
169.901761
 21
27.968989
 31
0.0
  0
LINE
  5
6C1
330
6BC
100
AcDbEntity
  8
detourage
100
AcDbLine
 10
189.056902
 20
11.784232
 30
0.0
 11
190.702101
 21
12.239023
 31
0.0
  0
LINE
  5
6C2
330
6BC
100
AcDbEntity
  8
detourage
100
AcDbLine
 10
197.1126
 20
36.591053
 30
0.0
 11
192.123181
 21
13.740084
 31
0.0
  0
LINE
  5
6C3
330
6BC
100
AcDbEntity
  8
detourage
100
AcDbLine
 10
195.275954
 20
39.644212
 30
0.0
 11
196.523425
 21
38.479662
 31
0.0
  0
LINE
  5
6C4
330
6BC
100
AcDbEntity
  8
detourage
100
AcDbLine
 10
171.027368
 20
33.013661
 30
0.0
 11
193.305832
 21
40.088437
 31
0.0
  0
CIRCLE
  5
6C5
330
6BC
100
AcDbEntity
  8
detourage
  6
ByBlock
100
AcDbCircle
 10
185.101542
 20
27.272091
 30
0.0
 40
1.7
  0
CIRCLE
  5
6C6
330
6BC
100
AcDbEntity
  8
detourage
  6
ByBlock
100
AcDbCircle
 10
188.432042
 20
16.78435
 30
0.0
 40
1.599999999999991
  0
CIRCLE
  5
6C7
330
6BC
100
AcDbEntity
  8
detourage
  6
ByBlock
100
AcDbCircle
 10
192.51634
 20
35.397408
 30
0.0
 40
1.599999999999772
  0
CIRCLE
  5
6C8
330
6BC
100
AcDbEntity
  8
detourage
  6
ByBlock
100
AcDbCircle
 10
174.357413
 20
29.630836
 30
0.0
 40
1.600000000000018
  0
ARC
  5
6C9
330
6BC
100
AcDbEntity
  8
detourage
100
AcDbCircle
 10
171.632701
 20
31.107467
 30
0.0
 40
2.000000000183086
100
AcDbArc
 50
107.61783
 51
166.969196
1001
MCSXDATA5
1071
      167
1004
06000000000000008B0000001C000000E404000000000000000000001F050A025C020509020FEE020C4D43535F46494C4C45545F3109020FEE020C4D43535F46494C4C45545F3209020FEE020C4D43535F46494C4C45545F3309020FEE020C4D43535F46494C4C45545F3409020FEE020C4D43535F46494C4C45545F351202
1004
2602050201030201030202020103020326020202010302012202010302010302010201030201221A
  0
ARC
  5
6CA
330
6BC
100
AcDbEntity
  8
detourage
100
AcDbCircle
 10
171.248542
 20
29.447563
 30
0.0
 40
2.000000000070507
100
AcDbArc
 50
166.969196
 51
227.670702
1001
MCSXDATA5
1071
      167
1004
06000000000000008B0000001C000000E404000000000000000000001F050A025C020509020FEE020C4D43535F46494C4C45545F3109020FEE020C4D43535F46494C4C45545F3209020FEE020C4D43535F46494C4C45545F3309020FEE020C4D43535F46494C4C45545F3409020FEE020C4D43535F46494C4C45545F351202
1004
2602050201030201030202020103020326020202010302012202010302010302010201030201221A
  0
ARC
  5
6CB
330
6BC
100
AcDbEntity
  8
detourage
100
AcDbCircle
 10
188.524018
 20
13.711934
 30
0.0
 40
2.000000000106352
100
AcDbArc
 50
227.670702
 51
285.452659
1001
MCSXDATA5
1071
      167
1004
06000000000000008B0000001C000000E404000000000000000000001F050A025C020509020FEE020C4D43535F46494C4C45545F3109020FEE020C4D43535F46494C4C45545F3209020FEE020C4D43535F46494C4C45545F3309020FEE020C4D43535F46494C4C45545F3409020FEE020C4D43535F46494C4C45545F351202
1004
2602050201030201030202020103020326020202010302012202010302010302010201030201221A
  0
ARC
  5
6CC
330
6BC
100
AcDbEntity
  8
detourage
100
AcDbCircle
 10
190.169217
 20
14.166724
 30
0.0
 40
2.000000000020546
100
AcDbArc
 50
285.452659
 51
347.683003
1001
MCSXDATA5
1071
      167
1004
06000000000000008B0000001C000000E404000000000000000000001F050A025C020509020FEE020C4D43535F46494C4C45545F3109020FEE020C4D43535F46494C4C45545F3209020FEE020C4D43535F46494C4C45545F3309020FEE020C4D43535F46494C4C45545F3409020FEE020C4D43535F46494C4C45545F351202
1004
2602050201030201030202020103020326020202010302012202010302010302010201030201221A
  0
ARC
  5
6CD
330
6BC
100
AcDbEntity
  8
detourage
100
AcDbCircle
 10
195.158636
 20
37.017694
 30
0.0
 40
2.0000000000685
100
AcDbArc
 50
347.683003
 51
46.968954
1001
MCSXDATA5
1071
      167
1004
06000000000000008B0000001C000000E404000000000000000000001F050A025C020509020FEE020C4D43535F46494C4C45545F3109020FEE020C4D43535F46494C4C45545F3209020FEE020C4D43535F46494C4C45545F3309020FEE020C4D43535F46494C4C45545F3409020FEE020C4D43535F46494C4C45545F351202
1004
2602050201030201030202020103020326020202010302012202010302010302010201030201221A
  0
ARC
  5
6CE
330
6BC
100
AcDbEntity
  8
detourage
100
AcDbCircle
 10
193.911165
 20
38.182244
 30
0.0
 40
2.000000000134467
100
AcDbArc
 50
46.968954
 51
107.61783
1001
MCSXDATA5
1071
      167
1004
06000000000000008B0000001C000000E404000000000000000000001F050A025C020509020FEE020C4D43535F46494C4C45545F3109020FEE020C4D43535F46494C4C45545F3209020FEE020C4D43535F46494C4C45545F3309020FEE020C4D43535F46494C4C45545F3409020FEE020C4D43535F46494C4C45545F351202
1004
2602050201030201030202020103020326020202010302012202010302010302010201030201221A
  0
ENDBLK
  5
6BE
330
6BC
100
AcDbEntity
  8
0
100
AcDbBlockEnd
  0
BLOCK
  5
6D3
330
6D2
100
AcDbEntity
  8
0
100
AcDbBlockBegin
  2
*D13
 70
     1
 10
0.0
 20
0.0
 30
0.0
  3
*D13
  1
*D13
  0
LINE
  5
6D5
330
6D2
100
AcDbEntity
  8
DIMENSION
 62
     0
100
AcDbLine
 10
12.729441
 20
95.150694
 30
0.0
 11
15.229441
 21
95.150694
 31
0.0
  0
LINE
  5
6D6
330
6D2
100
AcDbEntity
  8
DIMENSION
 62
     0
100
AcDbLine
 10
18.764975
 20
91.61516
 30
0.0
 11
15.229441
 21
95.150694
 31
0.0
  0
MTEXT
  5
6D7
330
6D2
100
AcDbEntity
  8
DIMENSION
 62
     0
100
AcDbMText
 10
5.479441
 20
95.150694
 30
0.0
 40
2.5
 41
0.0
 46
0.0
 71
     5
 72
     1
  1
\A1;R1.0000
 73
     1
 44
1.0
  0
SOLID
  5
6D8
330
6D2
100
AcDbEntity
  8
DIMENSION
 62
     0
100
AcDbTrace
 10
16.70258
 20
93.088299
 30
0.0
 11
17.291836
 21
93.677555
 31
0.0
 12
18.764975
 22
91.61516
 32
0.0
 13
18.764975
 23
91.61516
 33
0.0
  0
LINE
  5
6D9
330
6D2
100
AcDbEntity
  8
DIMENSION
 62
     0
100
AcDbLine
 10
16.972082
 20
90.908053
 30
0.0
 11
21.972082
 21
90.908053
 31
0.0
  0
LINE
  5
6DA
330
6D2
100
AcDbEntity
  8
DIMENSION
 62
     0
100
AcDbLine
 10
19.472082
 20
88.408053
 30
0.0
 11
19.472082
 21
93.408053
 31
0.0
  0
POINT
  5
6DB
330
6D2
100
AcDbEntity
  8
DEFPOINTS
 62
     0
100
AcDbPoint
 10
18.764975
 20
91.61516
 30
0.0
  0
POINT
  5
6DC
330
6D2
100
AcDbEntity
  8
DEFPOINTS
 62
     0
100
AcDbPoint
 10
19.472082
 20
90.908053
 30
0.0
  0
ENDBLK
  5
6D4
330
6D2
100
AcDbEntity
  8
0
100
AcDbBlockEnd
  0
BLOCK
  5
764
330
763
100
AcDbEntity
  8
0
100
AcDbBlockBegin
  2
BROCHE
 70
     0
 10
0.0
 20
0.0
 30
0.0
  3
BROCHE
  1
BROCHE
  0
LINE
  5
766
330
763
100
AcDbEntity
  8
detourage
100
AcDbLine
 10
63.045277
 20
30.476749
 30
0.0
 11
64.697235
 21
30.565363
 31
0.0
  0
LINE
  5
767
330
763
100
AcDbEntity
  8
detourage
100
AcDbLine
 10
61.285827
 20
30.544406
 30
0.0
 11
63.045277
 21
30.476749
 31
0.0
  0
LINE
  5
768
330
763
100
AcDbEntity
  8
detourage
100
AcDbLine
 10
64.697235
 20
30.565363
 30
0.0
 11
66.129124
 21
30.804206
 31
0.0
  0
LINE
  5
769
330
763
100
AcDbEntity
  8
detourage
100
AcDbLine
 10
20.051637
 20
78.828536
 30
0.0
 11
20.051637
 21
85.128536
 31
0.0
  0
LINE
  5
76A
330
763
100
AcDbEntity
  8
detourage
100
AcDbLine
 10
20.051637
 20
85.128536
 30
0.0
 11
18.896346
 21
85.911122
 31
0.0
  0
LINE
  5
76B
330
763
100
AcDbEntity
  8
detourage
100
AcDbLine
 10
56.851637
 20
78.828536
 30
0.0
 11
56.851637
 21
85.128536
 31
0.0
  0
LINE
  5
76C
330
763
100
AcDbEntity
  8
detourage
100
AcDbLine
 10
56.851637
 20
85.128536
 30
0.0
 11
58.006929
 21
85.911122
 31
0.0
  0
LINE
  5
76D
330
763
100
AcDbEntity
  8
detourage
100
AcDbLine
 10
58.006929
 20
78.045894
 30
0.0
 11
56.851637
 21
78.828536
 31
0.0
  0
LINE
  5
76E
330
763
100
AcDbEntity
  8
detourage
100
AcDbLine
 10
84.150182
 20
40.367764
 30
0.0
 11
83.866124
 21
45.290147
 31
0.0
  0
LINE
  5
76F
330
763
100
AcDbEntity
  8
detourage
100
AcDbLine
 10
18.451637
 20
58.318786
 30
0.0
 11
18.472082
 21
77.259992
 31
0.0
  0
LINE
  5
770
330
763
100
AcDbEntity
  8
detourage
100
AcDbLine
 10
84.102805
 20
39.414413
 30
0.0
 11
84.150182
 21
40.367764
 31
0.0
  0
LINE
  5
771
330
763
100
AcDbEntity
  8
detourage
100
AcDbLine
 10
18.451637
 20
58.318786
 30
0.0
 11
18.55386
 21
57.202586
 31
0.0
  0
LINE
  5
772
330
763
100
AcDbEntity
  8
detourage
100
AcDbLine
 10
18.55386
 20
57.202586
 30
0.0
 11
18.853561
 21
55.985226
 31
0.0
  0
LINE
  5
773
330
763
100
AcDbEntity
  8
detourage
100
AcDbLine
 10
18.853561
 20
55.985226
 30
0.0
 11
19.330317
 21
54.749666
 31
0.0
  0
LINE
  5
774
330
763
100
AcDbEntity
  8
detourage
100
AcDbLine
 10
19.330317
 20
54.749666
 30
0.0
 11
19.951637
 21
53.580109
 31
0.0
  0
LINE
  5
775
330
763
100
AcDbEntity
  8
detourage
100
AcDbLine
 10
82.827554
 20
48.035512
 30
0.0
 11
83.357024
 21
47.135788
 31
0.0
  0
LINE
  5
776
330
763
100
AcDbEntity
  8
detourage
100
AcDbLine
 10
82.873239
 20
36.459203
 30
0.0
 11
83.441811
 21
37.391193
 31
0.0
  0
LINE
  5
777
330
763
100
AcDbEntity
  8
detourage
100
AcDbLine
 10
83.357024
 20
47.135788
 30
0.0
 11
83.711261
 21
46.199395
 31
0.0
  0
LINE
  5
778
330
763
100
AcDbEntity
  8
detourage
100
AcDbLine
 10
83.711261
 20
46.199395
 30
0.0
 11
83.866124
 21
45.290147
 31
0.0
  0
LINE
  5
779
330
763
100
AcDbEntity
  8
detourage
100
AcDbLine
 10
81.211044
 20
35.067703
 30
0.0
 11
82.194226
 21
35.666704
 31
0.0
  0
LINE
  5
77A
330
763
100
AcDbEntity
  8
detourage
100
AcDbLine
 10
82.194226
 20
35.666704
 30
0.0
 11
82.873239
 21
36.459203
 31
0.0
  0
LINE
  5
77B
330
763
100
AcDbEntity
  8
detourage
100
AcDbLine
 10
83.441811
 20
37.391193
 30
0.0
 11
83.861192
 21
38.399161
 31
0.0
  0
LINE
  5
77C
330
763
100
AcDbEntity
  8
detourage
100
AcDbLine
 10
83.861192
 20
38.399161
 30
0.0
 11
84.102805
 21
39.414413
 31
0.0
  0
LINE
  5
77D
330
763
100
AcDbEntity
  8
detourage
100
AcDbLine
 10
58.451637
 20
76.46107
 30
0.0
 11
82.827554
 21
48.035512
 31
0.0
  0
LINE
  5
77E
330
763
100
AcDbEntity
  8
detourage
100
AcDbLine
 10
58.431193
 20
86.696993
 30
0.0
 11
58.431193
 21
90.908053
 31
0.0
  0
LINE
  5
77F
330
763
100
AcDbEntity
  8
detourage
100
AcDbLine
 10
58.431193
 20
77.259992
 30
0.0
 11
58.451637
 21
76.46107
 31
0.0
  0
LINE
  5
780
330
763
100
AcDbEntity
  8
detourage
100
AcDbLine
 10
19.472082
 20
91.908053
 30
0.0
 11
57.431193
 21
91.908053
 31
0.0
  0
LINE
  5
781
330
763
100
AcDbEntity
  8
detourage
100
AcDbLine
 10
18.896346
 20
78.045894
 30
0.0
 11
20.051637
 21
78.828536
 31
0.0
  0
LINE
  5
782
330
763
100
AcDbEntity
  8
detourage
100
AcDbLine
 10
18.472082
 20
86.696993
 30
0.0
 11
18.472082
 21
90.908053
 31
0.0
  0
LINE
  5
783
330
763
100
AcDbEntity
  8
detourage
100
AcDbLine
 10
58.275901
 20
86.273371
 30
0.0
 11
58.006929
 21
85.911122
 31
0.0
  0
LINE
  5
784
330
763
100
AcDbEntity
  8
detourage
100
AcDbLine
 10
58.431193
 20
86.696993
 30
0.0
 11
58.275901
 21
86.273371
 31
0.0
  0
LINE
  5
785
330
763
100
AcDbEntity
  8
detourage
100
AcDbLine
 10
58.275901
 20
77.683628
 30
0.0
 11
58.006929
 21
78.045894
 31
0.0
  0
LINE
  5
786
330
763
100
AcDbEntity
  8
detourage
100
AcDbLine
 10
58.431193
 20
77.259992
 30
0.0
 11
58.275901
 21
77.683628
 31
0.0
  0
LINE
  5
787
330
763
100
AcDbEntity
  8
detourage
100
AcDbLine
 10
18.627373
 20
77.683628
 30
0.0
 11
18.896346
 21
78.045894
 31
0.0
  0
LINE
  5
788
330
763
100
AcDbEntity
  8
detourage
100
AcDbLine
 10
18.472082
 20
77.259992
 30
0.0
 11
18.627373
 21
77.683628
 31
0.0
  0
LINE
  5
789
330
763
100
AcDbEntity
  8
detourage
100
AcDbLine
 10
18.627373
 20
86.273371
 30
0.0
 11
18.472082
 21
86.696993
 31
0.0
  0
LINE
  5
78A
330
763
100
AcDbEntity
  8
detourage
100
AcDbLine
 10
18.896346
 20
85.911122
 30
0.0
 11
18.627373
 21
86.273371
 31
0.0
  0
LINE
  5
78B
330
763
100
AcDbEntity
  8
detourage
100
AcDbLine
 10
66.129124
 20
30.804206
 30
0.0
 11
81.211044
 21
35.067703
 31
0.0
  0
CIRCLE
  5
78C
330
763
100
AcDbEntity
  8
detourage
  6
ByBlock
100
AcDbCircle
 10
28.451651
 20
81.978808
 30
0.0
 40
3.049999999999978
  0
CIRCLE
  5
78D
330
763
100
AcDbEntity
  8
detourage
  6
ByBlock
100
AcDbCircle
 10
48.451624
 20
81.978808
 30
0.0
 40
3.050000000000034
  0
CIRCLE
  5
78E
330
763
100
AcDbEntity
  8
detourage
  6
ByBlock
100
AcDbCircle
 10
66.485503
 20
45.111753
 30
0.0
 40
5.800000000000728
  0
CIRCLE
  5
78F
330
763
100
AcDbEntity
  8
detourage
  6
ByBlock
100
AcDbCircle
 10
60.489499
 20
54.338501
 30
0.0
 40
1.3
  0
CIRCLE
  5
790
330
763
100
AcDbEntity
  8
detourage
  6
ByBlock
100
AcDbCircle
 10
77.470248
 20
45.690867
 30
0.0
 40
1.3
  0
CIRCLE
  5
791
330
763
100
AcDbEntity
  8
detourage
  6
ByBlock
100
AcDbCircle
 10
77.023764
 20
39.01816
 30
0.0
 40
1.3
  0
CIRCLE
  5
792
330
763
100
AcDbEntity
  8
detourage
  6
ByBlock
100
AcDbCircle
 10
54.563096
 20
43.969766
 30
0.0
 40
1.3
  0
CIRCLE
  5
793
330
763
100
AcDbEntity
  8
detourage
  6
ByBlock
100
AcDbCircle
 10
61.494658
 20
35.309127
 30
0.0
 40
1.3
  0
CIRCLE
  5
794
330
763
100
AcDbEntity
  8
detourage
  6
ByBlock
100
AcDbCircle
 10
30.451637
 20
54.028724
 30
0.0
 40
1.600000000000085
  0
CIRCLE
  5
795
330
763
100
AcDbEntity
  8
detourage
  6
ByBlock
100
AcDbCircle
 10
38.451637
 20
54.028914
 30
0.0
 40
6.0
  0
CIRCLE
  5
796
330
763
100
AcDbEntity
  8
detourage
  6
ByBlock
100
AcDbCircle
 10
38.451637
 20
63.528914
 30
0.0
 40
1.600000000000071
  0
CIRCLE
  5
797
330
763
100
AcDbEntity
  8
detourage
  6
ByBlock
100
AcDbCircle
 10
46.451632
 20
54.029108
 30
0.0
 40
1.599995003095151
  0
CIRCLE
  5
798
330
763
100
AcDbEntity
  8
detourage
  6
ByBlock
100
AcDbCircle
 10
38.451637
 20
44.528914
 30
0.0
 40
1.600000000000071
  0
ARC
  5
799
330
763
100
AcDbEntity
  8
detourage
100
AcDbCircle
 10
19.472082
 20
90.908053
 30
0.0
 40
1.000000000000483
100
AcDbArc
 50
90.0
 51
180.0
1001
MCSXDATA5
1071
      167
1004
06000000000000008B0000001C000000E404000000000000000000001F050A025C020509020FEE020C4D43535F46494C4C45545F3109020FEE020C4D43535F46494C4C45545F3209020FEE020C4D43535F46494C4C45545F3309020FEE020C4D43535F46494C4C45545F3409020FEE020C4D43535F46494C4C45545F351202
1004
2602050201030201030202020103020326020102010302012202010302010302010201030201221A
  0
ARC
  5
79A
330
763
100
AcDbEntity
  8
detourage
100
AcDbCircle
 10
57.431193
 20
90.908053
 30
0.0
 40
1.000000000002046
100
AcDbArc
 50
0.0
 51
90.0
1001
MCSXDATA5
1071
      167
1004
06000000000000008B0000001C000000E404000000000000000000001F050A025C020509020FEE020C4D43535F46494C4C45545F3109020FEE020C4D43535F46494C4C45545F3209020FEE020C4D43535F46494C4C45545F3309020FEE020C4D43535F46494C4C45545F3409020FEE020C4D43535F46494C4C45545F351202
1004
2602050201030201030202020103020326020102010302012202010302010302010201030201221A
  0
ARC
  5
79B
330
763
100
AcDbEntity
  8
detourage
100
AcDbCircle
 10
63.66052
 20
83.407366
 30
0.0
 40
52.9162702965053
100
AcDbArc
 50
214.309909
 51
267.427907
  0
ENDBLK
  5
765
330
763
100
AcDbEntity
  8
0
100
AcDbBlockEnd
  0
BLOCK
  5
79E
330
79D
100
AcDbEntity
  8
0
100
AcDbBlockBegin
  2
FDC_X
 70
     0
 10
0.0
 20
0.0
 30
0.0
  3
FDC_X
  1
FDC_X
  0
LINE
  5
7A0
330
79D
100
AcDbEntity
  8
detourage
100
AcDbLine
 10
47.377155
 20
194.304472
 30
0.0
 11
47.377155
 21
215.109081
 31
0.0
  0
CIRCLE
  5
7A1
330
79D
100
AcDbEntity
  8
detourage
  6
ByBlock
100
AcDbCircle
 10
38.177155
 20
220.706776
 30
0.0
 40
1.7
  0
CIRCLE
  5
7A2
330
79D
100
AcDbEntity
  8
detourage
  6
ByBlock
100
AcDbCircle
 10
38.177155
 20
188.706776
 30
0.0
 40
1.7
  0
ARC
  5
7A3
330
79D
100
AcDbEntity
  8
detourage
  6
ByBlock
100
AcDbCircle
 10
38.177155
 20
220.706776
 30
0.0
 40
6.0
100
AcDbArc
 50
32.043267
 51
147.956733
  0
LINE
  5
7A4
330
79D
100
AcDbEntity
  8
detourage
  6
ByBlock
100
AcDbLine
 10
35.477155
 20
216.206776
 30
-0.000177
 11
40.877155
 21
216.206776
 31
-0.000177
  0
LINE
  5
7A5
330
79D
100
AcDbEntity
  8
detourage
  6
ByBlock
100
AcDbLine
 10
35.477155
 20
193.206776
 30
-0.000177
 11
40.877155
 21
193.206776
 31
-0.000178
  0
ARC
  5
7A6
330
79D
100
AcDbEntity
  8
detourage
100
AcDbCircle
 10
35.477155
 20
215.306776
 30
-0.000177
 40
0.8999999998225121
100
AcDbArc
 50
90.0
 51
180.0
1001
MCSXDATA5
1071
      173
1004
0600000000000000910000001C000000E404000000000000000000001F050A025C020509020FEE020C4D43535F46494C4C45545F3109020FEE020C4D43535F46494C4C45545F3209020FEE020C4D43535F46494C4C45545F3309020FEE020C4D43535F46494C4C45545F3409020FEE020C4D43535F46494C4C45545F351202
1004
2C02050201030201030202020103020306CDCCCCCCCCCCEC3F02010302012202010302010302010201030201221A
  0
ARC
  5
7A7
330
79D
100
AcDbEntity
  8
detourage
  6
ByBlock
100
AcDbCircle
 10
40.877155
 20
215.306776
 30
-0.000183
 40
0.8999999998250419
210
-2.182947754438418E-8
220
-2.784845889353411E-8
230
0.9999999999999996
100
AcDbArc
 50
0.0
 51
90.0
1001
MCSXDATA5
1071
      173
1004
0600000000000000910000001C000000E404000000000000000000001F050A025C020509020FEE020C4D43535F46494C4C45545F3109020FEE020C4D43535F46494C4C45545F3209020FEE020C4D43535F46494C4C45545F3309020FEE020C4D43535F46494C4C45545F3409020FEE020C4D43535F46494C4C45545F351202
1004
2C02050201030201030202020103020306CDCCCCCCCCCCEC3F02010302012202010302010302010201030201221A
  0
ARC
  5
7A8
330
79D
100
AcDbEntity
  8
detourage
100
AcDbCircle
 10
40.877155
 20
194.106776
 30
-0.000193
 40
0.8999999999791776
210
1.223687972946118E-7
220
-1.059722334234161E-7
230
0.9999999999999869
100
AcDbArc
 50
270.0
 51
0.0
1001
MCSXDATA5
1071
      173
1004
0600000000000000910000001C000000E404000000000000000000001F050A025C020509020FEE020C4D43535F46494C4C45545F3109020FEE020C4D43535F46494C4C45545F3209020FEE020C4D43535F46494C4C45545F3309020FEE020C4D43535F46494C4C45545F3409020FEE020C4D43535F46494C4C45545F351202
1004
2C02050201030201030202020103020306CDCCCCCCCCCCEC3F02010302012202010302010302010201030201221A
  0
ARC
  5
7A9
330
79D
100
AcDbEntity
  8
detourage
  6
ByBlock
100
AcDbCircle
 10
35.477155
 20
194.106776
 30
-0.000163
 40
0.8999999998191353
210
1.085231928995412E-7
220
5.046340141589918E-8
230
0.9999999999999929
100
AcDbArc
 50
180.0
 51
270.0
1001
MCSXDATA5
1071
      173
1004
0600000000000000910000001C000000E404000000000000000000001F050A025C020509020FEE020C4D43535F46494C4C45545F3109020FEE020C4D43535F46494C4C45545F3209020FEE020C4D43535F46494C4C45545F3309020FEE020C4D43535F46494C4C45545F3409020FEE020C4D43535F46494C4C45545F351202
1004
2C02050201030201030202020103020306CDCCCCCCCCCCEC3F02010302012202010302010302010201030201221A
  0
LINE
  5
7AA
330
79D
100
AcDbEntity
  8
detourage
  6
ByBlock
100
AcDbLine
 10
28.977155
 20
215.109081
 30
0.0
 11
28.977155
 21
194.304472
 31
0.0
  0
ARC
  5
7AB
330
79D
100
AcDbEntity
  8
detourage
  6
ByBlock
100
AcDbCircle
 10
39.377155
 20
194.304472
 30
-0.001695
 40
7.999999999990284
210
-3.578295099658425E-5
220
1.461521134757789E-17
230
0.9999999993597902
100
AcDbArc
 50
314.724003
 51
0.0
1001
MCSXDATA5
1071
      167
1004
06000000000000008B0000001C000000E404000000000000000000001F050A025C020509020FEE020C4D43535F46494C4C45545F3109020FEE020C4D43535F46494C4C45545F3209020FEE020C4D43535F46494C4C45545F3309020FEE020C4D43535F46494C4C45545F3409020FEE020C4D43535F46494C4C45545F351202
1004
2602050201030201030202020103020326020802010302012202010302010302010201030201221A
  0
ARC
  5
7AC
330
79D
100
AcDbEntity
  8
detourage
100
AcDbCircle
 10
39.377155
 20
215.109081
 30
-0.001695
 40
8.000000000052395
210
-3.578295099658473E-5
220
5.798384716544004E-16
230
0.9999999993597902
100
AcDbArc
 50
0.0
 51
45.275997
1001
MCSXDATA5
1071
      167
1004
06000000000000008B0000001C000000E404000000000000000000001F050A025C020509020FEE020C4D43535F46494C4C45545F3109020FEE020C4D43535F46494C4C45545F3209020FEE020C4D43535F46494C4C45545F3309020FEE020C4D43535F46494C4C45545F3409020FEE020C4D43535F46494C4C45545F351202
1004
2602050201030201030202020103020326020802010302012202010302010302010201030201221A
  0
ARC
  5
7AD
330
79D
100
AcDbEntity
  8
detourage
  6
ByBlock
100
AcDbCircle
 10
36.977155
 20
215.109081
 30
0.001037
 40
8.000000000053587
210
3.578295099656868E-5
220
-5.266081831437256E-17
230
0.9999999993597902
100
AcDbArc
 50
134.724003
 51
180.0
1001
MCSXDATA5
1071
      167
1004
06000000000000008B0000001C000000E404000000000000000000001F050A025C020509020FEE020C4D43535F46494C4C45545F3109020FEE020C4D43535F46494C4C45545F3209020FEE020C4D43535F46494C4C45545F3309020FEE020C4D43535F46494C4C45545F3409020FEE020C4D43535F46494C4C45545F351202
1004
2602050201030201030202020103020326020802010302012202010302010302010201030201221A
  0
ARC
  5
7AE
330
79D
100
AcDbEntity
  8
detourage
  6
ByBlock
100
AcDbCircle
 10
36.977155
 20
194.304472
 30
0.001037
 40
7.999999999984085
210
3.578295099656891E-5
220
-5.243767168943100E-17
230
0.9999999993597902
100
AcDbArc
 50
180.0
 51
225.275997
1001
MCSXDATA5
1071
      167
1004
06000000000000008B0000001C000000E404000000000000000000001F050A025C020509020FEE020C4D43535F46494C4C45545F3109020FEE020C4D43535F46494C4C45545F3209020FEE020C4D43535F46494C4C45545F3309020FEE020C4D43535F46494C4C45545F3409020FEE020C4D43535F46494C4C45545F351202
1004
2602050201030201030202020103020326020802010302012202010302010302010201030201221A
  0
ARC
  5
7AF
330
79D
100
AcDbEntity
  8
detourage
  6
ByBlock
100
AcDbCircle
 10
38.177155
 20
188.706776
 30
-0.000178
 40
6.0
100
AcDbArc
 50
212.043267
 51
327.956733
  0
LINE
  5
7B0
330
79D
100
AcDbEntity
  8
detourage
100
AcDbLine
 10
34.577155
 20
215.306776
 30
-0.000177
 11
34.577155
 21
194.106776
 31
-0.000177
  0
LINE
  5
7B1
330
79D
100
AcDbEntity
  8
detourage
100
AcDbLine
 10
41.777155
 20
215.306776
 30
-0.000176
 11
41.777155
 21
194.106776
 31
-0.000178
  0
LINE
  5
7B2
330
79D
100
AcDbEntity
  8
detourage
100
AcDbLine
 10
43.263041
 20
185.523419
 30
-0.000178
 11
45.006694
 21
188.620434
 31
-0.000085
  0
LINE
  5
7B3
330
79D
100
AcDbEntity
  8
detourage
100
AcDbLine
 10
33.091269
 20
185.523419
 30
-0.000178
 11
31.347616
 21
188.620434
 31
-0.000085
  0
LINE
  5
7B4
330
79D
100
AcDbEntity
  8
detourage
100
AcDbLine
 10
43.263041
 20
223.890133
 30
0.0
 11
45.006694
 21
220.793119
 31
-0.000085
  0
LINE
  5
7B5
330
79D
100
AcDbEntity
  8
detourage
100
AcDbLine
 10
33.091269
 20
223.890133
 30
0.0
 11
31.347616
 21
220.793119
 31
-0.000085
  0
ENDBLK
  5
79F
330
79D
100
AcDbEntity
  8
0
100
AcDbBlockEnd
  0
BLOCK
  5
7B8
330
7B7
100
AcDbEntity
  8
0
100
AcDbBlockBegin
  2
FDC_Y
 70
     0
 10
0.0
 20
0.0
 30
0.0
  3
FDC_Y
  1
FDC_Y
  0
LINE
  5
7BA
330
7B7
100
AcDbEntity
  8
detourage
  6
ByBlock
100
AcDbLine
 10
35.671543
 20
148.184168
 30
-0.000177
 11
35.671543
 21
127.184168
 31
-0.000177
  0
LINE
  5
7BB
330
7B7
100
AcDbEntity
  8
detourage
  6
ByBlock
100
AcDbLine
 10
42.671543
 20
148.184168
 30
-0.000177
 11
42.671543
 21
127.184168
 31
-0.000177
  0
LINE
  5
7BC
330
7B7
100
AcDbEntity
  8
detourage
  6
ByBlock
100
AcDbLine
 10
36.671543
 20
149.184168
 30
-0.000177
 11
41.671543
 21
149.184168
 31
-0.000177
  0
LINE
  5
7BD
330
7B7
100
AcDbEntity
  8
detourage
  6
ByBlock
100
AcDbLine
 10
36.671543
 20
126.184168
 30
-0.000177
 11
41.671543
 21
126.184168
 31
-0.000177
  0
ARC
  5
7BE
330
7B7
100
AcDbEntity
  8
detourage
  6
ByBlock
100
AcDbCircle
 10
36.671543
 20
127.184168
 30
-0.000177
 40
1.000000000013642
100
AcDbArc
 50
180.0
 51
270.0
1001
MCSXDATA5
1071
      167
1004
06000000000000008B0000001C000000E404000000000000000000001F050A025C020509020FEE020C4D43535F46494C4C45545F3109020FEE020C4D43535F46494C4C45545F3209020FEE020C4D43535F46494C4C45545F3309020FEE020C4D43535F46494C4C45545F3409020FEE020C4D43535F46494C4C45545F351202
1004
2602050201030201030202020103020326020102010302012202010302010302010201030201221A
  0
ARC
  5
7BF
330
7B7
100
AcDbEntity
  8
detourage
  6
ByBlock
100
AcDbCircle
 10
41.671543
 20
127.184168
 30
-0.000177
 40
1.000000000013642
100
AcDbArc
 50
270.0
 51
0.0
1001
MCSXDATA5
1071
      167
1004
06000000000000008B0000001C000000E404000000000000000000001F050A025C020509020FEE020C4D43535F46494C4C45545F3109020FEE020C4D43535F46494C4C45545F3209020FEE020C4D43535F46494C4C45545F3309020FEE020C4D43535F46494C4C45545F3409020FEE020C4D43535F46494C4C45545F351202
1004
2602050201030201030202020103020326020102010302012202010302010302010201030201221A
  0
ARC
  5
7C0
330
7B7
100
AcDbEntity
  8
detourage
  6
ByBlock
100
AcDbCircle
 10
41.671543
 20
148.184168
 30
-0.000177
 40
1.000000000013642
100
AcDbArc
 50
0.0
 51
90.0
1001
MCSXDATA5
1071
      167
1004
06000000000000008B0000001C000000E404000000000000000000001F050A025C020509020FEE020C4D43535F46494C4C45545F3109020FEE020C4D43535F46494C4C45545F3209020FEE020C4D43535F46494C4C45545F3309020FEE020C4D43535F46494C4C45545F3409020FEE020C4D43535F46494C4C45545F351202
1004
2602050201030201030202020103020326020102010302012202010302010302010201030201221A
  0
ARC
  5
7C1
330
7B7
100
AcDbEntity
  8
detourage
  6
ByBlock
100
AcDbCircle
 10
36.671543
 20
148.184168
 30
-0.000177
 40
1.000000000013642
100
AcDbArc
 50
90.0
 51
180.0
1001
MCSXDATA5
1071
      167
1004
06000000000000008B0000001C000000E404000000000000000000001F050A025C020509020FEE020C4D43535F46494C4C45545F3109020FEE020C4D43535F46494C4C45545F3209020FEE020C4D43535F46494C4C45545F3309020FEE020C4D43535F46494C4C45545F3409020FEE020C4D43535F46494C4C45545F351202
1004
2602050201030201030202020103020326020102010302012202010302010302010201030201221A
  0
CIRCLE
  5
7C2
330
7B7
100
AcDbEntity
  8
detourage
  6
ByBlock
100
AcDbCircle
 10
48.671543
 20
148.184168
 30
0.0
 40
1.7
  0
CIRCLE
  5
7C3
330
7B7
100
AcDbEntity
  8
detourage
  6
ByBlock
100
AcDbCircle
 10
29.671543
 20
123.184168
 30
0.0
 40
1.7
  0
LINE
  5
7C4
330
7B7
100
AcDbEntity
  8
detourage
  6
ByBlock
100
AcDbLine
 10
29.671543
 20
150.184168
 30
0.0
 11
29.671543
 21
130.930135
 31
0.0
  0
LINE
  5
7C5
330
7B7
100
AcDbEntity
  8
detourage
  6
ByBlock
100
AcDbLine
 10
48.671543
 20
138.386209
 30
0.0
 11
48.671543
 21
125.184168
 31
0.0
  0
LINE
  5
7C6
330
7B7
100
AcDbEntity
  8
detourage
  6
ByBlock
100
AcDbLine
 10
35.916541
 20
120.184168
 30
0.0
 11
43.671543
 21
120.184168
 31
0.0
  0
LINE
  5
7C7
330
7B7
100
AcDbEntity
  8
detourage
  6
ByBlock
100
AcDbLine
 10
34.671543
 20
155.184168
 30
0.0
 11
43.580363
 21
155.184168
 31
0.0
  0
ARC
  5
7C8
330
7B7
100
AcDbEntity
  8
detourage
  6
ByBlock
100
AcDbCircle
 10
34.671543
 20
150.184168
 30
0.0
 40
4.999999999983061
100
AcDbArc
 50
90.0
 51
180.0
1001
MCSXDATA5
1071
      167
1004
06000000000000008B0000001C000000E404000000000000000000001F050A025C020509020FEE020C4D43535F46494C4C45545F3109020FEE020C4D43535F46494C4C45545F3209020FEE020C4D43535F46494C4C45545F3309020FEE020C4D43535F46494C4C45545F3409020FEE020C4D43535F46494C4C45545F351202
1004
2602050201030201030202020103020326020502010302012202010302010302010201030201221A
  0
ARC
  5
7C9
330
7B7
100
AcDbEntity
  8
detourage
  6
ByBlock
100
AcDbCircle
 10
43.671543
 20
125.184168
 30
0.0
 40
5.000000000011028
100
AcDbArc
 50
270.0
 51
0.0
1001
MCSXDATA5
1071
      167
1004
06000000000000008B0000001C000000E404000000000000000000001F050A025C020509020FEE020C4D43535F46494C4C45545F3109020FEE020C4D43535F46494C4C45545F3209020FEE020C4D43535F46494C4C45545F3309020FEE020C4D43535F46494C4C45545F3409020FEE020C4D43535F46494C4C45545F351202
1004
2602050201030201030202020103020326020502010302012202010302010302010201030201221A
  0
ARC
  5
7CA
330
7B7
100
AcDbEntity
  8
detourage
  6
ByBlock
100
AcDbCircle
 10
43.580363
 20
150.184168
 30
0.0
 40
5.000000000595839
100
AcDbArc
 50
67.961555
 51
90.0
1001
MCSXDATA5
1071
      167
1004
06000000000000008B0000001C000000E404000000000000000000001F050A025C020509020FEE020C4D43535F46494C4C45545F3109020FEE020C4D43535F46494C4C45545F3209020FEE020C4D43535F46494C4C45545F3309020FEE020C4D43535F46494C4C45545F3409020FEE020C4D43535F46494C4C45545F351202
1004
2602050201030201030202020103020326020502010302012202010302010302010201030201221A
  0
ARC
  5
7CB
330
7B7
100
AcDbEntity
  8
detourage
  6
ByBlock
100
AcDbCircle
 10
29.671543
 20
123.184168
 30
0.0
 40
6.0
100
AcDbArc
 50
104.477512
 51
321.317813
  0
ARC
  5
7CC
330
7B7
100
AcDbEntity
  8
detourage
  6
ByBlock
100
AcDbCircle
 10
48.671543
 20
148.184168
 30
0.0
 40
6.0
100
AcDbArc
 50
297.035692
 51
76.582515
  0
LINE
  5
7CD
330
7B7
100
AcDbEntity
  8
detourage
100
AcDbLine
 10
50.063812
 20
154.020399
 30
0.0
 11
45.456506
 21
154.818829
 31
0.0
  0
ARC
  5
7CE
330
7B7
100
AcDbEntity
  8
detourage
  6
ByBlock
100
AcDbCircle
 10
53.671543
 20
138.386209
 30
0.0
 40
4.99999999999906
100
AcDbArc
 50
117.035692
 51
180.0
1001
MCSXDATA5
1071
      167
1004
06000000000000008B0000001C000000E404000000000000000000001F050A025C020509020FEE020C4D43535F46494C4C45545F3109020FEE020C4D43535F46494C4C45545F3209020FEE020C4D43535F46494C4C45545F3309020FEE020C4D43535F46494C4C45545F3409020FEE020C4D43535F46494C4C45545F351202
1004
2602050201030201030202020103020326020502010302012202010302010302010201030201221A
  0
ARC
  5
7CF
330
7B7
100
AcDbEntity
  8
detourage
  6
ByBlock
100
AcDbCircle
 10
27.671543
 20
130.930135
 30
0.0
 40
2.000000000001037
100
AcDbArc
 50
284.477512
 51
0.0
1001
MCSXDATA5
1071
      167
1004
06000000000000008B0000001C000000E404000000000000000000001F050A025C020509020FEE020C4D43535F46494C4C45545F3109020FEE020C4D43535F46494C4C45545F3209020FEE020C4D43535F46494C4C45545F3309020FEE020C4D43535F46494C4C45545F3409020FEE020C4D43535F46494C4C45545F351202
1004
2602050201030201030202020103020326020202010302012202010302010302010201030201221A
  0
ARC
  5
7D0
330
7B7
100
AcDbEntity
  8
detourage
  6
ByBlock
100
AcDbCircle
 10
35.916541
 20
118.184168
 30
0.0
 40
1.999999999998039
100
AcDbArc
 50
90.0
 51
141.317813
1001
MCSXDATA5
1071
      167
1004
06000000000000008B0000001C000000E404000000000000000000001F050A025C020509020FEE020C4D43535F46494C4C45545F3109020FEE020C4D43535F46494C4C45545F3209020FEE020C4D43535F46494C4C45545F3309020FEE020C4D43535F46494C4C45545F3409020FEE020C4D43535F46494C4C45545F351202
1004
2602050201030201030202020103020326020202010302012202010302010302010201030201221A
  0
ENDBLK
  5
7B9
330
7B7
100
AcDbEntity
  8
0
100
AcDbBlockEnd
  0
BLOCK
  5
DED
330
DEC
100
AcDbEntity
  8
0
100
AcDbBlockBegin
  2
*D17
 70
     1
 10
0.0
 20
0.0
 30
0.0
  3
*D17
  1
*D17
  0
LINE
  5
DEF
330
DEC
100
AcDbEntity
  8
DIMENSION
 62
     0
100
AcDbLine
 10
701.285004
 20
242.982851
 30
0.0
 11
703.785004
 21
242.982851
 31
0.0
  0
LINE
  5
DF0
330
DEC
100
AcDbEntity
  8
DIMENSION
 62
     0
100
AcDbLine
 10
706.21996
 20
238.615817
 30
0.0
 11
703.785004
 21
242.982851
 31
0.0
  0
MTEXT
  5
DF1
330
DEC
100
AcDbEntity
  8
DIMENSION
 62
     0
100
AcDbMText
 10
693.618337
 20
242.982851
 30
0.0
 40
2.5
 41
0.0
 46
0.0
 71
     5
 72
     1
  1
\A1;R3.0000
 73
     1
 44
1.0
  0
SOLID
  5
DF2
330
DEC
100
AcDbEntity
  8
DIMENSION
 62
     0
100
AcDbTrace
 10
704.638563
 20
240.596421
 30
0.0
 11
705.366402
 21
241.002247
 31
0.0
 12
706.21996
 22
238.615817
 32
0.0
 13
706.21996
 23
238.615817
 33
0.0
  0
LINE
  5
DF3
330
DEC
100
AcDbEntity
  8
DIMENSION
 62
     0
100
AcDbLine
 10
705.180934
 20
235.995596
 30
0.0
 11
710.180934
 21
235.995596
 31
0.0
  0
LINE
  5
DF4
330
DEC
100
AcDbEntity
  8
DIMENSION
 62
     0
100
AcDbLine
 10
707.680934
 20
233.495596
 30
0.0
 11
707.680934
 21
238.495596
 31
0.0
  0
POINT
  5
DF5
330
DEC
100
AcDbEntity
  8
DEFPOINTS
 62
     0
100
AcDbPoint
 10
706.21996
 20
238.615817
 30
0.0
  0
POINT
  5
DF6
330
DEC
100
AcDbEntity
  8
DEFPOINTS
 62
     0
100
AcDbPoint
 10
707.680934
 20
235.995596
 30
0.0
  0
ENDBLK
  5
DEE
330
DEC
100
AcDbEntity
  8
0
100
AcDbBlockEnd
  0
BLOCK
  5
E06
330
E05
100
AcDbEntity
  8
0
100
AcDbBlockBegin
  2
*D18
 70
     1
 10
0.0
 20
0.0
 30
0.0
  3
*D18
  1
*D18
  0
LINE
  5
E08
330
E05
100
AcDbEntity
  8
DIMENSION
 62
     0
100
AcDbLine
 10
729.552151
 20
243.567651
 30
0.0
 11
727.052151
 21
243.567651
 31
0.0
  0
LINE
  5
E09
330
E05
100
AcDbEntity
  8
DIMENSION
 62
     0
100
AcDbLine
 10
725.438732
 20
238.835116
 30
0.0
 11
727.052151
 21
243.567651
 31
0.0
  0
MTEXT
  5
E0A
330
E05
100
AcDbEntity
  8
DIMENSION
 62
     0
100
AcDbMText
 10
737.218818
 20
243.567651
 30
0.0
 40
2.5
 41
0.0
 46
0.0
 71
     5
 72
     1
  1
\A1;R3.0000
 73
     1
 44
1.0
  0
SOLID
  5
E0B
330
E05
100
AcDbEntity
  8
DIMENSION
 62
     0
100
AcDbTrace
 10
725.851064
 20
241.335835
 30
0.0
 11
726.639819
 21
241.066932
 31
0.0
 12
725.438732
 22
238.835116
 32
0.0
 13
725.438732
 23
238.835116
 33
0.0
  0
LINE
  5
E0C
330
E05
100
AcDbEntity
  8
DIMENSION
 62
     0
100
AcDbLine
 10
721.970681
 20
235.995596
 30
0.0
 11
726.970681
 21
235.995596
 31
0.0
  0
LINE
  5
E0D
330
E05
100
AcDbEntity
  8
DIMENSION
 62
     0
100
AcDbLine
 10
724.470681
 20
233.495596
 30
0.0
 11
724.470681
 21
238.495596
 31
0.0
  0
POINT
  5
E0E
330
E05
100
AcDbEntity
  8
DEFPOINTS
 62
     0
100
AcDbPoint
 10
725.438732
 20
238.835116
 30
0.0
  0
POINT
  5
E0F
330
E05
100
AcDbEntity
  8
DEFPOINTS
 62
     0
100
AcDbPoint
 10
724.470681
 20
235.995596
 30
0.0
  0
ENDBLK
  5
E07
330
E05
100
AcDbEntity
  8
0
100
AcDbBlockEnd
  0
BLOCK
  5
E26
330
E25
100
AcDbEntity
  8
0
100
AcDbBlockBegin
  2
*D19
 70
     1
 10
0.0
 20
0.0
 30
0.0
  3
*D19
  1
*D19
  0
LINE
  5
E28
330
E25
100
AcDbEntity
  8
DIMENSION
 62
     0
100
AcDbLine
 10
767.31073
 20
236.322481
 30
0.0
 11
764.81073
 21
236.322481
 31
0.0
  0
LINE
  5
E29
330
E25
100
AcDbEntity
  8
DIMENSION
 62
     0
100
AcDbLine
 10
761.275196
 20
232.786947
 30
0.0
 11
764.81073
 21
236.322481
 31
0.0
  0
MTEXT
  5
E2A
330
E25
100
AcDbEntity
  8
DIMENSION
 62
     0
100
AcDbMText
 10
774.977397
 20
236.322481
 30
0.0
 40
2.5
 41
0.0
 46
0.0
 71
     5
 72
     1
  1
\A1;R9.0000
 73
     1
 44
1.0
  0
SOLID
  5
E2B
330
E25
100
AcDbEntity
  8
DIMENSION
 62
     0
100
AcDbTrace
 10
762.748335
 20
234.849342
 30
0.0
 11
763.337591
 21
234.260086
 31
0.0
 12
761.275196
 22
232.786947
 32
0.0
 13
761.275196
 23
232.786947
 33
0.0
  0
LINE
  5
E2C
330
E25
100
AcDbEntity
  8
DIMENSION
 62
     0
100
AcDbLine
 10
752.411235
 20
226.422986
 30
0.0
 11
757.411235
 21
226.422986
 31
0.0
  0
LINE
  5
E2D
330
E25
100
AcDbEntity
  8
DIMENSION
 62
     0
100
AcDbLine
 10
754.911235
 20
223.922986
 30
0.0
 11
754.911235
 21
228.922986
 31
0.0
  0
POINT
  5
E2E
330
E25
100
AcDbEntity
  8
DEFPOINTS
 62
     0
100
AcDbPoint
 10
761.275196
 20
232.786947
 30
0.0
  0
POINT
  5
E2F
330
E25
100
AcDbEntity
  8
DEFPOINTS
 62
     0
100
AcDbPoint
 10
754.911235
 20
226.422986
 30
0.0
  0
ENDBLK
  5
E27
330
E25
100
AcDbEntity
  8
0
100
AcDbBlockEnd
  0
BLOCK
  5
F52
330
F51
100
AcDbEntity
  8
0
100
AcDbBlockBegin
  2
*D20
 70
     1
 10
0.0
 20
0.0
 30
0.0
  3
*D20
  1
*D20
  0
LINE
  5
F54
330
F51
100
AcDbEntity
  8
DIMENSION
 62
     0
370
    -2
100
AcDbLine
 10
690.169658
 20
230.466976
 30
0.0
 11
692.669658
 21
230.466976
 31
0.0
  0
LINE
  5
F55
330
F51
100
AcDbEntity
  8
DIMENSION
 62
     0
370
    -2
100
AcDbLine
 10
697.378493
 20
228.785646
 30
0.0
 11
692.669658
 21
230.466976
 31
0.0
  0
MTEXT
  5
F56
330
F51
100
AcDbEntity
  8
DIMENSION
 62
     0
100
AcDbMText
 10
681.877991
 20
230.466976
 30
0.0
 40
2.5
 41
0.0
 46
0.0
 71
     5
 72
     1
  1
\A1;R10.0000
 73
     1
 44
1.0
  0
SOLID
  5
F57
330
F51
100
AcDbEntity
  8
DIMENSION
 62
     0
100
AcDbTrace
 10
694.883965
 20
229.233908
 30
0.0
 11
695.164187
 21
230.018714
 31
0.0
 12
697.378493
 22
228.785646
 32
0.0
 13
697.378493
 23
228.785646
 33
0.0
  0
LINE
  5
F58
330
F51
100
AcDbEntity
  8
DIMENSION
 62
     0
100
AcDbLine
 10
704.296164
 20
225.422986
 30
0.0
 11
709.296164
 21
225.422986
 31
0.0
  0
LINE
  5
F59
330
F51
100
AcDbEntity
  8
DIMENSION
 62
     0
100
AcDbLine
 10
706.796164
 20
222.922986
 30
0.0
 11
706.796164
 21
227.922986
 31
0.0
  0
POINT
  5
F5A
330
F51
100
AcDbEntity
  8
DEFPOINTS
 62
     0
100
AcDbPoint
 10
697.378493
 20
228.785646
 30
0.0
  0
POINT
  5
F5B
330
F51
100
AcDbEntity
  8
DEFPOINTS
 62
     0
100
AcDbPoint
 10
706.796164
 20
225.422986
 30
0.0
  0
ENDBLK
  5
F53
330
F51
100
AcDbEntity
  8
0
100
AcDbBlockEnd
  0
BLOCK
  5
F61
330
F60
100
AcDbEntity
  8
0
100
AcDbBlockBegin
  2
*D21
 70
     1
 10
0.0
 20
0.0
 30
0.0
  3
*D21
  1
*D21
  0
LINE
  5
F63
330
F60
100
AcDbEntity
  8
DIMENSION
 62
     0
370
    -2
100
AcDbLine
 10
730.566218
 20
200.408217
 30
0.0
 11
728.066218
 21
200.408217
 31
0.0
  0
LINE
  5
F64
330
F60
100
AcDbEntity
  8
DIMENSION
 62
     0
370
    -2
100
AcDbLine
 10
723.547689
 20
198.267448
 30
0.0
 11
728.066218
 21
200.408217
 31
0.0
  0
MTEXT
  5
F65
330
F60
100
AcDbEntity
  8
DIMENSION
 62
     0
100
AcDbMText
 10
738.441218
 20
200.408217
 30
0.0
 40
2.5
 41
0.0
 46
0.0
 71
     5
 72
     1
  1
\A1;R4.2000
 73
     1
 44
1.0
  0
SOLID
  5
F66
330
F60
100
AcDbEntity
  8
DIMENSION
 62
     0
100
AcDbTrace
 10
725.628556
 20
199.714377
 30
0.0
 11
725.985351
 21
198.961289
 31
0.0
 12
723.547689
 22
198.267448
 32
0.0
 13
723.547689
 23
198.267448
 33
0.0
  0
LINE
  5
F67
330
F60
100
AcDbEntity
  8
DIMENSION
 62
     0
100
AcDbLine
 10
717.252124
 20
196.469202
 30
0.0
 11
722.252124
 21
196.469202
 31
0.0
  0
LINE
  5
F68
330
F60
100
AcDbEntity
  8
DIMENSION
 62
     0
100
AcDbLine
 10
719.752124
 20
193.969202
 30
0.0
 11
719.752124
 21
198.969202
 31
0.0
  0
POINT
  5
F69
330
F60
100
AcDbEntity
  8
DEFPOINTS
 62
     0
100
AcDbPoint
 10
723.547689
 20
198.267448
 30
0.0
  0
POINT
  5
F6A
330
F60
100
AcDbEntity
  8
DEFPOINTS
 62
     0
100
AcDbPoint
 10
719.752124
 20
196.469202
 30
0.0
  0
ENDBLK
  5
F62
330
F60
100
AcDbEntity
  8
0
100
AcDbBlockEnd
  0
BLOCK
  5
F91
330
F90
100
AcDbEntity
  8
0
100
AcDbBlockBegin
  2
*D22
 70
     1
 10
0.0
 20
0.0
 30
0.0
  3
*D22
  1
*D22
  0
LINE
  5
F93
330
F90
100
AcDbEntity
  8
DIMENSION
 62
     0
370
    -2
100
AcDbLine
 10
770.54682
 20
189.632092
 30
0.0
 11
768.04682
 21
189.632092
 31
0.0
  0
LINE
  5
F94
330
F90
100
AcDbEntity
  8
DIMENSION
 62
     0
370
    -2
100
AcDbLine
 10
763.792005
 20
192.258221
 30
0.0
 11
768.04682
 21
189.632092
 31
0.0
  0
MTEXT
  5
F95
330
F90
100
AcDbEntity
  8
DIMENSION
 62
     0
100
AcDbMText
 10
778.213487
 20
189.632092
 30
0.0
 40
2.5
 41
0.0
 46
0.0
 71
     5
 72
     1
  1
\A1;R0.8000
 73
     1
 44
1.0
  0
SOLID
  5
F96
330
F90
100
AcDbEntity
  8
DIMENSION
 62
     0
100
AcDbTrace
 10
766.138257
 20
191.299725
 30
0.0
 11
765.700569
 21
190.590589
 31
0.0
 12
763.792005
 22
192.258221
 32
0.0
 13
763.792005
 23
192.258221
 33
0.0
  0
LINE
  5
F97
330
F90
100
AcDbEntity
  8
DIMENSION
 62
     0
100
AcDbLine
 10
760.611235
 20
192.678402
 30
0.0
 11
765.611235
 21
192.678402
 31
0.0
  0
LINE
  5
F98
330
F90
100
AcDbEntity
  8
DIMENSION
 62
     0
100
AcDbLine
 10
763.111235
 20
190.178402
 30
0.0
 11
763.111235
 21
195.178402
 31
0.0
  0
POINT
  5
F99
330
F90
100
AcDbEntity
  8
DEFPOINTS
 62
     0
100
AcDbPoint
 10
763.792005
 20
192.258221
 30
0.0
  0
POINT
  5
F9A
330
F90
100
AcDbEntity
  8
DEFPOINTS
 62
     0
100
AcDbPoint
 10
763.111235
 20
192.678402
 30
0.0
  0
ENDBLK
  5
F92
330
F90
100
AcDbEntity
  8
0
100
AcDbBlockEnd
  0
BLOCK
  5
FA2
330
FA1
100
AcDbEntity
  8
0
100
AcDbBlockBegin
  2
*D23
 70
     1
 10
0.0
 20
0.0
 30
0.0
  3
*D23
  1
*D23
  0
LINE
  5
FA4
330
FA1
100
AcDbEntity
  8
DIMENSION
 62
     0
370
    -2
100
AcDbLine
 10
717.316539
 20
189.632092
 30
0.0
 11
719.816539
 21
189.632092
 31
0.0
  0
LINE
  5
FA5
330
FA1
100
AcDbEntity
  8
DIMENSION
 62
     0
370
    -2
100
AcDbLine
 10
724.071354
 20
192.258221
 30
0.0
 11
719.816539
 21
189.632092
 31
0.0
  0
MTEXT
  5
FA6
330
FA1
100
AcDbEntity
  8
DIMENSION
 62
     0
100
AcDbMText
 10
709.649872
 20
189.632092
 30
0.0
 40
2.5
 41
0.0
 46
0.0
 71
     5
 72
     1
  1
\A1;R0.8000
 73
     1
 44
1.0
  0
SOLID
  5
FA7
330
FA1
100
AcDbEntity
  8
DIMENSION
 62
     0
100
AcDbTrace
 10
722.16279
 20
190.590589
 30
0.0
 11
721.725102
 21
191.299725
 31
0.0
 12
724.071354
 22
192.258221
 32
0.0
 13
724.071354
 23
192.258221
 33
0.0
  0
LINE
  5
FA8
330
FA1
100
AcDbEntity
  8
DIMENSION
 62
     0
100
AcDbLine
 10
722.252124
 20
192.678402
 30
0.0
 11
727.252124
 21
192.678402
 31
0.0
  0
LINE
  5
FA9
330
FA1
100
AcDbEntity
  8
DIMENSION
 62
     0
100
AcDbLine
 10
724.752124
 20
190.178402
 30
0.0
 11
724.752124
 21
195.178402
 31
0.0
  0
POINT
  5
FAA
330
FA1
100
AcDbEntity
  8
DEFPOINTS
 62
     0
100
AcDbPoint
 10
724.071354
 20
192.258221
 30
0.0
  0
POINT
  5
FAB
330
FA1
100
AcDbEntity
  8
DEFPOINTS
 62
     0
100
AcDbPoint
 10
724.752124
 20
192.678402
 30
0.0
  0
ENDBLK
  5
FA3
330
FA1
100
AcDbEntity
  8
0
100
AcDbBlockEnd
  0
BLOCK
  5
FB3
330
FB2
100
AcDbEntity
  8
0
100
AcDbBlockBegin
  2
*D24
 70
     1
 10
0.0
 20
0.0
 30
0.0
  3
*D24
  1
*D24
  0
LINE
  5
FB5
330
FB2
100
AcDbEntity
  8
DIMENSION
 62
     0
370
    -2
100
AcDbLine
 10
767.017837
 20
236.029588
 30
0.0
 11
764.517837
 21
236.029588
 31
0.0
  0
LINE
  5
FB6
330
FB2
100
AcDbEntity
  8
DIMENSION
 62
     0
370
    -2
100
AcDbLine
 10
760.982303
 20
232.494054
 30
0.0
 11
764.517837
 21
236.029588
 31
0.0
  0
MTEXT
  5
FB7
330
FB2
100
AcDbEntity
  8
DIMENSION
 62
     0
100
AcDbMText
 10
775.309503
 20
236.029588
 30
0.0
 40
2.5
 41
0.0
 46
0.0
 71
     5
 72
     1
  1
\A1;R10.0000
 73
     1
 44
1.0
  0
SOLID
  5
FB8
330
FB2
100
AcDbEntity
  8
DIMENSION
 62
     0
100
AcDbTrace
 10
762.455442
 20
234.556449
 30
0.0
 11
763.044698
 21
233.967193
 31
0.0
 12
760.982303
 22
232.494054
 32
0.0
 13
760.982303
 23
232.494054
 33
0.0
  0
LINE
  5
FB9
330
FB2
100
AcDbEntity
  8
DIMENSION
 62
     0
100
AcDbLine
 10
751.411235
 20
225.422986
 30
0.0
 11
756.411235
 21
225.422986
 31
0.0
  0
LINE
  5
FBA
330
FB2
100
AcDbEntity
  8
DIMENSION
 62
     0
100
AcDbLine
 10
753.911235
 20
222.922986
 30
0.0
 11
753.911235
 21
227.922986
 31
0.0
  0
POINT
  5
FBB
330
FB2
100
AcDbEntity
  8
DEFPOINTS
 62
     0
100
AcDbPoint
 10
760.982303
 20
232.494054
 30
0.0
  0
POINT
  5
FBC
330
FB2
100
AcDbEntity
  8
DEFPOINTS
 62
     0
100
AcDbPoint
 10
753.911235
 20
225.422986
 30
0.0
  0
ENDBLK
  5
FB4
330
FB2
100
AcDbEntity
  8
0
100
AcDbBlockEnd
  0
BLOCK
  5
FF1
330
FF0
100
AcDbEntity
  8
0
100
AcDbBlockBegin
  2
*D25
 70
     1
 10
0.0
 20
0.0
 30
0.0
  3
*D25
  1
*D25
  0
LINE
  5
FF3
330
FF0
100
AcDbEntity
  8
DIMENSION
 62
     0
370
    -2
100
AcDbLine
 10
703.439006
 20
184.420659
 30
0.0
 11
703.439006
 21
188.920659
 31
0.0
  0
LINE
  5
FF4
330
FF0
100
AcDbEntity
  8
DIMENSION
 62
     0
370
    -2
100
AcDbLine
 10
713.439006
 20
184.420659
 30
0.0
 11
713.439006
 21
188.920659
 31
0.0
  0
LINE
  5
FF5
330
FF0
100
AcDbEntity
  8
DIMENSION
 62
     0
370
    -2
100
AcDbLine
 10
713.439006
 20
188.920659
 30
0.0
 11
715.939006
 21
188.920659
 31
0.0
  0
LINE
  5
FF6
330
FF0
100
AcDbEntity
  8
DIMENSION
 62
     0
370
    -2
100
AcDbLine
 10
705.939006
 20
188.920659
 30
0.0
 11
710.939006
 21
188.920659
 31
0.0
  0
SOLID
  5
FF7
330
FF0
100
AcDbEntity
  8
DIMENSION
 62
     0
100
AcDbTrace
 10
705.939006
 20
189.337326
 30
0.0
 11
705.939006
 21
188.503992
 31
0.0
 12
703.439006
 22
188.920659
 32
0.0
 13
703.439006
 23
188.920659
 33
0.0
  0
SOLID
  5
FF8
330
FF0
100
AcDbEntity
  8
DIMENSION
 62
     0
100
AcDbTrace
 10
710.939006
 20
188.503992
 30
0.0
 11
710.939006
 21
189.337326
 31
0.0
 12
713.439006
 22
188.920659
 32
0.0
 13
713.439006
 23
188.920659
 33
0.0
  0
MTEXT
  5
FF9
330
FF0
100
AcDbEntity
  8
DIMENSION
 62
     0
100
AcDbMText
 10
722.980673
 20
188.920659
 30
0.0
 40
2.5
 41
0.0
 46
0.0
 71
     5
 72
     1
  1
\A1;10.0000
 73
     1
 44
1.0
  0
POINT
  5
FFA
330
FF0
100
AcDbEntity
  8
DEFPOINTS
 62
     0
100
AcDbPoint
 10
703.439006
 20
183.920659
 30
0.0
  0
POINT
  5
FFB
330
FF0
100
AcDbEntity
  8
DEFPOINTS
 62
     0
100
AcDbPoint
 10
713.439006
 20
183.920659
 30
0.0
  0
POINT
  5
FFC
330
FF0
100
AcDbEntity
  8
DEFPOINTS
 62
     0
100
AcDbPoint
 10
713.439006
 20
188.920659
 30
0.0
  0
ENDBLK
  5
FF2
330
FF0
100
AcDbEntity
  8
0
100
AcDbBlockEnd
  0
BLOCK
  5
1001
330
1000
100
AcDbEntity
  8
0
100
AcDbBlockBegin
  2
*D26
 70
     1
 10
0.0
 20
0.0
 30
0.0
  3
*D26
  1
*D26
  0
LINE
  5
1003
330
1000
100
AcDbEntity
  8
DIMENSION
 62
     0
370
    -2
100
AcDbLine
 10
752.37108
 20
214.430253
 30
0.0
 11
735.49228
 21
216.456609
 31
0.0
  0
MTEXT
  5
1004
330
1000
100
AcDbEntity
  8
DIMENSION
 62
     0
100
AcDbMText
 10
755.15125
 20
216.614436
 30
0.0
 40
2.5
 41
0.0
 46
0.0
 71
     5
 72
     1
  1
\A1;{\Q0;%%c}22.0000
 11
0.9928705795006582
 21
-0.1191973672613098
 31
0.0
 73
     1
 44
1.0
  0
SOLID
  5
1005
330
1000
100
AcDbEntity
  8
DIMENSION
 62
     0
100
AcDbTrace
 10
735.541946
 20
216.870305
 30
0.0
 11
735.442615
 21
216.042913
 31
0.0
 12
733.010104
 22
216.754602
 32
0.0
 13
733.010104
 23
216.754602
 33
0.0
  0
SOLID
  5
1006
330
1000
100
AcDbEntity
  8
DIMENSION
 62
     0
100
AcDbTrace
 10
752.321414
 20
214.016557
 30
0.0
 11
752.420745
 21
214.843949
 31
0.0
 12
754.853256
 22
214.13226
 32
0.0
 13
754.853256
 23
214.13226
 33
0.0
  0
POINT
  5
1007
330
1000
100
AcDbEntity
  8
DEFPOINTS
 62
     0
100
AcDbPoint
 10
754.853256
 20
214.13226
 30
0.0
  0
POINT
  5
1008
330
1000
100
AcDbEntity
  8
DEFPOINTS
 62
     0
100
AcDbPoint
 10
733.010104
 20
216.754602
 30
0.0
  0
ENDBLK
  5
1002
330
1000
100
AcDbEntity
  8
0
100
AcDbBlockEnd
  0
BLOCK
  5
11DC
330
11DB
100
AcDbEntity
  8
0
100
AcDbBlockBegin
  2
*D27
 70
     1
 10
0.0
 20
0.0
 30
0.0
  3
*D27
  1
*D27
  0
LINE
  5
11DE
330
11DB
100
AcDbEntity
  8
DIMENSION
 62
     0
370
    -2
100
AcDbLine
 10
739.965679
 20
184.034177
 30
0.0
 11
737.465679
 21
184.034177
 31
0.0
  0
LINE
  5
11DF
330
11DB
100
AcDbEntity
  8
DIMENSION
 62
     0
370
    -2
100
AcDbLine
 10
733.512832
 20
180.972315
 30
0.0
 11
737.465679
 21
184.034177
 31
0.0
  0
MTEXT
  5
11E0
330
11DB
100
AcDbEntity
  8
DIMENSION
 62
     0
100
AcDbMText
 10
747.632346
 20
184.034177
 30
0.0
 40
2.5
 41
0.0
 46
0.0
 71
     5
 72
     1
  1
\A1;R2.0000
 73
     1
 44
1.0
  0
SOLID
  5
11E1
330
11DB
100
AcDbEntity
  8
DIMENSION
 62
     0
100
AcDbTrace
 10
735.2341
 20
182.83265
 30
0.0
 11
735.744411
 21
182.173842
 31
0.0
 12
733.512832
 22
180.972315
 32
0.0
 13
733.512832
 23
180.972315
 33
0.0
  0
LINE
  5
11E2
330
11DB
100
AcDbEntity
  8
DIMENSION
 62
     0
100
AcDbLine
 10
729.431693
 20
179.74757
 30
0.0
 11
734.431693
 21
179.74757
 31
0.0
  0
LINE
  5
11E3
330
11DB
100
AcDbEntity
  8
DIMENSION
 62
     0
100
AcDbLine
 10
731.931693
 20
177.24757
 30
0.0
 11
731.931693
 21
182.24757
 31
0.0
  0
POINT
  5
11E4
330
11DB
100
AcDbEntity
  8
DEFPOINTS
 62
     0
100
AcDbPoint
 10
733.512832
 20
180.972315
 30
0.0
  0
POINT
  5
11E5
330
11DB
100
AcDbEntity
  8
DEFPOINTS
 62
     0
100
AcDbPoint
 10
731.931693
 20
179.74757
 30
0.0
  0
ENDBLK
  5
11DD
330
11DB
100
AcDbEntity
  8
0
100
AcDbBlockEnd
  0
BLOCK
  5
11F2
330
11F1
100
AcDbEntity
  8
0
100
AcDbBlockBegin
  2
*D28
 70
     1
 10
0.0
 20
0.0
 30
0.0
  3
*D28
  1
*D28
  0
LINE
  5
11F4
330
11F1
100
AcDbEntity
  8
DIMENSION
 62
     0
370
    -2
100
AcDbLine
 10
723.952124
 20
178.064292
 30
0.0
 11
723.952124
 21
173.564292
 31
0.0
  0
LINE
  5
11F5
330
11F1
100
AcDbEntity
  8
DIMENSION
 62
     0
370
    -2
100
AcDbLine
 10
736.952124
 20
178.064292
 30
0.0
 11
736.952124
 21
173.564292
 31
0.0
  0
LINE
  5
11F6
330
11F1
100
AcDbEntity
  8
DIMENSION
 62
     0
370
    -2
100
AcDbLine
 10
721.452124
 20
173.564292
 30
0.0
 11
718.952124
 21
173.564292
 31
0.0
  0
LINE
  5
11F7
330
11F1
100
AcDbEntity
  8
DIMENSION
 62
     0
370
    -2
100
AcDbLine
 10
739.452124
 20
173.564292
 30
0.0
 11
741.952124
 21
173.564292
 31
0.0
  0
SOLID
  5
11F8
330
11F1
100
AcDbEntity
  8
DIMENSION
 62
     0
100
AcDbTrace
 10
721.452124
 20
173.147625
 30
0.0
 11
721.452124
 21
173.980959
 31
0.0
 12
723.952124
 22
173.564292
 32
0.0
 13
723.952124
 23
173.564292
 33
0.0
  0
SOLID
  5
11F9
330
11F1
100
AcDbEntity
  8
DIMENSION
 62
     0
100
AcDbTrace
 10
739.452124
 20
173.980959
 30
0.0
 11
739.452124
 21
173.147625
 31
0.0
 12
736.952124
 22
173.564292
 32
0.0
 13
736.952124
 23
173.564292
 33
0.0
  0
MTEXT
  5
11FA
330
11F1
100
AcDbEntity
  8
DIMENSION
 62
     0
100
AcDbMText
 10
730.452124
 20
173.564292
 30
0.0
 40
2.5
 41
0.0
 46
0.0
 71
     5
 72
     1
  1
\A1;13.00
 73
     1
 44
1.0
  0
POINT
  5
11FB
330
11F1
100
AcDbEntity
  8
DEFPOINTS
 62
     0
100
AcDbPoint
 10
723.952124
 20
178.564292
 30
0.0
  0
POINT
  5
11FC
330
11F1
100
AcDbEntity
  8
DEFPOINTS
 62
     0
100
AcDbPoint
 10
736.952124
 20
178.564292
 30
0.0
  0
POINT
  5
11FD
330
11F1
100
AcDbEntity
  8
DEFPOINTS
 62
     0
100
AcDbPoint
 10
736.952124
 20
173.564292
 30
0.0
  0
ENDBLK
  5
11F3
330
11F1
100
AcDbEntity
  8
0
100
AcDbBlockEnd
  0
BLOCK
  5
1202
330
1201
100
AcDbEntity
  8
0
100
AcDbBlockBegin
  2
*D29
 70
     1
 10
0.0
 20
0.0
 30
0.0
  3
*D29
  1
*D29
  0
LINE
  5
1204
330
1201
100
AcDbEntity
  8
DIMENSION
 62
     0
370
    -2
100
AcDbLine
 10
751.201976
 20
163.300616
 30
0.0
 11
751.201976
 21
167.800616
 31
0.0
  0
LINE
  5
1205
330
1201
100
AcDbEntity
  8
DIMENSION
 62
     0
370
    -2
100
AcDbLine
 10
761.201976
 20
163.300616
 30
0.0
 11
761.201976
 21
167.800616
 31
0.0
  0
LINE
  5
1206
330
1201
100
AcDbEntity
  8
DIMENSION
 62
     0
370
    -2
100
AcDbLine
 10
761.201976
 20
167.800616
 30
0.0
 11
763.701976
 21
167.800616
 31
0.0
  0
LINE
  5
1207
330
1201
100
AcDbEntity
  8
DIMENSION
 62
     0
370
    -2
100
AcDbLine
 10
753.701976
 20
167.800616
 30
0.0
 11
758.701976
 21
167.800616
 31
0.0
  0
SOLID
  5
1208
330
1201
100
AcDbEntity
  8
DIMENSION
 62
     0
100
AcDbTrace
 10
753.701976
 20
168.217283
 30
0.0
 11
753.701976
 21
167.38395
 31
0.0
 12
751.201976
 22
167.800616
 32
0.0
 13
751.201976
 23
167.800616
 33
0.0
  0
SOLID
  5
1209
330
1201
100
AcDbEntity
  8
DIMENSION
 62
     0
100
AcDbTrace
 10
758.701976
 20
167.38395
 30
0.0
 11
758.701976
 21
168.217283
 31
0.0
 12
761.201976
 22
167.800616
 32
0.0
 13
761.201976
 23
167.800616
 33
0.0
  0
MTEXT
  5
120A
330
1201
100
AcDbEntity
  8
DIMENSION
 62
     0
100
AcDbMText
 10
770.743642
 20
167.800616
 30
0.0
 40
2.5
 41
0.0
 46
0.0
 71
     5
 72
     1
  1
\A1;10.0000
 73
     1
 44
1.0
  0
POINT
  5
120B
330
1201
100
AcDbEntity
  8
DEFPOINTS
 62
     0
100
AcDbPoint
 10
751.201976
 20
162.800616
 30
0.0
  0
POINT
  5
120C
330
1201
100
AcDbEntity
  8
DEFPOINTS
 62
     0
100
AcDbPoint
 10
761.201976
 20
162.800616
 30
0.0
  0
POINT
  5
120D
330
1201
100
AcDbEntity
  8
DEFPOINTS
 62
     0
100
AcDbPoint
 10
761.201976
 20
167.800616
 30
0.0
  0
ENDBLK
  5
1203
330
1201
100
AcDbEntity
  8
0
100
AcDbBlockEnd
  0
BLOCK
  5
123A
330
1239
100
AcDbEntity
  8
0
100
AcDbBlockBegin
  2
*D30
 70
     1
 10
0.0
 20
0.0
 30
0.0
  3
*D30
  1
*D30
  0
LINE
  5
123C
330
1239
100
AcDbEntity
  8
DIMENSION
 62
     0
370
    -2
100
AcDbLine
 10
752.37942
 20
216.384545
 30
0.0
 11
735.48394
 21
214.502317
 31
0.0
  0
MTEXT
  5
123D
330
1239
100
AcDbEntity
  8
DIMENSION
 62
     0
100
AcDbMText
 10
754.587251
 20
219.145973
 30
0.0
 40
2.5
 41
0.0
 46
0.0
 71
     5
 72
     1
  1
\A1;{\Q0;%%C}22.00H7
 11
0.9938517167025536
 21
0.1107193081959389
 31
0.0
 73
     1
 44
1.0
  0
SOLID
  5
123E
330
1239
100
AcDbEntity
  8
DIMENSION
 62
     0
100
AcDbTrace
 10
735.437807
 20
214.916422
 30
0.0
 11
735.530073
 21
214.088212
 31
0.0
 12
732.999311
 22
214.225519
 32
0.0
 13
732.999311
 23
214.225519
 33
0.0
  0
SOLID
  5
123F
330
1239
100
AcDbEntity
  8
DIMENSION
 62
     0
100
AcDbTrace
 10
752.425553
 20
215.97044
 30
0.0
 11
752.333287
 21
216.79865
 31
0.0
 12
754.864049
 22
216.661343
 32
0.0
 13
754.864049
 23
216.661343
 33
0.0
  0
POINT
  5
1240
330
1239
100
AcDbEntity
  8
DEFPOINTS
 62
     0
100
AcDbPoint
 10
754.864049
 20
216.661343
 30
0.0
  0
POINT
  5
1241
330
1239
100
AcDbEntity
  8
DEFPOINTS
 62
     0
100
AcDbPoint
 10
732.999311
 20
214.225519
 30
0.0
  0
ENDBLK
  5
123B
330
1239
100
AcDbEntity
  8
0
100
AcDbBlockEnd
  0
BLOCK
  5
13B6
330
13B5
100
AcDbEntity
  8
0
100
AcDbBlockBegin
  2
*D31
 70
     1
 10
0.0
 20
0.0
 30
0.0
  3
*D31
  1
*D31
  0
LINE
  5
13B8
330
13B5
100
AcDbEntity
  8
DIMENSION
 62
     0
370
    -2
100
AcDbLine
 10
719.140107
 20
220.564295
 30
0.0
 11
712.655521
 21
221.011669
 31
0.0
  0
MTEXT
  5
13B9
330
13B5
100
AcDbEntity
  8
DIMENSION
 62
     0
100
AcDbMText
 10
721.806245
 20
222.8863
 30
0.0
 40
2.5
 41
0.0
 46
0.0
 71
     5
 72
     1
  1
\A1;{\Q0;%%C}11.50H7
 11
0.9976286334764377
 21
-0.0688266639314719
 31
0.0
 73
     1
 44
1.0
  0
SOLID
  5
13BA
330
13B5
100
AcDbEntity
  8
DIMENSION
 62
     0
100
AcDbTrace
 10
712.684199
 20
221.427347
 30
0.0
 11
712.626843
 21
220.59599
 31
0.0
 12
710.161449
 22
221.183735
 32
0.0
 13
710.161449
 23
221.183735
 33
0.0
  0
SOLID
  5
13BB
330
13B5
100
AcDbEntity
  8
DIMENSION
 62
     0
100
AcDbTrace
 10
719.111429
 20
220.148617
 30
0.0
 11
719.168785
 21
220.979974
 31
0.0
 12
721.634179
 22
220.392229
 32
0.0
 13
721.634179
 23
220.392229
 33
0.0
  0
POINT
  5
13BC
330
13B5
100
AcDbEntity
  8
DEFPOINTS
 62
     0
100
AcDbPoint
 10
721.634179
 20
220.392229
 30
0.0
  0
POINT
  5
13BD
330
13B5
100
AcDbEntity
  8
DEFPOINTS
 62
     0
100
AcDbPoint
 10
710.161449
 20
221.183735
 30
0.0
  0
ENDBLK
  5
13B7
330
13B5
100
AcDbEntity
  8
0
100
AcDbBlockEnd
  0
BLOCK
  5
158C
330
158B
100
AcDbEntity
  8
0
100
AcDbBlockBegin
  2
*D32
 70
     1
 10
0.0
 20
0.0
 30
0.0
  3
*D32
  1
*D32
  0
LINE
  5
158E
330
158B
100
AcDbEntity
  8
DIMENSION
 62
     0
370
    -2
100
AcDbLine
 10
724.475887
 20
218.436462
 30
0.0
 11
720.940353
 21
221.971996
 31
0.0
  0
MTEXT
  5
158F
330
158B
100
AcDbEntity
  8
DIMENSION
 62
     0
100
AcDbMText
 10
728.011421
 20
218.436462
 30
0.0
 40
2.5
 41
0.0
 46
0.0
 71
     5
 72
     1
  1
\A1;{\Q0;%%c}10.0000
 11
0.7071067811865503
 21
-0.7071067811865447
 31
0.0
 73
     1
 44
1.0
  0
SOLID
  5
1590
330
158B
100
AcDbEntity
  8
DIMENSION
 62
     0
100
AcDbTrace
 10
721.234981
 20
222.266624
 30
0.0
 11
720.645725
 21
221.677368
 31
0.0
 12
719.172586
 22
223.739763
 32
0.0
 13
719.172586
 23
223.739763
 33
0.0
  0
SOLID
  5
1591
330
158B
100
AcDbEntity
  8
DIMENSION
 62
     0
100
AcDbTrace
 10
724.181259
 20
218.141834
 30
0.0
 11
724.770514
 21
218.73109
 31
0.0
 12
726.243654
 22
216.668695
 32
0.0
 13
726.243654
 23
216.668695
 33
0.0
  0
POINT
  5
1592
330
158B
100
AcDbEntity
  8
DEFPOINTS
 62
     0
100
AcDbPoint
 10
726.243654
 20
216.668695
 30
0.0
  0
POINT
  5
1593
330
158B
100
AcDbEntity
  8
DEFPOINTS
 62
     0
100
AcDbPoint
 10
719.172586
 20
223.739763
 30
0.0
  0
ENDBLK
  5
158D
330
158B
100
AcDbEntity
  8
0
100
AcDbBlockEnd
  0
BLOCK
  5
159F
330
159E
100
AcDbEntity
  8
0
100
AcDbBlockBegin
  2
*D33
 70
     1
 10
0.0
 20
0.0
 30
0.0
  3
*D33
  1
*D33
  0
LINE
  5
15A1
330
159E
100
AcDbEntity
  8
DIMENSION
 62
     0
370
    -2
100
AcDbLine
 10
737.014895
 20
241.717
 30
0.0
 11
737.014895
 21
243.575445
 31
0.0
  0
LINE
  5
15A2
330
159E
100
AcDbEntity
  8
DIMENSION
 62
     0
370
    -2
100
AcDbLine
 10
723.952124
 20
244.075445
 30
0.0
 11
723.952124
 21
243.575445
 31
0.0
  0
LINE
  5
15A3
330
159E
100
AcDbEntity
  8
DIMENSION
 62
     0
370
    -2
100
AcDbLine
 10
723.952124
 20
243.575445
 30
0.0
 11
721.452124
 21
243.575445
 31
0.0
  0
LINE
  5
15A4
330
159E
100
AcDbEntity
  8
DIMENSION
 62
     0
370
    -2
100
AcDbLine
 10
734.514895
 20
243.575445
 30
0.0
 11
726.452124
 21
243.575445
 31
0.0
  0
SOLID
  5
15A5
330
159E
100
AcDbEntity
  8
DIMENSION
 62
     0
100
AcDbTrace
 10
734.514895
 20
243.158779
 30
0.0
 11
734.514895
 21
243.992112
 31
0.0
 12
737.014895
 22
243.575445
 32
0.0
 13
737.014895
 23
243.575445
 33
0.0
  0
SOLID
  5
15A6
330
159E
100
AcDbEntity
  8
DIMENSION
 62
     0
100
AcDbTrace
 10
726.452124
 20
243.992112
 30
0.0
 11
726.452124
 21
243.158779
 31
0.0
 12
723.952124
 22
243.575445
 32
0.0
 13
723.952124
 23
243.575445
 33
0.0
  0
MTEXT
  5
15A7
330
159E
100
AcDbEntity
  8
DIMENSION
 62
     0
100
AcDbMText
 10
713.577124
 20
243.575445
 30
0.0
 40
2.5
 41
0.0
 46
0.0
 71
     5
 72
     1
  1
\A1;13.0628
 73
     1
 44
1.0
  0
POINT
  5
15A8
330
159E
100
AcDbEntity
  8
DEFPOINTS
 62
     0
100
AcDbPoint
 10
737.014895
 20
241.217
 30
0.0
  0
POINT
  5
15A9
330
159E
100
AcDbEntity
  8
DEFPOINTS
 62
     0
100
AcDbPoint
 10
723.952124
 20
243.575445
 30
0.0
  0
POINT
  5
15AA
330
159E
100
AcDbEntity
  8
DEFPOINTS
 62
     0
100
AcDbPoint
 10
723.952124
 20
243.575445
 30
0.0
  0
ENDBLK
  5
15A0
330
159E
100
AcDbEntity
  8
0
100
AcDbBlockEnd
  0
BLOCK
  5
15AF
330
15AE
100
AcDbEntity
  8
0
100
AcDbBlockBegin
  2
*D34
 70
     1
 10
0.0
 20
0.0
 30
0.0
  3
*D34
  1
*D34
  0
LINE
  5
15B1
330
15AE
100
AcDbEntity
  8
DIMENSION
 62
     0
370
    -2
100
AcDbLine
 10
737.014895
 20
241.717
 30
0.0
 11
737.014895
 21
241.217
 31
0.0
  0
LINE
  5
15B2
330
15AE
100
AcDbEntity
  8
DIMENSION
 62
     0
370
    -2
100
AcDbLine
 10
763.911235
 20
243.075445
 30
0.0
 11
763.911235
 21
241.217
 31
0.0
  0
LINE
  5
15B3
330
15AE
100
AcDbEntity
  8
DIMENSION
 62
     0
370
    -2
100
AcDbLine
 10
739.514895
 20
241.217
 30
0.0
 11
741.963065
 21
241.217
 31
0.0
  0
LINE
  5
15B4
330
15AE
100
AcDbEntity
  8
DIMENSION
 62
     0
370
    -2
100
AcDbLine
 10
761.411235
 20
241.217
 30
0.0
 11
758.963065
 21
241.217
 31
0.0
  0
SOLID
  5
15B5
330
15AE
100
AcDbEntity
  8
DIMENSION
 62
     0
100
AcDbTrace
 10
739.514895
 20
241.633666
 30
0.0
 11
739.514895
 21
240.800333
 31
0.0
 12
737.014895
 22
241.217
 32
0.0
 13
737.014895
 23
241.217
 33
0.0
  0
SOLID
  5
15B6
330
15AE
100
AcDbEntity
  8
DIMENSION
 62
     0
100
AcDbTrace
 10
761.411235
 20
240.800333
 30
0.0
 11
761.411235
 21
241.633666
 31
0.0
 12
763.911235
 22
241.217
 32
0.0
 13
763.911235
 23
241.217
 33
0.0
  0
MTEXT
  5
15B7
330
15AE
100
AcDbEntity
  8
DIMENSION
 62
     0
100
AcDbMText
 10
750.463065
 20
241.217
 30
0.0
 40
2.5
 41
0.0
 46
0.0
 71
     5
 72
     1
  1
\A1;26.8963
 73
     1
 44
1.0
  0
POINT
  5
15B8
330
15AE
100
AcDbEntity
  8
DEFPOINTS
 62
     0
100
AcDbPoint
 10
737.014895
 20
241.217
 30
0.0
  0
POINT
  5
15B9
330
15AE
100
AcDbEntity
  8
DEFPOINTS
 62
     0
100
AcDbPoint
 10
763.911235
 20
243.575445
 30
0.0
  0
POINT
  5
15BA
330
15AE
100
AcDbEntity
  8
DEFPOINTS
 62
     0
100
AcDbPoint
 10
763.911235
 20
241.217
 30
0.0
  0
ENDBLK
  5
15B0
330
15AE
100
AcDbEntity
  8
0
100
AcDbBlockEnd
  0
BLOCK
  5
15C7
330
15C6
100
AcDbEntity
  8
0
100
AcDbBlockBegin
  2
*D35
 70
     1
 10
0.0
 20
0.0
 30
0.0
  3
*D35
  1
*D35
  0
LINE
  5
15C9
330
15C6
100
AcDbEntity
  8
DIMENSION
 62
     0
370
    -2
100
AcDbLine
 10
723.952124
 20
244.075445
 30
0.0
 11
723.952124
 21
251.600004
 31
0.0
  0
LINE
  5
15CA
330
15C6
100
AcDbEntity
  8
DIMENSION
 62
     0
370
    -2
100
AcDbLine
 10
723.952124
 20
252.100004
 30
0.0
 11
723.952124
 21
251.600004
 31
0.0
  0
LINE
  5
15CB
330
15C6
100
AcDbEntity
  8
DIMENSION
 62
     0
370
    -2
100
AcDbLine
 10
726.452124
 20
251.600004
 30
0.0
 11
728.952124
 21
251.600004
 31
0.0
  0
LINE
  5
15CC
330
15C6
100
AcDbEntity
  8
DIMENSION
 62
     0
370
    -2
100
AcDbLine
 10
721.452124
 20
251.600004
 30
0.0
 11
718.952124
 21
251.600004
 31
0.0
  0
SOLID
  5
15CD
330
15C6
100
AcDbEntity
  8
DIMENSION
 62
     0
100
AcDbTrace
 10
721.452124
 20
251.183338
 30
0.0
 11
721.452124
 21
252.016671
 31
0.0
 12
723.952124
 22
251.600004
 32
0.0
 13
723.952124
 23
251.600004
 33
0.0
  0
SOLID
  5
15CE
330
15C6
100
AcDbEntity
  8
DIMENSION
 62
     0
100
AcDbTrace
 10
726.452124
 20
252.016671
 30
0.0
 11
726.452124
 21
251.183338
 31
0.0
 12
723.952124
 22
251.600004
 32
0.0
 13
723.952124
 23
251.600004
 33
0.0
  0
MTEXT
  5
15CF
330
15C6
100
AcDbEntity
  8
DIMENSION
 62
     0
100
AcDbMText
 10
735.160457
 20
251.600004
 30
0.0
 40
2.5
 41
0.0
 46
0.0
 71
     5
 72
     1
  1
\A1;0.0000
 73
     1
 44
1.0
  0
POINT
  5
15D0
330
15C6
100
AcDbEntity
  8
DEFPOINTS
 62
     0
100
AcDbPoint
 10
723.952124
 20
243.575445
 30
0.0
  0
POINT
  5
15D1
330
15C6
100
AcDbEntity
  8
DEFPOINTS
 62
     0
100
AcDbPoint
 10
723.952124
 20
251.600004
 30
0.0
  0
POINT
  5
15D2
330
15C6
100
AcDbEntity
  8
DEFPOINTS
 62
     0
100
AcDbPoint
 10
723.952124
 20
251.600004
 30
0.0
  0
ENDBLK
  5
15C8
330
15C6
100
AcDbEntity
  8
0
100
AcDbBlockEnd
  0
BLOCK
  5
15D7
330
15D6
100
AcDbEntity
  8
0
100
AcDbBlockBegin
  2
*D36
 70
     1
 10
0.0
 20
0.0
 30
0.0
  3
*D36
  1
*D36
  0
LINE
  5
15D9
330
15D6
100
AcDbEntity
  8
DIMENSION
 62
     0
370
    -2
100
AcDbLine
 10
723.952124
 20
250.075445
 30
0.0
 11
723.952124
 21
254.550807
 31
0.0
  0
LINE
  5
15DA
330
15D6
100
AcDbEntity
  8
DIMENSION
 62
     0
370
    -2
100
AcDbLine
 10
736.952124
 20
252.645479
 30
0.0
 11
736.952124
 21
254.550807
 31
0.0
  0
LINE
  5
15DB
330
15D6
100
AcDbEntity
  8
DIMENSION
 62
     0
370
    -2
100
AcDbLine
 10
736.952124
 20
254.550807
 30
0.0
 11
739.452124
 21
254.550807
 31
0.0
  0
LINE
  5
15DC
330
15D6
100
AcDbEntity
  8
DIMENSION
 62
     0
370
    -2
100
AcDbLine
 10
726.452124
 20
254.550807
 30
0.0
 11
734.452124
 21
254.550807
 31
0.0
  0
SOLID
  5
15DD
330
15D6
100
AcDbEntity
  8
DIMENSION
 62
     0
100
AcDbTrace
 10
726.452124
 20
254.967473
 30
0.0
 11
726.452124
 21
254.13414
 31
0.0
 12
723.952124
 22
254.550807
 32
0.0
 13
723.952124
 23
254.550807
 33
0.0
  0
SOLID
  5
15DE
330
15D6
100
AcDbEntity
  8
DIMENSION
 62
     0
100
AcDbTrace
 10
734.452124
 20
254.13414
 30
0.0
 11
734.452124
 21
254.967473
 31
0.0
 12
736.952124
 22
254.550807
 32
0.0
 13
736.952124
 23
254.550807
 33
0.0
  0
MTEXT
  5
15DF
330
15D6
100
AcDbEntity
  8
DIMENSION
 62
     0
100
AcDbMText
 10
757.718791
 20
254.550807
 30
0.0
 40
2.5
 41
0.0
 46
0.0
 71
     5
 72
     1
  1
\A1;\A1;13.00 \H2.00x;(\H0.50x; \S+0.5000^   0;\H2.00x;)\H0.50x;
 73
     1
 44
1.0
  0
POINT
  5
15E0
330
15D6
100
AcDbEntity
  8
DEFPOINTS
 62
     0
100
AcDbPoint
 10
723.952124
 20
249.575445
 30
0.0
  0
POINT
  5
15E1
330
15D6
100
AcDbEntity
  8
DEFPOINTS
 62
     0
100
AcDbPoint
 10
736.952124
 20
252.145479
 30
0.0
  0
POINT
  5
15E2
330
15D6
100
AcDbEntity
  8
DEFPOINTS
 62
     0
100
AcDbPoint
 10
736.952124
 20
254.550807
 30
0.0
  0
ENDBLK
  5
15D8
330
15D6
100
AcDbEntity
  8
0
100
AcDbBlockEnd
  0
BLOCK
  5
15E7
330
15E6
100
AcDbEntity
  8
0
100
AcDbBlockBegin
  2
*D37
 70
     1
 10
0.0
 20
0.0
 30
0.0
  3
*D37
  1
*D37
  0
LINE
  5
15E9
330
15E6
100
AcDbEntity
  8
DIMENSION
 62
     0
370
    -2
100
AcDbLine
 10
692.643919
 20
242.404512
 30
0.0
 11
692.643919
 21
246.904512
 31
0.0
  0
LINE
  5
15EA
330
15E6
100
AcDbEntity
  8
DIMENSION
 62
     0
370
    -2
100
AcDbLine
 10
702.643919
 20
242.404512
 30
0.0
 11
702.643919
 21
246.904512
 31
0.0
  0
LINE
  5
15EB
330
15E6
100
AcDbEntity
  8
DIMENSION
 62
     0
370
    -2
100
AcDbLine
 10
702.643919
 20
246.904512
 30
0.0
 11
705.143919
 21
246.904512
 31
0.0
  0
LINE
  5
15EC
330
15E6
100
AcDbEntity
  8
DIMENSION
 62
     0
370
    -2
100
AcDbLine
 10
695.143919
 20
246.904512
 30
0.0
 11
700.143919
 21
246.904512
 31
0.0
  0
SOLID
  5
15ED
330
15E6
100
AcDbEntity
  8
DIMENSION
 62
     0
100
AcDbTrace
 10
695.143919
 20
247.321178
 30
0.0
 11
695.143919
 21
246.487845
 31
0.0
 12
692.643919
 22
246.904512
 32
0.0
 13
692.643919
 23
246.904512
 33
0.0
  0
SOLID
  5
15EE
330
15E6
100
AcDbEntity
  8
DIMENSION
 62
     0
100
AcDbTrace
 10
700.143919
 20
246.487845
 30
0.0
 11
700.143919
 21
247.321178
 31
0.0
 12
702.643919
 22
246.904512
 32
0.0
 13
702.643919
 23
246.904512
 33
0.0
  0
MTEXT
  5
15EF
330
15E6
100
AcDbEntity
  8
DIMENSION
 62
     0
100
AcDbMText
 10
712.185585
 20
246.904512
 30
0.0
 40
2.5
 41
0.0
 46
0.0
 71
     5
 72
     1
  1
\A1;10.0000
 73
     1
 44
1.0
  0
POINT
  5
15F0
330
15E6
100
AcDbEntity
  8
DEFPOINTS
 62
     0
100
AcDbPoint
 10
692.643919
 20
241.904512
 30
0.0
  0
POINT
  5
15F1
330
15E6
100
AcDbEntity
  8
DEFPOINTS
 62
     0
100
AcDbPoint
 10
702.643919
 20
241.904512
 30
0.0
  0
POINT
  5
15F2
330
15E6
100
AcDbEntity
  8
DEFPOINTS
 62
     0
100
AcDbPoint
 10
702.643919
 20
246.904512
 30
0.0
  0
ENDBLK
  5
15E8
330
15E6
100
AcDbEntity
  8
0
100
AcDbBlockEnd
  0
BLOCK
  5
15F7
330
15F6
100
AcDbEntity
  8
0
100
AcDbBlockBegin
  2
*D38
 70
     1
 10
0.0
 20
0.0
 30
0.0
  3
*D38
  1
*D38
  0
LINE
  5
15F9
330
15F6
100
AcDbEntity
  8
DIMENSION
 62
     0
370
    -2
100
AcDbLine
 10
696.296164
 20
243.575445
 30
0.0
 11
696.796164
 21
243.575445
 31
0.0
  0
LINE
  5
15FA
330
15F6
100
AcDbEntity
  8
DIMENSION
 62
     0
370
    -2
100
AcDbLine
 10
696.296164
 20
249.575445
 30
0.0
 11
696.796164
 21
249.575445
 31
0.0
  0
LINE
  5
15FB
330
15F6
100
AcDbEntity
  8
DIMENSION
 62
     0
370
    -2
100
AcDbLine
 10
696.796164
 20
254.575445
 30
0.0
 11
699.296164
 21
254.575445
 31
0.0
  0
LINE
  5
15FC
330
15F6
100
AcDbEntity
  8
DIMENSION
 62
     0
370
    -2
100
AcDbLine
 10
696.796164
 20
241.075445
 30
0.0
 11
696.796164
 21
238.575445
 31
0.0
  0
LINE
  5
15FD
330
15F6
100
AcDbEntity
  8
DIMENSION
 62
     0
370
    -2
100
AcDbLine
 10
696.796164
 20
252.075445
 30
0.0
 11
696.796164
 21
254.575445
 31
0.0
  0
SOLID
  5
15FE
330
15F6
100
AcDbEntity
  8
DIMENSION
 62
     0
100
AcDbTrace
 10
697.212831
 20
241.075445
 30
0.0
 11
696.379497
 21
241.075445
 31
0.0
 12
696.796164
 22
243.575445
 32
0.0
 13
696.796164
 23
243.575445
 33
0.0
  0
SOLID
  5
15FF
330
15F6
100
AcDbEntity
  8
DIMENSION
 62
     0
100
AcDbTrace
 10
696.379497
 20
252.075445
 30
0.0
 11
697.212831
 21
252.075445
 31
0.0
 12
696.796164
 22
249.575445
 32
0.0
 13
696.796164
 23
249.575445
 33
0.0
  0
MTEXT
  5
1600
330
15F6
100
AcDbEntity
  8
DIMENSION
 62
     0
100
AcDbMText
 10
705.712831
 20
254.575445
 30
0.0
 40
2.5
 41
0.0
 46
0.0
 71
     5
 72
     1
  1
\A1;6.0000
 73
     1
 44
1.0
  0
POINT
  5
1601
330
15F6
100
AcDbEntity
  8
DEFPOINTS
 62
     0
100
AcDbPoint
 10
696.796164
 20
243.575445
 30
0.0
  0
POINT
  5
1602
330
15F6
100
AcDbEntity
  8
DEFPOINTS
 62
     0
100
AcDbPoint
 10
696.796164
 20
249.575445
 30
0.0
  0
POINT
  5
1605
330
15F6
100
AcDbEntity
  8
DEFPOINTS
 62
     0
100
AcDbPoint
 10
696.796164
 20
249.575445
 30
0.0
  0
ENDBLK
  5
15F8
330
15F6
100
AcDbEntity
  8
0
100
AcDbBlockEnd
  0
BLOCK
  5
1608
330
1607
100
AcDbEntity
  8
0
100
AcDbBlockBegin
  2
*D39
 70
     1
 10
0.0
 20
0.0
 30
0.0
  3
*D39
  1
*D39
  0
LINE
  5
160A
330
1607
100
AcDbEntity
  8
DIMENSION
 62
     0
370
    -2
100
AcDbLine
 10
696.796164
 20
249.575445
 30
0.0
 11
694.296164
 21
249.575445
 31
0.0
  0
LINE
  5
160B
330
1607
100
AcDbEntity
  8
DIMENSION
 62
     0
370
    -2
100
AcDbLine
 10
696.796164
 20
244.075445
 30
0.0
 11
696.796164
 21
249.575445
 31
0.0
  0
LINE
  5
160C
330
1607
100
AcDbEntity
  8
DIMENSION
 62
     0
370
    -2
100
AcDbLine
 10
696.796164
 20
250.075445
 30
0.0
 11
696.796164
 21
249.575445
 31
0.0
  0
ARC
  5
160D
330
1607
100
AcDbEntity
  8
DIMENSION
 62
     0
370
    -2
100
AcDbCircle
 10
696.796164
 20
249.575445
 30
0.0
 40
0.0
100
AcDbArc
 50
0.0
 51
180.0
  0
ARC
  5
160E
330
1607
100
AcDbEntity
  8
DIMENSION
 62
     0
370
    -2
100
AcDbCircle
 10
696.796164
 20
249.575445
 30
0.0
 40
0.0
100
AcDbArc
 50
180.0
 51
0.0
  0
SOLID
  5
160F
330
1607
100
AcDbEntity
  8
DIMENSION
 62
     0
100
AcDbTrace
 10
697.212831
 20
247.075445
 30
0.0
 11
696.379497
 21
247.075445
 31
0.0
 12
696.796164
 22
249.575445
 32
0.0
 13
696.796164
 23
249.575445
 33
0.0
  0
SOLID
  5
1610
330
1607
100
AcDbEntity
  8
DIMENSION
 62
     0
100
AcDbTrace
 10
697.212831
 20
247.075445
 30
0.0
 11
696.379497
 21
247.075445
 31
0.0
 12
696.796164
 22
249.575445
 32
0.0
 13
696.796164
 23
249.575445
 33
0.0
  0
MTEXT
  5
1611
330
1607
100
AcDbEntity
  8
DIMENSION
 62
     0
100
AcDbMText
 10
691.837831
 20
249.575445
 30
0.0
 40
2.5
 41
0.0
 46
0.0
 71
     5
 72
     1
  1
\A1;0%%d
 73
     1
 44
1.0
  0
POINT
  5
1612
330
1607
100
AcDbEntity
  8
DEFPOINTS
 62
     0
100
AcDbPoint
 10
696.796164
 20
249.575445
 30
0.0
  0
POINT
  5
1613
330
1607
100
AcDbEntity
  8
DEFPOINTS
 62
     0
100
AcDbPoint
 10
696.796164
 20
243.575445
 30
0.0
  0
POINT
  5
1614
330
1607
100
AcDbEntity
  8
DEFPOINTS
 62
     0
100
AcDbPoint
 10
696.796164
 20
249.575445
 30
0.0
  0
POINT
  5
1615
330
1607
100
AcDbEntity
  8
DEFPOINTS
 62
     0
100
AcDbPoint
 10
696.796164
 20
249.575445
 30
0.0
  0
ENDBLK
  5
1609
330
1607
100
AcDbEntity
  8
0
100
AcDbBlockEnd
  0
BLOCK
  5
161A
330
1619
100
AcDbEntity
  8
0
100
AcDbBlockBegin
  2
*D40
 70
     1
 10
0.0
 20
0.0
 30
0.0
  3
*D40
  1
*D40
  0
LINE
  5
161C
330
1619
100
AcDbEntity
  8
DIMENSION
 62
     0
370
    -2
100
AcDbLine
 10
696.296164
 20
243.575445
 30
0.0
 11
681.796164
 21
243.575445
 31
0.0
  0
LINE
  5
161D
330
1619
100
AcDbEntity
  8
DIMENSION
 62
     0
370
    -2
100
AcDbLine
 10
696.296164
 20
249.575445
 30
0.0
 11
681.796164
 21
249.575445
 31
0.0
  0
LINE
  5
161E
330
1619
100
AcDbEntity
  8
DIMENSION
 62
     0
370
    -2
100
AcDbLine
 10
681.796164
 20
254.575445
 30
0.0
 11
684.296164
 21
254.575445
 31
0.0
  0
LINE
  5
161F
330
1619
100
AcDbEntity
  8
DIMENSION
 62
     0
370
    -2
100
AcDbLine
 10
681.796164
 20
241.075445
 30
0.0
 11
681.796164
 21
238.575445
 31
0.0
  0
LINE
  5
1620
330
1619
100
AcDbEntity
  8
DIMENSION
 62
     0
370
    -2
100
AcDbLine
 10
681.796164
 20
252.075445
 30
0.0
 11
681.796164
 21
254.575445
 31
0.0
  0
SOLID
  5
1621
330
1619
100
AcDbEntity
  8
DIMENSION
 62
     0
100
AcDbTrace
 10
682.212831
 20
241.075445
 30
0.0
 11
681.379497
 21
241.075445
 31
0.0
 12
681.796164
 22
243.575445
 32
0.0
 13
681.796164
 23
243.575445
 33
0.0
  0
SOLID
  5
1622
330
1619
100
AcDbEntity
  8
DIMENSION
 62
     0
100
AcDbTrace
 10
681.379497
 20
252.075445
 30
0.0
 11
682.212831
 21
252.075445
 31
0.0
 12
681.796164
 22
249.575445
 32
0.0
 13
681.796164
 23
249.575445
 33
0.0
  0
MTEXT
  5
1623
330
1619
100
AcDbEntity
  8
DIMENSION
 62
     0
100
AcDbMText
 10
699.207279
 20
254.575445
 30
0.0
 40
2.5
 41
0.0
 46
0.0
 71
     5
 72
     1
  1
\A1;6.00 \H1.33x;(\H.75x;%%p0.1000\H1.33x;)\H.75x;
 73
     1
 44
1.0
  0
POINT
  5
1624
330
1619
100
AcDbEntity
  8
DEFPOINTS
 62
     0
100
AcDbPoint
 10
696.796164
 20
243.575445
 30
0.0
  0
POINT
  5
1625
330
1619
100
AcDbEntity
  8
DEFPOINTS
 62
     0
100
AcDbPoint
 10
696.796164
 20
249.575445
 30
0.0
  0
POINT
  5
1628
330
1619
100
AcDbEntity
  8
DEFPOINTS
 62
     0
100
AcDbPoint
 10
681.796164
 20
249.575445
 30
0.0
  0
ENDBLK
  5
161B
330
1619
100
AcDbEntity
  8
0
100
AcDbBlockEnd
  0
ENDSEC
  0
SECTION
  2
ENTITIES
  0
LINE
  5
965
330
1F
100
AcDbEntity
  8
detourage
100
AcDbLine
 10
723.952124
 20
182.309216
 30
0.0
 11
723.952124
 21
178.564292
 31
0.0
  0
LINE
  5
967
330
1F
100
AcDbEntity
  8
detourage
100
AcDbLine
 10
762.911236
 20
177.564292
 30
0.0
 11
724.952122
 21
177.564292
 31
0.0
  0
LINE
  5
969
330
1F
100
AcDbEntity
  8
detourage
100
AcDbLine
 10
763.911235
 20
182.309216
 30
0.0
 11
763.911235
 21
178.564292
 31
0.0
  0
CIRCLE
  5
973
330
1F
100
AcDbEntity
  8
detourage
  6
ByBlock
100
AcDbCircle
 10
753.931666
 20
187.493537
 30
0.0
 40
3.08
  0
CIRCLE
  5
974
330
1F
100
AcDbEntity
  8
detourage
  6
ByBlock
100
AcDbCircle
 10
733.931693
 20
187.493537
 30
0.0
 40
3.08
  0
CIRCLE
  5
975
102
{ACAD_REACTORS
330
13C2
102
}
330
1F
100
AcDbEntity
  8
detourage
  6
ByBlock
100
AcDbCircle
 10
715.897814
 20
220.787982
 30
0.0
 40
5.75
  0
CIRCLE
  5
977
330
1F
100
AcDbEntity
  8
detourage
  6
ByBlock
100
AcDbCircle
 10
704.913069
 20
220.208868
 30
0.0
 40
1.3
  0
CIRCLE
  5
978
330
1F
100
AcDbEntity
  8
detourage
  6
ByBlock
100
AcDbCircle
 10
721.893818
 20
211.561234
 30
0.0
 40
1.3
  0
CIRCLE
  5
979
330
1F
100
AcDbEntity
  8
detourage
  6
ByBlock
100
AcDbCircle
 10
704.039098
 20
226.059819
 30
0.0
 40
1.3
  0
CIRCLE
  5
97A
330
1F
100
AcDbEntity
  8
detourage
  6
ByBlock
100
AcDbCircle
 10
720.888659
 20
230.590608
 30
0.0
 40
1.3
  0
CIRCLE
  5
97B
330
1F
100
AcDbEntity
  8
detourage
  6
ByBlock
100
AcDbCircle
 10
755.598673
 20
227.110693
 30
0.0
 40
1.600000000000085
  0
CIRCLE
  5
97C
102
{ACAD_REACTORS
330
1246
102
}
330
1F
100
AcDbEntity
  8
detourage
  6
ByBlock
100
AcDbCircle
 10
743.93168
 20
215.443431
 30
0.0
 40
11.0
  0
CIRCLE
  5
97D
330
1F
100
AcDbEntity
  8
detourage
  6
ByBlock
100
AcDbCircle
 10
755.598942
 20
203.776169
 30
0.0
 40
1.600000000000071
  0
CIRCLE
  5
97E
330
1F
100
AcDbEntity
  8
detourage
  6
ByBlock
100
AcDbCircle
 10
732.264692
 20
203.776169
 30
0.0
 40
1.599995003095151
  0
CIRCLE
  5
97F
330
1F
100
AcDbEntity
  8
detourage
  6
ByBlock
100
AcDbCircle
 10
732.264418
 20
227.110693
 30
0.0
 40
1.600000000000071
  0
ARC
  5
980
330
1F
100
AcDbEntity
  8
detourage
100
AcDbCircle
 10
762.911235
 20
178.564292
 30
0.0
 40
1.000000000000483
100
AcDbArc
 50
270.0
 51
0.0
1001
MCSXDATA5
1071
      167
1004
06000000000000008B0000001C000000E404000000000000000000001F050A025C020509020FEE020C4D43535F46494C4C45545F3109020FEE020C4D43535F46494C4C45545F3209020FEE020C4D43535F46494C4C45545F3309020FEE020C4D43535F46494C4C45545F3409020FEE020C4D43535F46494C4C45545F351202
1004
2602050201030201030202020103020326020102010302012202010302010302010201030201221A
  0
ARC
  5
981
102
{ACAD_REACTORS
330
11FF
102
}
330
1F
100
AcDbEntity
  8
detourage
100
AcDbCircle
 10
724.952124
 20
178.564292
 30
0.0
 40
1.000000000002046
100
AcDbArc
 50
180.0
 51
270.0
1001
MCSXDATA5
1071
      167
1004
06000000000000008B0000001C000000E404000000000000000000001F050A025C020509020FEE020C4D43535F46494C4C45545F3109020FEE020C4D43535F46494C4C45545F3209020FEE020C4D43535F46494C4C45545F3309020FEE020C4D43535F46494C4C45545F3409020FEE020C4D43535F46494C4C45545F351202
1004
2602050201030201030202020103020326020102010302012202010302010302010201030201221A
  0
LINE
  5
DFE
330
1F
100
AcDbEntity
  8
detourage
100
AcDbLine
 10
763.911235
 20
192.678402
 30
0.0
 11
763.911235
 21
225.422986
 31
0.0
  0
LINE
  5
EC5
330
1F
100
AcDbEntity
  8
detourage
100
AcDbLine
 10
753.911235
 20
235.422986
 30
0.0
 11
706.796164
 21
235.422986
 31
0.0
  0
LINE
  5
F49
330
1F
100
AcDbEntity
  8
detourage
100
AcDbLine
 10
722.412272
 20
199.719373
 30
0.0
 11
700.462479
 21
217.684482
 31
0.0
  0
ARC
  5
F4A
330
1F
100
AcDbEntity
  8
detourage
100
AcDbCircle
 10
722.152124
 20
187.493809
 30
0.0
 40
5.0
100
AcDbArc
 50
296.633119
 51
63.366881
  0
ARC
  5
F4C
330
1F
100
AcDbEntity
  8
detourage
100
AcDbCircle
 10
765.711235
 20
187.493809
 30
0.0
 40
5.0
100
AcDbArc
 50
116.633119
 51
243.366881
  0
LINE
  5
F4D
330
1F
100
AcDbEntity
  8
detourage
100
AcDbLine
 10
723.952124
 20
192.678402
 30
0.0
 11
723.952124
 21
196.469202
 31
0.0
  0
ARC
  5
F4E
102
{ACAD_REACTORS
102
}
330
1F
100
AcDbEntity
  8
detourage
100
AcDbCircle
 10
706.796164
 20
225.422986
 30
0.0
 40
9.999999999999005
100
AcDbArc
 50
90.0
 51
230.700919
1001
MCSXDATA5
1071
      167
1004
06000000000000008B0000001C000000E404000000000000000000001F050A025C020509020FEE020C4D43535F46494C4C45545F3109020FEE020C4D43535F46494C4C45545F3209020FEE020C4D43535F46494C4C45545F3309020FEE020C4D43535F46494C4C45545F3409020FEE020C4D43535F46494C4C45545F351202
1004
2602050201030201030202020103020326020A02010302012202010302010302010201030201221A
  0
ARC
  5
F5E
102
{ACAD_REACTORS
102
}
330
1F
100
AcDbEntity
  8
detourage
100
AcDbCircle
 10
719.752124
 20
196.469202
 30
0.0
 40
4.199999999955367
100
AcDbArc
 50
360.0
 51
50.700919
1001
MCSXDATA5
1071
      173
1004
0600000000000000910000001C000000E404000000000000000000001F050A025C020509020FEE020C4D43535F46494C4C45545F3109020FEE020C4D43535F46494C4C45545F3209020FEE020C4D43535F46494C4C45545F3309020FEE020C4D43535F46494C4C45545F3409020FEE020C4D43535F46494C4C45545F351202
1004
2C02050201030201030202020103020306CDCCCCCCCCCC104002010302012202010302010302010201030201221A
  0
ARC
  5
F8E
102
{ACAD_REACTORS
102
}
330
1F
100
AcDbEntity
  8
detourage
100
AcDbCircle
 10
763.111235
 20
192.678402
 30
0.0
 40
0.7999999998017812
100
AcDbArc
 50
296.633119
 51
0.0
1001
MCSXDATA5
1071
      173
1004
0600000000000000910000001C000000E404000000000000000000001F050A025C020509020FEE020C4D43535F46494C4C45545F3109020FEE020C4D43535F46494C4C45545F3209020FEE020C4D43535F46494C4C45545F3309020FEE020C4D43535F46494C4C45545F3409020FEE020C4D43535F46494C4C45545F351202
1004
2C020502010302010302020201030203069A9999999999E93F02010302012202010302010302010201030201221A
  0
ARC
  5
F9D
330
1F
100
AcDbEntity
  8
detourage
100
AcDbCircle
 10
763.111235
 20
182.309216
 30
0.0
 40
0.7999999998939984
100
AcDbArc
 50
360.0
 51
63.366881
1001
MCSXDATA5
1071
      173
1004
0600000000000000910000001C000000E404000000000000000000001F050A025C020509020FEE020C4D43535F46494C4C45545F3109020FEE020C4D43535F46494C4C45545F3209020FEE020C4D43535F46494C4C45545F3309020FEE020C4D43535F46494C4C45545F3409020FEE020C4D43535F46494C4C45545F351202
1004
2C020502010302010302020201030203069A9999999999E93F02010302012202010302010302010201030201221A
  0
ARC
  5
F9F
102
{ACAD_REACTORS
102
}
330
1F
100
AcDbEntity
  8
detourage
100
AcDbCircle
 10
724.752124
 20
192.678402
 30
0.0
 40
0.8000000000354248
100
AcDbArc
 50
180.0
 51
243.366881
1001
MCSXDATA5
1071
      173
1004
0600000000000000910000001C000000E404000000000000000000001F050A025C020509020FEE020C4D43535F46494C4C45545F3109020FEE020C4D43535F46494C4C45545F3209020FEE020C4D43535F46494C4C45545F3309020FEE020C4D43535F46494C4C45545F3409020FEE020C4D43535F46494C4C45545F351202
1004
2C020502010302010302020201030203069A9999999999E93F02010302012202010302010302010201030201221A
  0
ARC
  5
FAE
330
1F
100
AcDbEntity
  8
detourage
100
AcDbCircle
 10
724.752124
 20
182.309216
 30
0.0
 40
0.8000000001133172
100
AcDbArc
 50
116.633119
 51
180.0
1001
MCSXDATA5
1071
      173
1004
0600000000000000910000001C000000E404000000000000000000001F050A025C020509020FEE020C4D43535F46494C4C45545F3109020FEE020C4D43535F46494C4C45545F3209020FEE020C4D43535F46494C4C45545F3309020FEE020C4D43535F46494C4C45545F3409020FEE020C4D43535F46494C4C45545F351202
1004
2C020502010302010302020201030203069A9999999999E93F02010302012202010302010302010201030201221A
  0
ARC
  5
FB0
102
{ACAD_REACTORS
102
}
330
1F
100
AcDbEntity
  8
detourage
100
AcDbCircle
 10
753.911235
 20
225.422986
 30
0.0
 40
10.00000000001069
100
AcDbArc
 50
0.0
 51
90.0
1001
MCSXDATA5
1071
      167
1004
06000000000000008B0000001C000000E404000000000000000000001F050A025C020509020FEE020C4D43535F46494C4C45545F3109020FEE020C4D43535F46494C4C45545F3209020FEE020C4D43535F46494C4C45545F3309020FEE020C4D43535F46494C4C45545F3409020FEE020C4D43535F46494C4C45545F351202
1004
2602050201030201030202020103020326020A02010302012202010302010302010201030201221A
  0
LINE
  5
11EF
102
{ACAD_REACTORS
330
11FF
102
}
330
1F
100
AcDbEntity
  8
M3-sur-tranche
100
AcDbLine
 10
736.952124
 20
174.552607
 30
0.0
 11
736.952124
 21
186.035669
 31
0.0
  0
LINE
  5
121D
330
1F
100
AcDbEntity
  8
detourage
100
AcDbLine
 10
696.796164
 20
243.575445
 30
0.0
 11
763.911235
 21
243.575445
 31
0.0
  0
LINE
  5
121E
330
1F
100
AcDbEntity
  8
detourage
100
AcDbLine
 10
696.796164
 20
249.575445
 30
0.0
 11
763.911235
 21
249.575445
 31
0.0
  0
LINE
  5
121F
102
{ACAD_REACTORS
330
1627
102
}
330
1F
100
AcDbEntity
  8
detourage
100
AcDbLine
 10
696.796164
 20
243.575445
 30
0.0
 11
696.796164
 21
249.575445
 31
0.0
  0
LINE
  5
1220
330
1F
100
AcDbEntity
  8
detourage
100
AcDbLine
 10
763.911235
 20
243.575445
 30
0.0
 11
763.911235
 21
249.575445
 31
0.0
  0
LINE
  5
1222
102
{ACAD_REACTORS
330
15E4
102
}
330
1F
100
AcDbEntity
  8
detourage
100
AcDbLine
 10
723.952124
 20
243.575445
 30
0.0
 11
723.952124
 21
249.575445
 31
0.0
  0
LINE
  5
1225
102
{ACAD_REACTORS
330
15E4
102
}
330
1F
100
AcDbEntity
  8
M3-sur-tranche
100
AcDbLine
 10
736.952124
 20
241.217
 30
0.0
 11
736.952124
 21
252.145479
 31
0.0
  0
LINE
  5
1227
330
1F
100
AcDbEntity
  8
M3-sur-tranche
100
AcDbLine
 10
732.368154
 20
246.575445
 30
0.0
 11
742.268071
 21
246.575445
 31
0.0
  0
CIRCLE
  5
1229
330
1F
100
AcDbEntity
  8
detourage
100
AcDbCircle
 10
736.889353
 20
246.575445
 30
0.0
 40
1.3
  0
ARC
  5
122B
330
1F
100
AcDbEntity
  8
detourage
100
AcDbCircle
 10
736.889353
 20
246.575445
 30
0.0
 40
1.5
100
AcDbArc
 50
180.0
 51
90.0
  0
LINE
  5
122C
330
1F
100
AcDbEntity
  8
M3-sur-tranche
100
AcDbLine
 10
720.888659
 20
225.232162
 30
0.0
 11
720.888659
 21
236.160641
 31
0.0
  0
LINE
  5
122D
330
1F
100
AcDbEntity
  8
M3-sur-tranche
100
AcDbLine
 10
716.304689
 20
230.590608
 30
0.0
 11
726.204606
 21
230.590608
 31
0.0
  0
ARC
  5
122E
330
1F
100
AcDbEntity
  8
detourage
100
AcDbCircle
 10
720.888659
 20
230.590608
 30
0.0
 40
1.5
100
AcDbArc
 50
180.0
 51
90.0
  0
LINE
  5
122F
330
1F
100
AcDbEntity
  8
M3-sur-tranche
100
AcDbLine
 10
704.039098
 20
220.701373
 30
0.0
 11
704.039098
 21
231.629852
 31
0.0
  0
LINE
  5
1230
330
1F
100
AcDbEntity
  8
M3-sur-tranche
100
AcDbLine
 10
699.455128
 20
226.059819
 30
0.0
 11
709.355045
 21
226.059819
 31
0.0
  0
ARC
  5
1231
330
1F
100
AcDbEntity
  8
detourage
100
AcDbCircle
 10
704.039098
 20
226.059819
 30
0.0
 40
1.5
100
AcDbArc
 50
180.0
 51
90.0
  0
LINE
  5
1232
330
1F
100
AcDbEntity
  8
M3-sur-tranche
100
AcDbLine
 10
704.913069
 20
214.850422
 30
0.0
 11
704.913069
 21
225.778901
 31
0.0
  0
LINE
  5
1233
330
1F
100
AcDbEntity
  8
M3-sur-tranche
100
AcDbLine
 10
700.329099
 20
220.208868
 30
0.0
 11
710.229016
 21
220.208868
 31
0.0
  0
ARC
  5
1234
330
1F
100
AcDbEntity
  8
detourage
100
AcDbCircle
 10
704.913069
 20
220.208868
 30
0.0
 40
1.5
100
AcDbArc
 50
180.0
 51
90.0
  0
LINE
  5
1235
330
1F
100
AcDbEntity
  8
M3-sur-tranche
100
AcDbLine
 10
721.893818
 20
206.202788
 30
0.0
 11
721.893818
 21
217.131267
 31
0.0
  0
LINE
  5
1236
330
1F
100
AcDbEntity
  8
M3-sur-tranche
100
AcDbLine
 10
717.309848
 20
211.561234
 30
0.0
 11
727.209765
 21
211.561234
 31
0.0
  0
ARC
  5
1237
330
1F
100
AcDbEntity
  8
detourage
100
AcDbCircle
 10
721.893818
 20
211.561234
 30
0.0
 40
1.5
100
AcDbArc
 50
180.0
 51
90.0
  0
DIMENSION
  5
1238
102
{ACAD_REACTORS
330
1246
102
}
102
{ACAD_XDICTIONARY
360
1245
102
}
330
1F
100
AcDbEntity
  8
DIMENSION
100
AcDbDimension
280
     0
  2
*D30
 10
732.999311
 20
214.225519
 30
0.0
 11
754.587251
 21
219.145973
 31
0.0
 70
   163
  1
{\Q0;%%C}22.00H7
 71
     5
 42
22.0
 73
     0
 74
     0
 75
     0
  3
STANDARD
100
AcDbDiametricDimension
 15
754.864049
 25
216.661343
 35
0.0
 40
0.0
1001
ACAD_DSTYLE_DIMRADIAL_EXTENSION
1070
   387
1070
     1
1070
   388
1040
0.0
1070
   390
1040
0.0
1001
ACAD
1000
DSTYLE
1002
{
1070
    75
1070
     1
1070
    76
1070
     1
1070
   340
1005
11
1070
   279
1070
     2
1070
   144
1040
1.0
1070
    40
1040
1.0
1070
   173
1070
     1
1070
   344
1005
0
1070
   342
1005
0
1070
   343
1005
0
1070
   283
1070
     1
1002
}
  0
DIMENSION
  5
13B4
102
{ACAD_REACTORS
330
13C2
102
}
102
{ACAD_XDICTIONARY
360
13C1
102
}
330
1F
100
AcDbEntity
  8
DIMENSION
100
AcDbDimension
280
     0
  2
*D31
 10
710.161449
 20
221.183735
 30
0.0
 11
721.806245
 21
222.8863
 31
0.0
 70
   163
  1
{\Q0;%%C}11.50H7
 71
     5
 42
11.5
 73
     0
 74
     0
 75
     0
  3
STANDARD
100
AcDbDiametricDimension
 15
721.634179
 25
220.392229
 35
0.0
 40
0.0
1001
ACAD_DSTYLE_DIMRADIAL_EXTENSION
1070
   387
1070
     1
1070
   388
1040
0.0
1070
   390
1040
0.0
1001
ACAD
1000
DSTYLE
1002
{
1070
    75
1070
     1
1070
    76
1070
     1
1070
   340
1005
11
1070
   279
1070
     2
1070
   144
1040
1.0
1070
    40
1040
1.0
1070
   173
1070
     1
1070
   344
1005
0
1070
   342
1005
0
1070
   343
1005
0
1070
   283
1070
     1
1002
}
  0
DIMENSION
  5
15D5
102
{ACAD_REACTORS
330
15E4
102
}
102
{ACAD_XDICTIONARY
360
15E3
102
}
330
1F
100
AcDbEntity
  8
DIMENSION
100
AcDbDimension
280
     0
  2
*D36
 10
736.952124
 20
254.550807
 30
0.0
 11
757.718791
 21
254.550807
 31
0.0
 70
    32
  1
\A1;13.00 \H2.00x;(\H0.50x; \S+0.5000^   0;\H2.00x;)\H0.50x;
 71
     5
 42
13.0
 73
     0
 74
     0
 75
     0
  3
STANDARD
100
AcDbAlignedDimension
 13
723.952124
 23
249.575445
 33
0.0
 14
736.952124
 24
252.145479
 34
0.0
100
AcDbRotatedDimension
1001
ACAD
1000
DSTYLE
1002
{
1070
   147
1040
1.6
1070
   340
1005
11
1070
   144
1040
1.0
1070
    40
1040
1.0
1070
   173
1070
     1
1070
   343
1005
0
1070
   342
1005
0
1070
   344
1005
0
1070
   283
1070
     1
1002
}
  0
DIMENSION
  5
1618
102
{ACAD_REACTORS
330
1627
102
}
102
{ACAD_XDICTIONARY
360
1626
102
}
330
1F
100
AcDbEntity
  8
DIMENSION
100
AcDbDimension
280
     0
  2
*D40
 10
681.796164
 20
249.575445
 30
0.0
 11
699.207279
 21
254.575445
 31
0.0
 70
    32
  1
6.00 \H1.33x;(\H.75x;%%p0.1000\H1.33x;)\H.75x;
 71
     5
 42
6.0
 73
     0
 74
     0
 75
     0
  3
STANDARD
100
AcDbAlignedDimension
 13
696.796164
 23
243.575445
 33
0.0
 14
696.796164
 24
249.575445
 34
0.0
 50
90.0
100
AcDbRotatedDimension
1001
ACAD
1000
DSTYLE
1002
{
1070
   147
1040
1.6
1070
   340
1005
11
1070
   144
1040
1.0
1070
    40
1040
1.0
1070
   173
1070
     1
1070
   343
1005
0
1070
   342
1005
0
1070
   344
1005
0
1070
   283
1070
     1
1002
}
  0
MTEXT
  5
162A
330
1F
100
AcDbEntity
  8
detourage
100
AcDbMText
 10
709.900842
 20
267.605472
 30
0.0
 40
4.0
 41
47.897842
 46
12.488216
 71
     1
 72
     1
  1
AU4G (2017)
 73
     1
 44
1.0
1001
ACAD
1000
ACAD_MTEXT_DEFINED_HEIGHT_BEGIN
1070
    46
1040
12.488216
1000
ACAD_MTEXT_DEFINED_HEIGHT_END
  0
VIEWPORT
  5
20F
330
D6
100
AcDbEntity
 67
     1
  8
0
 48
100.0
100
AcDbViewport
 10
0.0
 20
0.0
 30
0.0
 40
466.965848
 41
238.196088
 68
     1
 69
     1
 12
128.5
 22
97.5
 13
0.0
 23
0.0
 14
10.0
 24
10.0
 15
10.0
 25
10.0
 16
0.0
 26
0.0
 36
1.0
 17
0.0
 27
0.0
 37
0.0
 42
50.0
 43
0.0
 44
0.0
 45
238.196088
 50
0.0
 51
0.0
 72
   100
 90
   557168
  1

281
     0
 71
     1
 74
     0
110
0.0
120
0.0
130
0.0
111
1.0
121
0.0
131
0.0
112
0.0
122
1.0
132
0.0
 79
     0
146
0.0
170
     0
 61
     5
348
F5
292
     1
282
     1
141
0.0
142
0.0
 63
   256
  0
ENDSEC
  0
SECTION
  2
OBJECTS
  0
DICTIONARY
  5
C
330
0
100
AcDbDictionary
281
     1
  3
ACAD_COLOR
350
6B
  3
ACAD_DETAILVIEWSTYLE
350
15C0
  3
ACAD_GROUP
350
D
  3
ACAD_IMAGE_DICT
350
351
  3
ACAD_LAYOUT
350
1A
  3
ACAD_MATERIAL
350
6A
  3
ACAD_MLEADERSTYLE
350
12D
  3
ACAD_MLINESTYLE
350
17
  3
ACAD_PLOTSETTINGS
350
19
  3
ACAD_SCALELIST
350
10C
  3
ACAD_SECTIONVIEWSTYLE
350
15C1
  3
ACAD_TABLESTYLE
350
EFE
  3
ACAD_VISUALSTYLE
350
EF
  3
ACDB_RECOMPOSE_DATA
350
1630
  3
ACDBVARIABLEDICTIONARY
350
5E
  3
MCS_STREAM_DICT
350
34E
  0
SUN
  5
F02
330
EA
100
AcDbSun
 90
        1
290
     0
 63
     7
421
 16777215
 40
1.0
291
     1
 91
  2455826
 92
 54000000
292
     0
 70
     2
 71
   256
280
     1
  0
DICTIONARY
  5
234
330
1F
100
AcDbDictionary
280
     1
281
     1
  3
ACAD_SORTENTS
360
235
  0
DICTIONARY
  5
1245
330
1238
100
AcDbDictionary
280
     1
281
     1
  3
MC_XOBJECT1
360
1246
  0
DICTIONARY
  5
13C1
330
13B4
100
AcDbDictionary
280
     1
281
     1
  3
MC_XOBJECT1
360
13C2
  0
DICTIONARY
  5
15E3
330
15D5
100
AcDbDictionary
280
     1
281
     1
  3
MC_XOBJECT1
360
15E4
  0
DICTIONARY
  5
1626
330
1618
100
AcDbDictionary
280
     1
281
     1
  3
MC_XOBJECT1
360
1627
  0
DICTIONARY
  5
6B
102
{ACAD_REACTORS
330
C
102
}
330
C
100
AcDbDictionary
281
     1
  0
DICTIONARY
  5
15C0
102
{ACAD_REACTORS
330
C
102
}
330
C
100
AcDbDictionary
281
     1
  0
DICTIONARY
  5
D
102
{ACAD_REACTORS
330
C
102
}
330
C
100
AcDbDictionary
281
     1
  0
DICTIONARY
  5
351
102
{ACAD_REACTORS
330
C
102
}
330
C
100
AcDbDictionary
281
     1
  0
DICTIONARY
  5
1A
102
{ACAD_REACTORS
330
C
102
}
330
C
100
AcDbDictionary
281
     1
  3
Layout1
350
F01
  3
Model
350
F00
  0
DICTIONARY
  5
6A
102
{ACAD_REACTORS
330
C
102
}
330
C
100
AcDbDictionary
281
     1
  3
BYBLOCK
350
ED
  3
BYLAYER
350
EC
  3
GLOBAL
350
EE
  0
DICTIONARY
  5
12D
102
{ACAD_REACTORS
330
C
102
}
330
C
100
AcDbDictionary
281
     1
  3
STANDARD
350
12E
  3
АННОТАТИВНЫЙ
350
13B
  0
DICTIONARY
  5
17
102
{ACAD_REACTORS
330
C
102
}
330
C
100
AcDbDictionary
281
     1
  3
STANDARD
350
18
  0
DICTIONARY
  5
19
102
{ACAD_REACTORS
330
C
102
}
330
C
100
AcDbDictionary
281
     1
  0
DICTIONARY
  5
10C
102
{ACAD_REACTORS
330
C
102
}
330
C
100
AcDbDictionary
281
     1
  3
A0
350
10D
  3
A1
350
1BE
  3
A2
350
1BF
  3
A3
350
1C0
  3
A4
350
1C1
  3
A5
350
1C2
  3
A6
350
1C3
  3
A7
350
1C4
  3
A8
350
1C5
  3
A9
350
1C6
  3
B0
350
1C7
  3
B1
350
1C8
  3
B2
350
1C9
  3
B3
350
1CA
  3
B4
350
1CB
  3
B5
350
1CC
  3
B6
350
1CD
  0
DICTIONARY
  5
15C1
102
{ACAD_REACTORS
330
C
102
}
330
C
100
AcDbDictionary
281
     1
  0
DICTIONARY
  5
EFE
102
{ACAD_REACTORS
330
C
102
}
330
C
100
AcDbDictionary
281
     1
  3
Standard
350
EFF
  0
DICTIONARY
  5
EF
102
{ACAD_REACTORS
330
C
102
}
330
C
100
AcDbDictionary
281
     1
  3
2DWIREFRAME
350
F5
  3
3D_HIDDEN
350
F7
  3
3DWIREFRAME
350
F6
  3
BASIC
350
F4
  3
BRIGHTEN
350
FB
  3
COLORCHANGE
350
FF
  3
CONCEPTUAL
350
F8
  3
DIM
350
FA
  3
EDGECOLOROFF
350
35E
  3
FACEPATTERN
350
FE
  3
FLAT
350
F0
  3
FLATWITHEDGES
350
F1
  3
GOURAUD
350
F2
  3
GOURAUDWITHEDGES
350
F3
  3
HIDDEN
350
35B
  3
JITTEROFF
350
35C
  3
LINEPATTERN
350
FD
  3
OVERHANGOFF
350
35D
  3
REALISTIC
350
F9
  3
SHADED
350
363
  3
Shaded with edges
350
8E5
  3
SHADED_WITH_EDGE0
350
362
  3
SHADED_WITH_EDGES
350
53A
  3
Shades of Gray
350
8E4
  3
SHADES_OF_GRA0
350
35F
  3
SHADES_OF_GRAY
350
539
  3
SKETCHY
350
360
  3
THICKEN
350
FC
  3
WIREFRAME
350
35A
  3
X-RAY
350
361
  0
XRECORD
  5
1630
102
{ACAD_REACTORS
330
C
102
}
330
C
100
AcDbXrecord
280
     1
 90
        1
330
EFF
  0
DICTIONARY
  5
5E
102
{ACAD_REACTORS
330
C
102
}
330
C
100
AcDbDictionary
281
     1
  3
CANNOSCALE
350
F04
  3
CMLEADERSTYLE
350
145
  3
CTABLESTYLE
350
84
  3
DIMASSOC
350
5F
  3
HIDETEXT
350
63
  3
LAYEREVAL
350
1AE
  3
LAYERNOTIFY
350
1AF
  3
MSLTSCALE
350
503
  3
PSOLHEIGHT
350
FE0
  3
PSOLWIDTH
350
FDF
  3
XCLIPFRAME
350
356
  0
DICTIONARY
  5
34E
102
{ACAD_REACTORS
330
C
102
}
330
C
100
AcDbDictionary
281
     1
  3
MC_VERSION_DATA
350
4D9
  3
MCS_DOCUMENT_ID
350
357
  3
MCS_PARAMS_DATA
350
365
  0
SORTENTSTABLE
  5
235
102
{ACAD_REACTORS
330
234
102
}
330
234
100
AcDbSortentsTable
330
1F
331
0
  5
237
  0
McDbContainer2
  5
1246
102
{ACAD_REACTORS
330
1245
102
}
330
1245
100
McDbContainer2
  0
McDbContainer2
  5
13C2
102
{ACAD_REACTORS
330
13C1
102
}
330
13C1
100
McDbContainer2
  0
McDbContainer2
  5
15E4
102
{ACAD_REACTORS
330
15E3
102
}
330
15E3
100
McDbContainer2
  0
McDbContainer2
  5
1627
102
{ACAD_REACTORS
330
1626
102
}
330
1626
100
McDbContainer2
  0
LAYOUT
  5
F01
102
{ACAD_REACTORS
330
1A
102
}
330
1A
100
AcDbPlotSettings
  1

  2
none_device
  4

  6

 40
0.0
 41
0.0
 42
0.0
 43
0.0
 44
0.0
 45
0.0
 46
0.0
 47
0.0
 48
0.0
 49
0.0
140
0.0
141
0.0
142
1.0
143
1.0
 70
   688
 72
     1
 73
     0
 74
     5
  7

 75
    16
 76
     0
 77
     2
 78
   300
147
1.0
148
0.0
149
0.0
100
AcDbLayout
  1
Layout1
 70
     0
 71
     1
 10
0.0
 20
0.0
 11
277.0
 21
202.5
 12
0.0
 22
0.0
 32
0.0
 14
0.0
 24
0.0
 34
0.0
 15
0.0
 25
0.0
 35
0.0
146
0.0
 13
0.0
 23
0.0
 33
0.0
 16
1.0
 26
0.0
 36
0.0
 17
0.0
 27
1.0
 37
0.0
 76
     0
330
D6
331
20F
  0
LAYOUT
  5
F00
102
{ACAD_REACTORS
330
1A
102
}
330
1A
100
AcDbPlotSettings
  1

  2
none_device
  4
Letter_(8.50_x_11.00_Inches)
  6

 40
6.35
 41
6.35
 42
6.350005
 43
6.350005
 44
215.9
 45
279.4
 46
0.0
 47
0.0
 48
0.0
 49
0.0
140
0.0
141
0.0
142
1.0
143
1.309858
 70
  1712
 72
     1
 73
     0
 74
     0
  7

 75
     0
 76
     0
 77
     2
 78
   300
147
0.763442
148
-481.611904
149
13.908668
100
AcDbLayout
  1
Model
 70
     1
 71
     0
 10
0.0
 20
0.0
 11
420.0
 21
297.0
 12
0.0
 22
0.0
 32
0.0
 14
681.379497
 24
174.552607
 34
0.0
 15
774.385457
 25
267.605472
 35
0.0
146
0.0
 13
0.0
 23
0.0
 33
0.0
 16
1.0
 26
0.0
 36
0.0
 17
0.0
 27
1.0
 37
0.0
 76
     0
330
1F
331
EA
  0
MATERIAL
  5
ED
102
{ACAD_REACTORS
330
6A
102
}
330
6A
100
AcDbMaterial
  1
BYBLOCK
 72
     1
 73
     2
 78
     2
172
     2
176
     2
270
     2
274
     2
 94
       63
  0
MATERIAL
  5
EC
102
{ACAD_REACTORS
330
6A
102
}
330
6A
100
AcDbMaterial
  1
BYLAYER
 72
     1
 73
     2
 78
     2
172
     2
176
     2
270
     2
274
     2
 94
       63
  0
MATERIAL
  5
EE
102
{ACAD_REACTORS
330
6A
102
}
330
6A
100
AcDbMaterial
  1
GLOBAL
 72
     1
 73
     2
 43
0.0008
 43
0.0
 43
0.0
 43
0.0
 43
0.0
 43
0.0008
 43
0.0
 43
0.0
 43
0.0
 43
0.0
 43
1.0
 43
0.0
 43
0.0
 43
0.0
 43
0.0
 43
1.0
 78
     2
172
     2
 49
0.0008
 49
0.0
 49
0.0
 49
0.0
 49
0.0
 49
0.0008
 49
0.0
 49
0.0
 49
0.0
 49
0.0
 49
1.0
 49
0.0
 49
0.0
 49
0.0
 49
0.0
 49
1.0
176
     2
142
0.0008
142
0.0
142
0.0
142
0.0
142
0.0
142
0.0008
142
0.0
142
0.0
142
0.0
142
0.0
142
1.0
142
0.0
142
0.0
142
0.0
142
0.0
142
1.0
270
     2
144
0.0008
144
0.0
144
0.0
144
0.0
144
0.0
144
0.0008
144
0.0
144
0.0
144
0.0
144
0.0
144
1.0
144
0.0
144
0.0
144
0.0
144
0.0
144
1.0
274
     2
 94
       63
1001
ACAD
1070
    -1
1070
     3
1070
     0
1000

1071
        0
1070
     0
  0
MLEADERSTYLE
  5
12E
102
{ACAD_REACTORS
330
12D
102
}
330
12D
100
AcDbMLeaderStyle
179
     2
170
     2
171
     1
172
     0
 90
        2
 40
0.0
 41
0.0
173
     1
 91
-1056964608
340
14
 92
       -2
290
     1
 42
2.0
291
     1
 43
8.0
  3
Standard
341
0
 44
4.0
300

342
11
174
     1
178
     1
175
     1
176
     0
 93
-1056964608
 45
4.0
292
     0
297
     0
 46
4.0
343
0
 94
-1056964608
 47
1.0
 49
1.0
140
1.0
293
     1
141
0.0
294
     1
177
     0
142
1.0
295
     0
296
     0
143
3.75
271
     0
272
     9
273
     9
298
     0
1001
ACAD_MLEADERVER
1070
     2
  0
MLEADERSTYLE
  5
13B
102
{ACAD_REACTORS
330
12D
102
}
330
12D
100
AcDbMLeaderStyle
179
     2
170
     2
171
     1
172
     0
 90
        2
 40
0.0
 41
0.0
173
     1
 91
-1056964608
340
14
 92
       -2
290
     1
 42
2.0
291
     1
 43
8.0
  3
Standard
341
0
 44
4.0
300

342
11
174
     1
178
     1
175
     1
176
     0
 93
-1056964608
 45
4.0
292
     0
297
     0
 46
4.0
343
0
 94
-1056964608
 47
1.0
 49
1.0
140
1.0
293
     1
141
0.0
294
     1
177
     0
142
1.0
295
     1
296
     0
143
3.75
271
     0
272
     9
273
     9
298
     0
1001
ACAD_MLEADERVER
1070
     2
  0
MLINESTYLE
  5
18
102
{ACAD_REACTORS
330
17
102
}
330
17
100
AcDbMlineStyle
  2
STANDARD
 70
     0
  3

 62
   256
 51
90.0
 52
90.0
 71
     2
 49
0.5
 62
   256
  6
BYLAYER
 49
-0.5
 62
   256
  6
BYLAYER
  0
SCALE
  5
10D
102
{ACAD_REACTORS
330
10C
102
}
330
10C
100
AcDbScale
 70
     0
300
1:1
140
1.0
141
1.0
290
     1
  0
SCALE
  5
1BE
102
{ACAD_REACTORS
330
10C
102
}
330
10C
100
AcDbScale
 70
     0
300
1:2
140
1.0
141
2.0
290
     0
  0
SCALE
  5
1BF
102
{ACAD_REACTORS
330
10C
102
}
330
10C
100
AcDbScale
 70
     0
300
1:4
140
1.0
141
4.0
290
     0
  0
SCALE
  5
1C0
102
{ACAD_REACTORS
330
10C
102
}
330
10C
100
AcDbScale
 70
     0
300
1:5
140
1.0
141
5.0
290
     0
  0
SCALE
  5
1C1
102
{ACAD_REACTORS
330
10C
102
}
330
10C
100
AcDbScale
 70
     0
300
1:8
140
1.0
141
8.0
290
     0
  0
SCALE
  5
1C2
102
{ACAD_REACTORS
330
10C
102
}
330
10C
100
AcDbScale
 70
     0
300
1:10
140
1.0
141
10.0
290
     0
  0
SCALE
  5
1C3
102
{ACAD_REACTORS
330
10C
102
}
330
10C
100
AcDbScale
 70
     0
300
1:16
140
1.0
141
16.0
290
     0
  0
SCALE
  5
1C4
102
{ACAD_REACTORS
330
10C
102
}
330
10C
100
AcDbScale
 70
     0
300
1:20
140
1.0
141
20.0
290
     0
  0
SCALE
  5
1C5
102
{ACAD_REACTORS
330
10C
102
}
330
10C
100
AcDbScale
 70
     0
300
1:30
140
1.0
141
30.0
290
     0
  0
SCALE
  5
1C6
102
{ACAD_REACTORS
330
10C
102
}
330
10C
100
AcDbScale
 70
     0
300
1:40
140
1.0
141
40.0
290
     0
  0
SCALE
  5
1C7
102
{ACAD_REACTORS
330
10C
102
}
330
10C
100
AcDbScale
 70
     0
300
1:50
140
1.0
141
50.0
290
     0
  0
SCALE
  5
1C8
102
{ACAD_REACTORS
330
10C
102
}
330
10C
100
AcDbScale
 70
     0
300
1:100
140
1.0
141
100.0
290
     0
  0
SCALE
  5
1C9
102
{ACAD_REACTORS
330
10C
102
}
330
10C
100
AcDbScale
 70
     0
300
2:1
140
2.0
141
1.0
290
     0
  0
SCALE
  5
1CA
102
{ACAD_REACTORS
330
10C
102
}
330
10C
100
AcDbScale
 70
     0
300
4:1
140
4.0
141
1.0
290
     0
  0
SCALE
  5
1CB
102
{ACAD_REACTORS
330
10C
102
}
330
10C
100
AcDbScale
 70
     0
300
8:1
140
8.0
141
1.0
290
     0
  0
SCALE
  5
1CC
102
{ACAD_REACTORS
330
10C
102
}
330
10C
100
AcDbScale
 70
     0
300
10:1
140
10.0
141
1.0
290
     0
  0
SCALE
  5
1CD
102
{ACAD_REACTORS
330
10C
102
}
330
10C
100
AcDbScale
 70
     0
300
100:1
140
100.0
141
1.0
290
     0
  0
TABLESTYLE
  5
EFF
102
{ACAD_REACTORS
330
EFE
102
}
102
{ACAD_XDICTIONARY
360
162E
102
}
330
EFE
100
AcDbTableStyle
  3
Standard
 70
     0
 71
     0
 40
0.06
 41
0.06
280
     0
281
     0
  7
STANDARD
140
4.5
170
     2
 62
     0
 63
   257
283
     0
 90
        4
 91
        0
  1

274
    -2
284
     1
 64
     0
275
    -2
285
     1
 65
     0
276
    -2
286
     1
 66
     0
277
    -2
287
     1
 67
     0
278
    -2
288
     1
 68
     0
279
    -2
289
     1
 69
     0
  7
STANDARD
140
6.0
170
     5
 62
     0
 63
   257
283
     0
 90
        4
 91
        0
  1

274
    -2
284
     1
 64
     0
275
    -2
285
     1
 65
     0
276
    -2
286
     1
 66
     0
277
    -2
287
     1
 67
     0
278
    -2
288
     1
 68
     0
279
    -2
289
     1
 69
     0
  7
STANDARD
140
4.5
170
     5
 62
     0
 63
   257
283
     0
 90
        4
 91
        0
  1

274
    -2
284
     1
 64
     0
275
    -2
285
     1
 65
     0
276
    -2
286
     1
 66
     0
277
    -2
287
     1
 67
     0
278
    -2
288
     1
 68
     0
279
    -2
289
     1
 69
     0
  0
VISUALSTYLE
  5
F5
102
{ACAD_REACTORS
330
EF
102
}
330
EF
100
AcDbVisualStyle
  2
2dWireframe
 70
     4
177
     3
291
     0
 70
    58
 90
        0
176
     1
 90
        2
176
     1
 90
        1
176
     1
 90
        0
176
     1
 40
-0.6
176
     1
 40
-30.0
176
     1
 62
     7
176
     1
 90
        1
176
     1
 90
        4
176
     1
 62
     7
176
     1
 62
   257
176
     1
 90
        1
176
     1
 90
        1
176
     1
 40
1.0
176
     1
 90
        0
176
     1
 62
   257
176
     1
 40
1.0
176
     1
 90
        1
176
     1
 90
        6
176
     1
 90
        2
176
     1
 62
     7
176
     1
 90
        5
176
     1
 90
        0
176
     1
 90
        0
176
     1
290
     0
176
     1
 90
        1
176
     1
 40
0.0
176
     1
 90
        0
176
     1
290
     1
176
     1
290
     1
176
     1
290
     0
176
     1
290
     0
176
     1
290
     0
176
     1
290
     0
176
     1
290
     0
176
     1
290
     0
176
     1
290
     0
176
     1
 90
       50
176
     1
 40
0.0
176
     1
 40
1.0
176
     1
 90
        0
176
     1
 62
    18
420
        0
176
     1
 90
       50
176
     1
 90
        3
176
     1
 62
     5
420
      255
176
     1
290
     0
176
     1
 90
       50
176
     1
 90
       50
176
     1
 90
       50
176
     1
290
     0
176
     1
 90
       50
176
     1
 62
   256
176
     0
 40
1.0
176
     0
 90
        2
176
     1
  1
strokes_ogs.tif
176
     1
290
     0
176
     1
 40
1.0
176
     1
 40
1.0
176
     1
  0
VISUALSTYLE
  5
F7
102
{ACAD_REACTORS
330
EF
102
}
330
EF
100
AcDbVisualStyle
  2
3D Hidden
 70
     6
177
     3
291
     0
 70
    58
 90
        1
176
     1
 90
        2
176
     1
 90
        2
176
     1
 90
        0
176
     1
 40
-0.6
176
     1
 40
-30.0
176
     1
 62
     7
176
     1
 90
        2
176
     1
 90
        2
176
     1
 62
     7
176
     1
 62
   257
176
     1
 90
        2
176
     1
 90
        1
176
     1
 40
40.0
176
     1
 90
        0
176
     1
 62
   257
176
     1
 40
1.0
176
     1
 90
        1
176
     1
 90
        6
176
     1
 90
        2
176
     1
 62
     7
176
     1
 90
        3
176
     1
 90
        0
176
     1
 90
        0
176
     1
290
     0
176
     1
 90
        1
176
     1
 40
0.0
176
     1
 90
        0
176
     1
290
     0
176
     1
290
     1
176
     1
290
     1
176
     1
290
     0
176
     1
290
     0
176
     1
290
     0
176
     1
290
     0
176
     1
290
     0
176
     1
290
     0
176
     1
 90
       50
176
     1
 40
0.0
176
     1
 40
1.0
176
     1
 90
        0
176
     1
 62
    18
420
        0
176
     1
 90
       50
176
     1
 90
        3
176
     1
 62
     5
420
      255
176
     1
290
     0
176
     1
 90
       50
176
     1
 90
       50
176
     1
 90
       50
176
     1
290
     0
176
     1
 90
       50
176
     1
 62
   256
176
     0
 40
1.0
176
     0
 90
        2
176
     1
  1
strokes_ogs.tif
176
     1
290
     0
176
     1
 40
1.0
176
     1
 40
1.0
176
     1
  0
VISUALSTYLE
  5
F6
102
{ACAD_REACTORS
330
EF
102
}
330
EF
100
AcDbVisualStyle
  2
3dWireframe
 70
     5
177
     3
291
     0
 70
    58
 90
        0
176
     1
 90
        2
176
     1
 90
        1
176
     1
 90
        0
176
     1
 40
-0.6
176
     1
 40
-30.0
176
     1
 62
     7
176
     1
 90
        1
176
     1
 90
        4
176
     1
 62
     7
176
     1
 62
   257
176
     1
 90
        1
176
     1
 90
        1
176
     1
 40
1.0
176
     1
 90
        0
176
     1
 62
   257
176
     1
 40
1.0
176
     1
 90
        1
176
     1
 90
        6
176
     1
 90
        2
176
     1
 62
     7
176
     1
 90
        5
176
     1
 90
        0
176
     1
 90
        0
176
     1
290
     0
176
     1
 90
        1
176
     1
 40
0.0
176
     1
 90
        0
176
     1
290
     0
176
     1
290
     1
176
     1
290
     1
176
     1
290
     0
176
     1
290
     0
176
     1
290
     0
176
     1
290
     0
176
     1
290
     0
176
     1
290
     0
176
     1
 90
       50
176
     1
 40
0.0
176
     1
 40
1.0
176
     1
 90
        0
176
     1
 62
    18
420
        0
176
     1
 90
       50
176
     1
 90
        3
176
     1
 62
     5
420
      255
176
     1
290
     0
176
     1
 90
       50
176
     1
 90
       50
176
     1
 90
       50
176
     1
290
     0
176
     1
 90
       50
176
     1
 62
   256
176
     0
 40
1.0
176
     0
 90
        2
176
     1
  1
strokes_ogs.tif
176
     1
290
     0
176
     1
 40
1.0
176
     1
 40
1.0
176
     1
  0
VISUALSTYLE
  5
F4
102
{ACAD_REACTORS
330
EF
102
}
330
EF
100
AcDbVisualStyle
  2
Basic
 70
     7
177
     3
291
     1
 70
    58
 90
        1
176
     1
 90
        0
176
     1
 90
        1
176
     1
 90
        0
176
     1
 40
-0.6
176
     1
 40
-30.0
176
     1
 62
     7
176
     1
 90
        0
176
     1
 90
        4
176
     1
 62
     7
176
     1
 62
   257
176
     1
 90
        1
176
     1
 90
        1
176
     1
 40
1.0
176
     1
 90
        8
176
     1
 62
     7
176
     1
 40
1.0
176
     1
 90
        1
176
     1
 90
        6
176
     1
 90
        2
176
     1
 62
     7
176
     1
 90
        5
176
     1
 90
        0
176
     1
 90
        0
176
     1
290
     0
176
     1
 90
        1
176
     1
 40
0.0
176
     1
 90
        0
176
     1
290
     0
176
     1
290
     1
176
     1
290
     1
176
     1
290
     0
176
     1
290
     0
176
     1
290
     0
176
     1
290
     0
176
     1
290
     0
176
     1
290
     0
176
     1
 90
       50
176
     1
 40
0.0
176
     1
 40
1.0
176
     1
 90
        0
176
     1
 62
    18
420
        0
176
     1
 90
       50
176
     1
 90
        3
176
     1
 62
     5
420
      255
176
     1
290
     0
176
     1
 90
       50
176
     1
 90
       50
176
     1
 90
       50
176
     1
290
     0
176
     1
 90
       50
176
     1
 62
   256
176
     0
 40
1.0
176
     0
 90
        2
176
     1
  1
strokes_ogs.tif
176
     1
290
     0
176
     1
 40
1.0
176
     1
 40
1.0
176
     1
  0
VISUALSTYLE
  5
FB
102
{ACAD_REACTORS
330
EF
102
}
330
EF
100
AcDbVisualStyle
  2
Brighten
 70
    12
177
     3
291
     1
 70
    58
 90
        2
176
     1
 90
        2
176
     1
 90
        1
176
     1
 90
        0
176
     1
 40
-0.6
176
     1
 40
-30.0
176
     1
 62
     7
176
     1
 90
        1
176
     1
 90
        4
176
     1
 62
     7
176
     1
 62
   257
176
     1
 90
        1
176
     1
 90
        1
176
     1
 40
1.0
176
     1
 90
        8
176
     1
 62
     7
176
     1
 40
1.0
176
     1
 90
        1
176
     1
 90
        6
176
     1
 90
        2
176
     1
 62
     7
176
     1
 90
        5
176
     1
 90
        0
176
     1
 90
        0
176
     1
290
     0
176
     1
 90
        1
176
     1
 40
50.0
176
     1
 90
        0
176
     1
290
     0
176
     1
290
     1
176
     1
290
     1
176
     1
290
     0
176
     1
290
     0
176
     1
290
     0
176
     1
290
     0
176
     1
290
     0
176
     1
290
     0
176
     1
 90
       50
176
     1
 40
0.0
176
     1
 40
1.0
176
     1
 90
        0
176
     1
 62
    18
420
        0
176
     1
 90
       50
176
     1
 90
        3
176
     1
 62
     5
420
      255
176
     1
290
     0
176
     1
 90
       50
176
     1
 90
       50
176
     1
 90
       50
176
     1
290
     0
176
     1
 90
       50
176
     1
 62
   256
176
     0
 40
1.0
176
     0
 90
        2
176
     1
  1
strokes_ogs.tif
176
     1
290
     0
176
     1
 40
1.0
176
     1
 40
1.0
176
     1
  0
VISUALSTYLE
  5
FF
102
{ACAD_REACTORS
330
EF
102
}
330
EF
100
AcDbVisualStyle
  2
ColorChange
 70
    16
177
     3
291
     1
 70
    58
 90
        2
176
     1
 90
        2
176
     1
 90
        3
176
     1
 90
        0
176
     1
 40
-0.6
176
     1
 40
-30.0
176
     1
 62
     8
176
     1
 90
        1
176
     1
 90
        4
176
     1
 62
     7
176
     1
 62
   257
176
     1
 90
        1
176
     1
 90
        1
176
     1
 40
1.0
176
     1
 90
        8
176
     1
 62
     8
176
     1
 40
1.0
176
     1
 90
        1
176
     1
 90
        6
176
     1
 90
        2
176
     1
 62
     7
176
     1
 90
        5
176
     1
 90
        0
176
     1
 90
        0
176
     1
290
     0
176
     1
 90
        1
176
     1
 40
0.0
176
     1
 90
        0
176
     1
290
     0
176
     1
290
     1
176
     1
290
     1
176
     1
290
     0
176
     1
290
     0
176
     1
290
     0
176
     1
290
     0
176
     1
290
     0
176
     1
290
     0
176
     1
 90
       50
176
     1
 40
0.0
176
     1
 40
1.0
176
     1
 90
        0
176
     1
 62
    18
420
        0
176
     1
 90
       50
176
     1
 90
        3
176
     1
 62
     5
420
      255
176
     1
290
     0
176
     1
 90
       50
176
     1
 90
       50
176
     1
 90
       50
176
     1
290
     0
176
     1
 90
       50
176
     1
 62
   256
176
     0
 40
1.0
176
     0
 90
        2
176
     1
  1
strokes_ogs.tif
176
     1
290
     0
176
     1
 40
1.0
176
     1
 40
1.0
176
     1
  0
VISUALSTYLE
  5
F8
102
{ACAD_REACTORS
330
EF
102
}
330
EF
100
AcDbVisualStyle
  2
Conceptual
 70
     9
177
     3
291
     0
 70
    58
 90
        3
176
     1
 90
        2
176
     1
 90
        1
176
     1
 90
        0
176
     1
 40
-0.6
176
     1
 40
-30.0
176
     1
 62
     7
176
     1
 90
        2
176
     1
 90
        2
176
     1
 62
     7
176
     1
 62
   257
176
     1
 90
        1
176
     1
 90
        1
176
     1
 40
40.0
176
     1
 90
        8
176
     1
 62
     7
176
     1
 40
1.0
176
     1
 90
        1
176
     1
 90
        6
176
     1
 90
        2
176
     1
 62
     7
176
     1
 90
        3
176
     1
 90
        0
176
     1
 90
        0
176
     1
290
     0
176
     1
 90
        1
176
     1
 40
0.0
176
     1
 90
        0
176
     1
290
     0
176
     1
290
     1
176
     1
290
     1
176
     1
290
     0
176
     1
290
     0
176
     1
290
     0
176
     1
290
     0
176
     1
290
     0
176
     1
290
     0
176
     1
 90
       50
176
     1
 40
0.0
176
     1
 40
1.0
176
     1
 90
        0
176
     1
 62
    18
420
        0
176
     1
 90
       50
176
     1
 90
        3
176
     1
 62
     5
420
      255
176
     1
290
     0
176
     1
 90
       50
176
     1
 90
       50
176
     1
 90
       50
176
     1
290
     0
176
     1
 90
       50
176
     1
 62
   256
176
     0
 40
1.0
176
     0
 90
        2
176
     1
  1
strokes_ogs.tif
176
     1
290
     0
176
     1
 40
1.0
176
     1
 40
1.0
176
     1
  0
VISUALSTYLE
  5
FA
102
{ACAD_REACTORS
330
EF
102
}
330
EF
100
AcDbVisualStyle
  2
Dim
 70
    11
177
     3
291
     1
 70
    58
 90
        2
176
     1
 90
        2
176
     1
 90
        1
176
     1
 90
        0
176
     1
 40
-0.6
176
     1
 40
-30.0
176
     1
 62
     7
176
     1
 90
        1
176
     1
 90
        4
176
     1
 62
     7
176
     1
 62
   257
176
     1
 90
        1
176
     1
 90
        1
176
     1
 40
1.0
176
     1
 90
        8
176
     1
 62
     7
176
     1
 40
1.0
176
     1
 90
        1
176
     1
 90
        6
176
     1
 90
        2
176
     1
 62
     7
176
     1
 90
        5
176
     1
 90
        0
176
     1
 90
        0
176
     1
290
     0
176
     1
 90
        1
176
     1
 40
-50.0
176
     1
 90
        0
176
     1
290
     0
176
     1
290
     1
176
     1
290
     1
176
     1
290
     0
176
     1
290
     0
176
     1
290
     0
176
     1
290
     0
176
     1
290
     0
176
     1
290
     0
176
     1
 90
       50
176
     1
 40
0.0
176
     1
 40
1.0
176
     1
 90
        0
176
     1
 62
    18
420
        0
176
     1
 90
       50
176
     1
 90
        3
176
     1
 62
     5
420
      255
176
     1
290
     0
176
     1
 90
       50
176
     1
 90
       50
176
     1
 90
       50
176
     1
290
     0
176
     1
 90
       50
176
     1
 62
   256
176
     0
 40
1.0
176
     0
 90
        2
176
     1
  1
strokes_ogs.tif
176
     1
290
     0
176
     1
 40
1.0
176
     1
 40
1.0
176
     1
  0
VISUALSTYLE
  5
35E
102
{ACAD_REACTORS
330
EF
102
}
330
EF
100
AcDbVisualStyle
  2
EdgeColorOff
 70
    22
177
     3
291
     1
 70
    58
 90
        2
176
     1
 90
        2
176
     1
 90
        0
176
     1
 90
        0
176
     1
 40
0.6
176
     1
 40
30.0
176
     1
 62
     7
176
     1
 90
        1
176
     1
 90
        4
176
     1
 62
     7
176
     1
 62
   257
176
     1
 90
        1
176
     1
 90
        1
176
     1
 40
1.0
176
     1
 90
        8
176
     1
 62
     7
176
     1
 40
1.0
176
     1
 90
        1
176
     1
 90
        6
176
     1
 90
        2
176
     1
 62
     7
176
     1
 90
        5
176
     1
 90
        0
176
     1
 90
        0
176
     1
290
     0
176
     1
 90
        1
176
     1
 40
0.0
176
     1
 90
        0
176
     1
290
     0
176
     1
290
     1
176
     1
290
     1
176
     1
290
     0
176
     1
290
     0
176
     1
290
     0
176
     1
290
     0
176
     1
290
     0
176
     1
290
     0
176
     1
 90
       50
176
     1
 40
0.0
176
     1
 40
1.0
176
     1
 90
        0
176
     1
 62
    18
420
        0
176
     1
 90
       50
176
     1
 90
        3
176
     1
 62
     5
420
      255
176
     1
290
     0
176
     1
 90
       50
176
     1
 90
       50
176
     1
 90
       50
176
     1
290
     0
176
     1
 90
       50
176
     1
 62
   256
176
     0
 40
1.0
176
     0
 90
        2
176
     1
  1
strokes_ogs.tif
176
     1
290
     0
176
     1
 40
1.0
176
     1
 40
1.0
176
     1
  0
VISUALSTYLE
  5
FE
102
{ACAD_REACTORS
330
EF
102
}
330
EF
100
AcDbVisualStyle
  2
Facepattern
 70
    15
177
     3
291
     1
 70
    58
 90
        2
176
     1
 90
        2
176
     1
 90
        1
176
     1
 90
        0
176
     1
 40
-0.6
176
     1
 40
-30.0
176
     1
 62
     7
176
     1
 90
        1
176
     1
 90
        4
176
     1
 62
     7
176
     1
 62
   257
176
     1
 90
        1
176
     1
 90
        1
176
     1
 40
1.0
176
     1
 90
        8
176
     1
 62
     7
176
     1
 40
1.0
176
     1
 90
        1
176
     1
 90
        6
176
     1
 90
        2
176
     1
 62
     7
176
     1
 90
        5
176
     1
 90
        0
176
     1
 90
        0
176
     1
290
     0
176
     1
 90
        1
176
     1
 40
0.0
176
     1
 90
        0
176
     1
290
     0
176
     1
290
     1
176
     1
290
     1
176
     1
290
     0
176
     1
290
     0
176
     1
290
     0
176
     1
290
     0
176
     1
290
     0
176
     1
290
     0
176
     1
 90
       50
176
     1
 40
0.0
176
     1
 40
1.0
176
     1
 90
        0
176
     1
 62
    18
420
        0
176
     1
 90
       50
176
     1
 90
        3
176
     1
 62
     5
420
      255
176
     1
290
     0
176
     1
 90
       50
176
     1
 90
       50
176
     1
 90
       50
176
     1
290
     0
176
     1
 90
       50
176
     1
 62
   256
176
     0
 40
1.0
176
     0
 90
        2
176
     1
  1
strokes_ogs.tif
176
     1
290
     0
176
     1
 40
1.0
176
     1
 40
1.0
176
     1
  0
VISUALSTYLE
  5
F0
102
{ACAD_REACTORS
330
EF
102
}
330
EF
100
AcDbVisualStyle
  2
Flat
 70
     0
177
     3
291
     1
 70
    58
 90
        2
176
     1
 90
        1
176
     1
 90
        1
176
     1
 90
        2
176
     1
 40
-0.6
176
     1
 40
30.0
176
     1
 62
     7
176
     1
 90
        0
176
     1
 90
        4
176
     1
 62
     7
176
     1
 62
   257
176
     1
 90
        1
176
     1
 90
        1
176
     1
 40
1.0
176
     1
 90
        8
176
     1
 62
     7
176
     1
 40
1.0
176
     1
 90
        1
176
     1
 90
        6
176
     1
 90
        2
176
     1
 62
     7
176
     1
 90
        5
176
     1
 90
        0
176
     1
 90
        0
176
     1
290
     0
176
     1
 90
        1
176
     1
 40
0.0
176
     1
 90
        0
176
     1
290
     0
176
     1
290
     1
176
     1
290
     1
176
     1
290
     0
176
     1
290
     0
176
     1
290
     0
176
     1
290
     0
176
     1
290
     0
176
     1
290
     0
176
     1
 90
       50
176
     1
 40
0.0
176
     1
 40
1.0
176
     1
 90
        0
176
     1
 62
    18
420
        0
176
     1
 90
       50
176
     1
 90
        3
176
     1
 62
     5
420
      255
176
     1
290
     0
176
     1
 90
       50
176
     1
 90
       50
176
     1
 90
       50
176
     1
290
     0
176
     1
 90
       50
176
     1
 62
   256
176
     0
 40
1.0
176
     0
 90
        2
176
     1
  1
strokes_ogs.tif
176
     1
290
     0
176
     1
 40
1.0
176
     1
 40
1.0
176
     1
  0
VISUALSTYLE
  5
F1
102
{ACAD_REACTORS
330
EF
102
}
330
EF
100
AcDbVisualStyle
  2
FlatWithEdges
 70
     1
177
     3
291
     1
 70
    58
 90
        2
176
     1
 90
        1
176
     1
 90
        1
176
     1
 90
        2
176
     1
 40
-0.6
176
     1
 40
30.0
176
     1
 62
     7
176
     1
 90
        1
176
     1
 90
        4
176
     1
 62
     7
176
     1
 62
   257
176
     1
 90
        1
176
     1
 90
        1
176
     1
 40
1.0
176
     1
 90
        0
176
     1
 62
   257
176
     1
 40
1.0
176
     1
 90
        1
176
     1
 90
        6
176
     1
 90
        2
176
     1
 62
     7
176
     1
 90
        5
176
     1
 90
        0
176
     1
 90
        0
176
     1
290
     0
176
     1
 90
        1
176
     1
 40
0.0
176
     1
 90
        0
176
     1
290
     0
176
     1
290
     1
176
     1
290
     1
176
     1
290
     0
176
     1
290
     0
176
     1
290
     0
176
     1
290
     0
176
     1
290
     0
176
     1
290
     0
176
     1
 90
       50
176
     1
 40
0.0
176
     1
 40
1.0
176
     1
 90
        0
176
     1
 62
    18
420
        0
176
     1
 90
       50
176
     1
 90
        3
176
     1
 62
     5
420
      255
176
     1
290
     0
176
     1
 90
       50
176
     1
 90
       50
176
     1
 90
       50
176
     1
290
     0
176
     1
 90
       50
176
     1
 62
   256
176
     0
 40
1.0
176
     0
 90
        2
176
     1
  1
strokes_ogs.tif
176
     1
290
     0
176
     1
 40
1.0
176
     1
 40
1.0
176
     1
  0
VISUALSTYLE
  5
F2
102
{ACAD_REACTORS
330
EF
102
}
330
EF
100
AcDbVisualStyle
  2
Gouraud
 70
     2
177
     3
291
     1
 70
    58
 90
        2
176
     1
 90
        2
176
     1
 90
        1
176
     1
 90
        2
176
     1
 40
-0.6
176
     1
 40
30.0
176
     1
 62
     7
176
     1
 90
        0
176
     1
 90
        4
176
     1
 62
     7
176
     1
 62
   257
176
     1
 90
        1
176
     1
 90
        1
176
     1
 40
1.0
176
     1
 90
        0
176
     1
 62
     7
176
     1
 40
1.0
176
     1
 90
        1
176
     1
 90
        6
176
     1
 90
        2
176
     1
 62
     7
176
     1
 90
        5
176
     1
 90
        0
176
     1
 90
        0
176
     1
290
     0
176
     1
 90
        1
176
     1
 40
0.0
176
     1
 90
        0
176
     1
290
     0
176
     1
290
     1
176
     1
290
     1
176
     1
290
     0
176
     1
290
     0
176
     1
290
     0
176
     1
290
     0
176
     1
290
     0
176
     1
290
     0
176
     1
 90
       50
176
     1
 40
0.0
176
     1
 40
1.0
176
     1
 90
        0
176
     1
 62
    18
420
        0
176
     1
 90
       50
176
     1
 90
        3
176
     1
 62
     5
420
      255
176
     1
290
     0
176
     1
 90
       50
176
     1
 90
       50
176
     1
 90
       50
176
     1
290
     0
176
     1
 90
       50
176
     1
 62
   256
176
     0
 40
1.0
176
     0
 90
        2
176
     1
  1
strokes_ogs.tif
176
     1
290
     0
176
     1
 40
1.0
176
     1
 40
1.0
176
     1
  0
VISUALSTYLE
  5
F3
102
{ACAD_REACTORS
330
EF
102
}
330
EF
100
AcDbVisualStyle
  2
GouraudWithEdges
 70
     3
177
     3
291
     1
 70
    58
 90
        2
176
     1
 90
        2
176
     1
 90
        1
176
     1
 90
        2
176
     1
 40
-0.6
176
     1
 40
30.0
176
     1
 62
     7
176
     1
 90
        1
176
     1
 90
        4
176
     1
 62
     7
176
     1
 62
   257
176
     1
 90
        1
176
     1
 90
        1
176
     1
 40
1.0
176
     1
 90
        0
176
     1
 62
   257
176
     1
 40
1.0
176
     1
 90
        1
176
     1
 90
        6
176
     1
 90
        2
176
     1
 62
     7
176
     1
 90
        5
176
     1
 90
        0
176
     1
 90
        0
176
     1
290
     0
176
     1
 90
        1
176
     1
 40
0.0
176
     1
 90
        0
176
     1
290
     0
176
     1
290
     1
176
     1
290
     1
176
     1
290
     0
176
     1
290
     0
176
     1
290
     0
176
     1
290
     0
176
     1
290
     0
176
     1
290
     0
176
     1
 90
       50
176
     1
 40
0.0
176
     1
 40
1.0
176
     1
 90
        0
176
     1
 62
    18
420
        0
176
     1
 90
       50
176
     1
 90
        3
176
     1
 62
     5
420
      255
176
     1
290
     0
176
     1
 90
       50
176
     1
 90
       50
176
     1
 90
       50
176
     1
290
     0
176
     1
 90
       50
176
     1
 62
   256
176
     0
 40
1.0
176
     0
 90
        2
176
     1
  1
strokes_ogs.tif
176
     1
290
     0
176
     1
 40
1.0
176
     1
 40
1.0
176
     1
  0
VISUALSTYLE
  5
35B
102
{ACAD_REACTORS
330
EF
102
}
330
EF
100
AcDbVisualStyle
  2
Hidden
 70
     6
177
     3
291
     0
 70
    58
 90
        1
176
     1
 90
        2
176
     1
 90
        2
176
     1
 90
        0
176
     1
 40
0.6
176
     1
 40
30.0
176
     1
 62
     7
176
     1
 90
        2
176
     1
 90
        2
176
     1
 62
     7
176
     1
 62
   257
176
     1
 90
        2
176
     1
 90
        1
176
     1
 40
40.0
176
     1
 90
        0
176
     1
 62
   257
176
     1
 40
1.0
176
     1
 90
        1
176
     1
 90
        6
176
     1
 90
        2
176
     1
 62
     7
176
     1
 90
        3
176
     1
 90
        0
176
     1
 90
        0
176
     1
290
     0
176
     1
 90
        1
176
     1
 40
0.0
176
     1
 90
        0
176
     1
290
     0
176
     1
290
     1
176
     1
290
     1
176
     1
290
     0
176
     1
290
     0
176
     1
290
     0
176
     1
290
     0
176
     1
290
     0
176
     1
290
     0
176
     1
 90
       50
176
     1
 40
0.0
176
     1
 40
1.0
176
     1
 90
        0
176
     1
 62
    18
420
        0
176
     1
 90
       50
176
     1
 90
        3
176
     1
 62
     5
420
      255
176
     1
290
     0
176
     1
 90
       50
176
     1
 90
       50
176
     1
 90
       50
176
     1
290
     0
176
     1
 90
       50
176
     1
 62
   256
176
     0
 40
1.0
176
     0
 90
        2
176
     1
  1
strokes_ogs.tif
176
     1
290
     0
176
     1
 40
1.0
176
     1
 40
1.0
176
     1
  0
VISUALSTYLE
  5
35C
102
{ACAD_REACTORS
330
EF
102
}
330
EF
100
AcDbVisualStyle
  2
JitterOff
 70
    20
177
     3
291
     1
 70
    58
 90
        2
176
     1
 90
        2
176
     1
 90
        0
176
     1
 90
        0
176
     1
 40
0.6
176
     1
 40
30.0
176
     1
 62
     7
176
     1
 90
        1
176
     1
 90
        4
176
     1
 62
     7
176
     1
 62
   257
176
     1
 90
        1
176
     1
 90
        1
176
     1
 40
1.0
176
     1
 90
       10
176
     1
 62
     7
176
     1
 40
1.0
176
     1
 90
        1
176
     1
 90
        6
176
     1
 90
        2
176
     1
 62
     7
176
     1
 90
        5
176
     1
 90
        0
176
     1
 90
        0
176
     1
290
     0
176
     1
 90
        1
176
     1
 40
0.0
176
     1
 90
        0
176
     1
290
     0
176
     1
290
     1
176
     1
290
     1
176
     1
290
     0
176
     1
290
     0
176
     1
290
     0
176
     1
290
     0
176
     1
290
     0
176
     1
290
     0
176
     1
 90
       50
176
     1
 40
0.0
176
     1
 40
1.0
176
     1
 90
        0
176
     1
 62
    18
420
        0
176
     1
 90
       50
176
     1
 90
        3
176
     1
 62
     5
420
      255
176
     1
290
     0
176
     1
 90
       50
176
     1
 90
       50
176
     1
 90
       50
176
     1
290
     0
176
     1
 90
       50
176
     1
 62
   256
176
     0
 40
1.0
176
     0
 90
        2
176
     1
  1
strokes_ogs.tif
176
     1
290
     0
176
     1
 40
1.0
176
     1
 40
1.0
176
     1
  0
VISUALSTYLE
  5
FD
102
{ACAD_REACTORS
330
EF
102
}
330
EF
100
AcDbVisualStyle
  2
Linepattern
 70
    14
177
     3
291
     1
 70
    58
 90
        2
176
     1
 90
        2
176
     1
 90
        1
176
     1
 90
        0
176
     1
 40
-0.6
176
     1
 40
-30.0
176
     1
 62
     7
176
     1
 90
        1
176
     1
 90
        4
176
     1
 62
     7
176
     1
 62
   257
176
     1
 90
        7
176
     1
 90
        7
176
     1
 40
1.0
176
     1
 90
        8
176
     1
 62
     7
176
     1
 40
1.0
176
     1
 90
        1
176
     1
 90
        6
176
     1
 90
        2
176
     1
 62
     7
176
     1
 90
        5
176
     1
 90
        0
176
     1
 90
        0
176
     1
290
     0
176
     1
 90
        1
176
     1
 40
0.0
176
     1
 90
        0
176
     1
290
     0
176
     1
290
     1
176
     1
290
     1
176
     1
290
     0
176
     1
290
     0
176
     1
290
     0
176
     1
290
     0
176
     1
290
     0
176
     1
290
     0
176
     1
 90
       50
176
     1
 40
0.0
176
     1
 40
1.0
176
     1
 90
        0
176
     1
 62
    18
420
        0
176
     1
 90
       50
176
     1
 90
        3
176
     1
 62
     5
420
      255
176
     1
290
     0
176
     1
 90
       50
176
     1
 90
       50
176
     1
 90
       50
176
     1
290
     0
176
     1
 90
       50
176
     1
 62
   256
176
     0
 40
1.0
176
     0
 90
        2
176
     1
  1
strokes_ogs.tif
176
     1
290
     0
176
     1
 40
1.0
176
     1
 40
1.0
176
     1
  0
VISUALSTYLE
  5
35D
102
{ACAD_REACTORS
330
EF
102
}
330
EF
100
AcDbVisualStyle
  2
OverhangOff
 70
    21
177
     3
291
     1
 70
    58
 90
        2
176
     1
 90
        2
176
     1
 90
        0
176
     1
 90
        0
176
     1
 40
0.6
176
     1
 40
30.0
176
     1
 62
     7
176
     1
 90
        1
176
     1
 90
        4
176
     1
 62
     7
176
     1
 62
   257
176
     1
 90
        1
176
     1
 90
        1
176
     1
 40
1.0
176
     1
 90
        9
176
     1
 62
     7
176
     1
 40
1.0
176
     1
 90
        1
176
     1
 90
        6
176
     1
 90
        2
176
     1
 62
     7
176
     1
 90
        5
176
     1
 90
        0
176
     1
 90
        0
176
     1
290
     0
176
     1
 90
        1
176
     1
 40
0.0
176
     1
 90
        0
176
     1
290
     0
176
     1
290
     1
176
     1
290
     1
176
     1
290
     0
176
     1
290
     0
176
     1
290
     0
176
     1
290
     0
176
     1
290
     0
176
     1
290
     0
176
     1
 90
       50
176
     1
 40
0.0
176
     1
 40
1.0
176
     1
 90
        0
176
     1
 62
    18
420
        0
176
     1
 90
       50
176
     1
 90
        3
176
     1
 62
     5
420
      255
176
     1
290
     0
176
     1
 90
       50
176
     1
 90
       50
176
     1
 90
       50
176
     1
290
     0
176
     1
 90
       50
176
     1
 62
   256
176
     0
 40
1.0
176
     0
 90
        2
176
     1
  1
strokes_ogs.tif
176
     1
290
     0
176
     1
 40
1.0
176
     1
 40
1.0
176
     1
  0
VISUALSTYLE
  5
F9
102
{ACAD_REACTORS
330
EF
102
}
330
EF
100
AcDbVisualStyle
  2
Realistic
 70
     8
177
     3
291
     0
 70
    58
 90
        2
176
     1
 90
        2
176
     1
 90
        1
176
     1
 90
        0
176
     1
 40
-0.6
176
     1
 40
-30.0
176
     1
 62
     7
176
     1
 90
        1
176
     1
 90
        0
176
     1
 62
     7
176
     1
 62
   257
176
     1
 90
        1
176
     1
 90
        1
176
     1
 40
1.0
176
     1
 90
        8
176
     1
 62
     8
176
     1
 40
1.0
176
     1
 90
        1
176
     1
 90
        6
176
     1
 90
        2
176
     1
 62
     7
176
     1
 90
        5
176
     1
 90
        0
176
     1
 90
        0
176
     1
290
     0
176
     1
 90
       13
176
     1
 40
0.0
176
     1
 90
        0
176
     1
290
     0
176
     1
290
     1
176
     1
290
     1
176
     1
290
     0
176
     1
290
     0
176
     1
290
     0
176
     1
290
     0
176
     1
290
     0
176
     1
290
     0
176
     1
 90
       50
176
     1
 40
0.0
176
     1
 40
1.0
176
     1
 90
        0
176
     1
 62
    18
420
        0
176
     1
 90
       50
176
     1
 90
        3
176
     1
 62
     5
420
      255
176
     1
290
     0
176
     1
 90
       50
176
     1
 90
       50
176
     1
 90
       50
176
     1
290
     0
176
     1
 90
       50
176
     1
 62
   256
176
     0
 40
1.0
176
     0
 90
        2
176
     1
  1
strokes_ogs.tif
176
     1
290
     0
176
     1
 40
1.0
176
     1
 40
1.0
176
     1
  0
VISUALSTYLE
  5
363
102
{ACAD_REACTORS
330
EF
102
}
330
EF
100
AcDbVisualStyle
  2
Shaded
 70
    27
177
     3
291
     0
 70
    58
 90
        2
176
     1
 90
        2
176
     1
 90
        1
176
     1
 90
        2
176
     1
 40
0.6
176
     1
 40
30.0
176
     1
 62
     7
176
     1
 90
        0
176
     1
 90
        4
176
     1
 62
     7
176
     1
 62
   257
176
     1
 90
        1
176
     1
 90
        1
176
     1
 40
1.0
176
     1
 90
        8
176
     1
 62
   257
176
     1
 40
1.0
176
     1
 90
        1
176
     1
 90
        6
176
     1
 90
        2
176
     1
 62
     8
176
     1
 90
        3
176
     1
 90
        0
176
     1
 90
        0
176
     1
290
     0
176
     1
 90
        5
176
     1
 40
0.0
176
     1
 90
        0
176
     1
290
     0
176
     1
290
     1
176
     1
290
     1
176
     1
290
     0
176
     1
290
     0
176
     1
290
     0
176
     1
290
     0
176
     1
290
     0
176
     1
290
     0
176
     1
 90
       50
176
     1
 40
0.0
176
     1
 40
1.0
176
     1
 90
        0
176
     1
 62
    18
420
        0
176
     1
 90
       50
176
     1
 90
        3
176
     1
 62
     5
420
      255
176
     1
290
     0
176
     1
 90
       50
176
     1
 90
       50
176
     1
 90
       50
176
     1
290
     0
176
     1
 90
       50
176
     1
 62
   256
176
     0
 40
1.0
176
     0
 90
        2
176
     1
  1
strokes_ogs.tif
176
     1
290
     0
176
     1
 40
1.0
176
     1
 40
1.0
176
     1
  0
VISUALSTYLE
  5
8E5
102
{ACAD_REACTORS
330
EF
102
}
330
EF
100
AcDbVisualStyle
  2
Shaded with edges
 70
    26
177
     3
291
     0
 70
    58
 90
        2
176
     1
 90
        2
176
     1
 90
        1
176
     1
 90
        2
176
     1
 40
0.6
176
     1
 40
30.0
176
     1
 62
     7
176
     1
 90
        1
176
     1
 90
       10
176
     1
 62
     7
176
     1
 62
   257
176
     1
 90
        2
176
     1
 90
        1
176
     1
 40
1.0
176
     1
 90
        8
176
     1
 62
   257
176
     1
 40
1.0
176
     1
 90
        1
176
     1
 90
        6
176
     1
 90
        2
176
     1
 62
     7
176
     1
 90
        3
176
     1
 90
        0
176
     1
 90
        0
176
     1
290
     0
176
     1
 90
        5
176
     1
 40
0.0
176
     1
 90
        0
176
     1
290
     0
176
     1
290
     1
176
     1
290
     1
176
     1
290
     0
176
     1
290
     0
176
     1
290
     0
176
     1
290
     0
176
     1
290
     0
176
     1
290
     0
176
     1
 90
       50
176
     1
 40
0.0
176
     1
 40
1.0
176
     1
 90
        0
176
     1
 62
    18
420
        0
176
     1
 90
       50
176
     1
 90
        3
176
     1
 62
     5
420
      255
176
     1
290
     0
176
     1
 90
       50
176
     1
 90
       50
176
     1
 90
       50
176
     1
290
     0
176
     1
 90
       50
176
     1
 62
   256
176
     0
 40
1.0
176
     0
 90
        2
176
     1
  1
strokes_ogs.tif
176
     1
290
     0
176
     1
 40
1.0
176
     1
 40
1.0
176
     1
  0
VISUALSTYLE
  5
362
102
{ACAD_REACTORS
330
EF
102
}
330
EF
100
AcDbVisualStyle
  2
Shaded with edges
 70
    26
177
     3
291
     0
 70
    58
 90
        2
176
     1
 90
        2
176
     1
 90
        1
176
     1
 90
        2
176
     1
 40
0.6
176
     1
 40
30.0
176
     1
 62
     7
176
     1
 90
        1
176
     1
 90
       10
176
     1
 62
     7
176
     1
 62
   257
176
     1
 90
        2
176
     1
 90
        1
176
     1
 40
1.0
176
     1
 90
        8
176
     1
 62
   257
176
     1
 40
1.0
176
     1
 90
        1
176
     1
 90
        6
176
     1
 90
        2
176
     1
 62
     7
176
     1
 90
        3
176
     1
 90
        0
176
     1
 90
        0
176
     1
290
     0
176
     1
 90
        5
176
     1
 40
0.0
176
     1
 90
        0
176
     1
290
     0
176
     1
290
     1
176
     1
290
     1
176
     1
290
     0
176
     1
290
     0
176
     1
290
     0
176
     1
290
     0
176
     1
290
     0
176
     1
290
     0
176
     1
 90
       50
176
     1
 40
0.0
176
     1
 40
1.0
176
     1
 90
        0
176
     1
 62
    18
420
        0
176
     1
 90
       50
176
     1
 90
        3
176
     1
 62
     5
420
      255
176
     1
290
     0
176
     1
 90
       50
176
     1
 90
       50
176
     1
 90
       50
176
     1
290
     0
176
     1
 90
       50
176
     1
 62
   256
176
     0
 40
1.0
176
     0
 90
        2
176
     1
  1
strokes_ogs.tif
176
     1
290
     0
176
     1
 40
1.0
176
     1
 40
1.0
176
     1
  0
VISUALSTYLE
  5
53A
102
{ACAD_REACTORS
330
EF
102
}
330
EF
100
AcDbVisualStyle
  2
Shaded with edges
 70
    26
177
     3
291
     0
 70
    58
 90
        2
176
     1
 90
        2
176
     1
 90
        1
176
     1
 90
        2
176
     1
 40
0.6
176
     1
 40
30.0
176
     1
 62
     7
176
     1
 90
        1
176
     1
 90
       10
176
     1
 62
     7
176
     1
 62
   257
176
     1
 90
        2
176
     1
 90
        1
176
     1
 40
1.0
176
     1
 90
        8
176
     1
 62
   257
176
     1
 40
1.0
176
     1
 90
        1
176
     1
 90
        6
176
     1
 90
        2
176
     1
 62
     7
176
     1
 90
        3
176
     1
 90
        0
176
     1
 90
        0
176
     1
290
     0
176
     1
 90
        5
176
     1
 40
0.0
176
     1
 90
        0
176
     1
290
     0
176
     1
290
     1
176
     1
290
     1
176
     1
290
     0
176
     1
290
     0
176
     1
290
     0
176
     1
290
     0
176
     1
290
     0
176
     1
290
     0
176
     1
 90
       50
176
     1
 40
0.0
176
     1
 40
1.0
176
     1
 90
        0
176
     1
 62
    18
420
        0
176
     1
 90
       50
176
     1
 90
        3
176
     1
 62
     5
420
      255
176
     1
290
     0
176
     1
 90
       50
176
     1
 90
       50
176
     1
 90
       50
176
     1
290
     0
176
     1
 90
       50
176
     1
 62
   256
176
     0
 40
1.0
176
     0
 90
        2
176
     1
  1
strokes_ogs.tif
176
     1
290
     0
176
     1
 40
1.0
176
     1
 40
1.0
176
     1
  0
VISUALSTYLE
  5
8E4
102
{ACAD_REACTORS
330
EF
102
}
330
EF
100
AcDbVisualStyle
  2
Shades of Gray
 70
    23
177
     3
291
     0
 70
    58
 90
        2
176
     1
 90
        2
176
     1
 90
        3
176
     1
 90
        0
176
     1
 40
0.6
176
     1
 40
30.0
176
     1
 62
     7
176
     1
 90
        2
176
     1
 90
        2
176
     1
 62
     7
176
     1
 62
     7
176
     1
 90
        1
176
     1
 90
        1
176
     1
 40
40.0
176
     1
 90
        8
176
     1
 62
     7
176
     1
 40
1.0
176
     1
 90
        1
176
     1
 90
        6
176
     1
 90
        2
176
     1
 62
     7
176
     1
 90
        3
176
     1
 90
        0
176
     1
 90
        0
176
     1
290
     0
176
     1
 90
        1
176
     1
 40
0.0
176
     1
 90
        0
176
     1
290
     0
176
     1
290
     1
176
     1
290
     1
176
     1
290
     0
176
     1
290
     0
176
     1
290
     0
176
     1
290
     0
176
     1
290
     0
176
     1
290
     0
176
     1
 90
       50
176
     1
 40
0.0
176
     1
 40
1.0
176
     1
 90
        0
176
     1
 62
    18
420
        0
176
     1
 90
       50
176
     1
 90
        3
176
     1
 62
     5
420
      255
176
     1
290
     0
176
     1
 90
       50
176
     1
 90
       50
176
     1
 90
       50
176
     1
290
     0
176
     1
 90
       50
176
     1
 62
   256
176
     0
 40
1.0
176
     0
 90
        2
176
     1
  1
strokes_ogs.tif
176
     1
290
     0
176
     1
 40
1.0
176
     1
 40
1.0
176
     1
  0
VISUALSTYLE
  5
35F
102
{ACAD_REACTORS
330
EF
102
}
330
EF
100
AcDbVisualStyle
  2
Shades of Gray
 70
    23
177
     3
291
     0
 70
    58
 90
        2
176
     1
 90
        2
176
     1
 90
        3
176
     1
 90
        0
176
     1
 40
0.6
176
     1
 40
30.0
176
     1
 62
     7
176
     1
 90
        2
176
     1
 90
        2
176
     1
 62
     7
176
     1
 62
     7
176
     1
 90
        1
176
     1
 90
        1
176
     1
 40
40.0
176
     1
 90
        8
176
     1
 62
     7
176
     1
 40
1.0
176
     1
 90
        1
176
     1
 90
        6
176
     1
 90
        2
176
     1
 62
     7
176
     1
 90
        3
176
     1
 90
        0
176
     1
 90
        0
176
     1
290
     0
176
     1
 90
        1
176
     1
 40
0.0
176
     1
 90
        0
176
     1
290
     0
176
     1
290
     1
176
     1
290
     1
176
     1
290
     0
176
     1
290
     0
176
     1
290
     0
176
     1
290
     0
176
     1
290
     0
176
     1
290
     0
176
     1
 90
       50
176
     1
 40
0.0
176
     1
 40
1.0
176
     1
 90
        0
176
     1
 62
    18
420
        0
176
     1
 90
       50
176
     1
 90
        3
176
     1
 62
     5
420
      255
176
     1
290
     0
176
     1
 90
       50
176
     1
 90
       50
176
     1
 90
       50
176
     1
290
     0
176
     1
 90
       50
176
     1
 62
   256
176
     0
 40
1.0
176
     0
 90
        2
176
     1
  1
strokes_ogs.tif
176
     1
290
     0
176
     1
 40
1.0
176
     1
 40
1.0
176
     1
  0
VISUALSTYLE
  5
539
102
{ACAD_REACTORS
330
EF
102
}
330
EF
100
AcDbVisualStyle
  2
Shades of Gray
 70
    23
177
     3
291
     0
 70
    58
 90
        2
176
     1
 90
        2
176
     1
 90
        3
176
     1
 90
        0
176
     1
 40
0.6
176
     1
 40
30.0
176
     1
 62
     7
176
     1
 90
        2
176
     1
 90
        2
176
     1
 62
     7
176
     1
 62
     7
176
     1
 90
        1
176
     1
 90
        1
176
     1
 40
40.0
176
     1
 90
        8
176
     1
 62
     7
176
     1
 40
1.0
176
     1
 90
        1
176
     1
 90
        6
176
     1
 90
        2
176
     1
 62
     7
176
     1
 90
        3
176
     1
 90
        0
176
     1
 90
        0
176
     1
290
     0
176
     1
 90
        1
176
     1
 40
0.0
176
     1
 90
        0
176
     1
290
     0
176
     1
290
     1
176
     1
290
     1
176
     1
290
     0
176
     1
290
     0
176
     1
290
     0
176
     1
290
     0
176
     1
290
     0
176
     1
290
     0
176
     1
 90
       50
176
     1
 40
0.0
176
     1
 40
1.0
176
     1
 90
        0
176
     1
 62
    18
420
        0
176
     1
 90
       50
176
     1
 90
        3
176
     1
 62
     5
420
      255
176
     1
290
     0
176
     1
 90
       50
176
     1
 90
       50
176
     1
 90
       50
176
     1
290
     0
176
     1
 90
       50
176
     1
 62
   256
176
     0
 40
1.0
176
     0
 90
        2
176
     1
  1
strokes_ogs.tif
176
     1
290
     0
176
     1
 40
1.0
176
     1
 40
1.0
176
     1
  0
VISUALSTYLE
  5
360
102
{ACAD_REACTORS
330
EF
102
}
330
EF
100
AcDbVisualStyle
  2
Sketchy
 70
    24
177
     3
291
     0
 70
    58
 90
        1
176
     1
 90
        2
176
     1
 90
        2
176
     1
 90
        0
176
     1
 40
0.6
176
     1
 40
30.0
176
     1
 62
     7
176
     1
 90
        2
176
     1
 90
        2
176
     1
 62
     7
176
     1
 62
     7
176
     1
 90
        1
176
     1
 90
        1
176
     1
 40
40.0
176
     1
 90
       11
176
     1
 62
     7
176
     1
 40
1.0
176
     1
 90
        1
176
     1
 90
        6
176
     1
 90
        2
176
     1
 62
     7
176
     1
 90
        6
176
     1
 90
        0
176
     1
 90
        0
176
     1
290
     0
176
     1
 90
        1
176
     1
 40
0.0
176
     1
 90
        0
176
     1
290
     0
176
     1
290
     1
176
     1
290
     1
176
     1
290
     0
176
     1
290
     0
176
     1
290
     0
176
     1
290
     0
176
     1
290
     0
176
     1
290
     0
176
     1
 90
       50
176
     1
 40
0.0
176
     1
 40
1.0
176
     1
 90
        0
176
     1
 62
    18
420
        0
176
     1
 90
       50
176
     1
 90
        3
176
     1
 62
     5
420
      255
176
     1
290
     0
176
     1
 90
       50
176
     1
 90
       50
176
     1
 90
       50
176
     1
290
     0
176
     1
 90
       50
176
     1
 62
   256
176
     0
 40
1.0
176
     0
 90
        2
176
     1
  1
strokes_ogs.tif
176
     1
290
     0
176
     1
 40
1.0
176
     1
 40
1.0
176
     1
  0
VISUALSTYLE
  5
FC
102
{ACAD_REACTORS
330
EF
102
}
330
EF
100
AcDbVisualStyle
  2
Thicken
 70
    13
177
     3
291
     1
 70
    58
 90
        2
176
     1
 90
        2
176
     1
 90
        1
176
     1
 90
        0
176
     1
 40
-0.6
176
     1
 40
-30.0
176
     1
 62
     7
176
     1
 90
        1
176
     1
 90
        4
176
     1
 62
     7
176
     1
 62
   257
176
     1
 90
        1
176
     1
 90
        1
176
     1
 40
1.0
176
     1
 90
       12
176
     1
 62
     7
176
     1
 40
1.0
176
     1
 90
        1
176
     1
 90
        6
176
     1
 90
        2
176
     1
 62
     7
176
     1
 90
        5
176
     1
 90
        0
176
     1
 90
        0
176
     1
290
     0
176
     1
 90
        1
176
     1
 40
0.0
176
     1
 90
        0
176
     1
290
     0
176
     1
290
     1
176
     1
290
     1
176
     1
290
     0
176
     1
290
     0
176
     1
290
     0
176
     1
290
     0
176
     1
290
     0
176
     1
290
     0
176
     1
 90
       50
176
     1
 40
0.0
176
     1
 40
1.0
176
     1
 90
        0
176
     1
 62
    18
420
        0
176
     1
 90
       50
176
     1
 90
        3
176
     1
 62
     5
420
      255
176
     1
290
     0
176
     1
 90
       50
176
     1
 90
       50
176
     1
 90
       50
176
     1
290
     0
176
     1
 90
       50
176
     1
 62
   256
176
     0
 40
1.0
176
     0
 90
        2
176
     1
  1
strokes_ogs.tif
176
     1
290
     0
176
     1
 40
1.0
176
     1
 40
1.0
176
     1
  0
VISUALSTYLE
  5
35A
102
{ACAD_REACTORS
330
EF
102
}
330
EF
100
AcDbVisualStyle
  2
Wireframe
 70
     5
177
     3
291
     0
 70
    58
 90
        0
176
     1
 90
        2
176
     1
 90
        0
176
     1
 90
        0
176
     1
 40
0.6
176
     1
 40
30.0
176
     1
 62
     7
176
     1
 90
        1
176
     1
 90
        4
176
     1
 62
     7
176
     1
 62
   257
176
     1
 90
        1
176
     1
 90
        1
176
     1
 40
1.0
176
     1
 90
        0
176
     1
 62
   257
176
     1
 40
1.0
176
     1
 90
        1
176
     1
 90
        6
176
     1
 90
        2
176
     1
 62
     7
176
     1
 90
        3
176
     1
 90
        0
176
     1
 90
        0
176
     1
290
     0
176
     1
 90
        1
176
     1
 40
0.0
176
     1
 90
        0
176
     1
290
     0
176
     1
290
     1
176
     1
290
     1
176
     1
290
     0
176
     1
290
     0
176
     1
290
     0
176
     1
290
     0
176
     1
290
     0
176
     1
290
     0
176
     1
 90
       50
176
     1
 40
0.0
176
     1
 40
1.0
176
     1
 90
        0
176
     1
 62
    18
420
        0
176
     1
 90
       50
176
     1
 90
        3
176
     1
 62
     5
420
      255
176
     1
290
     0
176
     1
 90
       50
176
     1
 90
       50
176
     1
 90
       50
176
     1
290
     0
176
     1
 90
       50
176
     1
 62
   256
176
     0
 40
1.0
176
     0
 90
        2
176
     1
  1
strokes_ogs.tif
176
     1
290
     0
176
     1
 40
1.0
176
     1
 40
1.0
176
     1
  0
VISUALSTYLE
  5
361
102
{ACAD_REACTORS
330
EF
102
}
330
EF
100
AcDbVisualStyle
  2
X-Ray
 70
    25
177
     3
291
     0
 70
    58
 90
        2
176
     1
 90
        2
176
     1
 90
        1
176
     1
 90
        1
176
     1
 40
0.5
176
     1
 40
30.0
176
     1
 62
     7
176
     1
 90
        1
176
     1
 90
        0
176
     1
 62
     7
176
     1
 62
   257
176
     1
 90
        1
176
     1
 90
        1
176
     1
 40
1.0
176
     1
 90
        8
176
     1
 62
     7
176
     1
 40
1.0
176
     1
 90
        1
176
     1
 90
        6
176
     1
 90
        2
176
     1
 62
     7
176
     1
 90
        3
176
     1
 90
        0
176
     1
 90
        0
176
     1
290
     0
176
     1
 90
       13
176
     1
 40
0.0
176
     1
 90
        0
176
     1
290
     0
176
     1
290
     1
176
     1
290
     1
176
     1
290
     0
176
     1
290
     0
176
     1
290
     0
176
     1
290
     0
176
     1
290
     0
176
     1
290
     0
176
     1
 90
       50
176
     1
 40
0.0
176
     1
 40
1.0
176
     1
 90
        0
176
     1
 62
    18
420
        0
176
     1
 90
       50
176
     1
 90
        3
176
     1
 62
     5
420
      255
176
     1
290
     0
176
     1
 90
       50
176
     1
 90
       50
176
     1
 90
       50
176
     1
290
     0
176
     1
 90
       50
176
     1
 62
   256
176
     0
 40
1.0
176
     0
 90
        2
176
     1
  1
strokes_ogs.tif
176
     1
290
     0
176
     1
 40
1.0
176
     1
 40
1.0
176
     1
  0
DICTIONARYVAR
  5
F04
102
{ACAD_REACTORS
330
5E
102
}
330
5E
100
DictionaryVariables
280
     0
  1
1:1
  0
DICTIONARYVAR
  5
145
102
{ACAD_REACTORS
330
5E
102
}
330
5E
100
DictionaryVariables
280
     0
  1
STANDARD
  0
DICTIONARYVAR
  5
84
102
{ACAD_REACTORS
330
5E
102
}
330
5E
100
DictionaryVariables
280
     0
  1
Standard
  0
DICTIONARYVAR
  5
5F
102
{ACAD_REACTORS
330
5E
102
}
330
5E
100
DictionaryVariables
280
     0
  1
2
  0
DICTIONARYVAR
  5
63
102
{ACAD_REACTORS
330
5E
102
}
330
5E
100
DictionaryVariables
280
     0
  1
1
  0
DICTIONARYVAR
  5
1AE
102
{ACAD_REACTORS
330
5E
102
}
330
5E
100
DictionaryVariables
280
     0
  1
0
  0
DICTIONARYVAR
  5
1AF
102
{ACAD_REACTORS
330
5E
102
}
330
5E
100
DictionaryVariables
280
     0
  1
0
  0
DICTIONARYVAR
  5
503
102
{ACAD_REACTORS
330
5E
102
}
330
5E
100
DictionaryVariables
280
     0
  1
1
  0
DICTIONARYVAR
  5
FE0
102
{ACAD_REACTORS
330
5E
102
}
330
5E
100
DictionaryVariables
280
     0
  1
80.000000
  0
DICTIONARYVAR
  5
FDF
102
{ACAD_REACTORS
330
5E
102
}
330
5E
100
DictionaryVariables
280
     0
  1
5.000000
  0
DICTIONARYVAR
  5
356
102
{ACAD_REACTORS
330
5E
102
}
330
5E
100
DictionaryVariables
280
     0
  1
0
  0
XRECORD
  5
4D9
102
{ACAD_REACTORS
330
34E
102
}
330
34E
100
AcDbXrecord
280
     1
300
MC_VERSION_DATA
 90
       95
310
0600000002000000570000001C000000E404000000000000000000007801936764E5D8CF7A8393818115C460606066E0646662626666706006F214793899F8DE3171E725E6E53B3BBA2878E6951050AF75FEFFFFFF520032DE0F3057000000
  0
XRECORD
  5
357
102
{ACAD_REACTORS
330
34E
102
}
330
34E
100
AcDbXrecord
280
     1
300
MCS_DOCUMENT_ID
 90
       60
310
0600000002000000150000001C000000E404000000000000000000007801E37DE41D78F740E474EF85E96BC58D4F9D53FD0F040074310C1C15000000
1001
MCS_DOCUMENT_ID
1071
       45
1004
05000000000000001500000018000100E3040000000000000DBF618EF1E6FC7F438A70C1EC46F95924FFFFFFFF
  0
XRECORD
  5
365
102
{ACAD_REACTORS
330
34E
102
}
330
34E
100
AcDbXrecord
280
     1
300
MCS_PARAMS_DATA
 90
     3313
310
0600000002000000F64B00001C000000E404000000000000000000007801C55C5B6C5CC519DE9D595FD6B9DF494B53970A1A6F4A58DF92A6426A1A1210527090E23EF0543976A2BA75E25CAC160A6DA92AF5A55255A96AD556551F4A49A0CF15A03EC0438190865E482021147221409310B6900B3826B1FB7F7366CEFC73E6
310
1CAFBDDE3D9B07D8FF3F73CEF7DFE6FB67E6ECBA757EA3143929F767A4FCCE8636299AA49C90529036BB402C105929F279912F89C6DEAF6FD8BC69AB14A46C51EAC2B9898909BA39945F872C1FCD848A834A91A13B1AD51D6D5266E8A9FAF627E9AABE92BD45CA6F03BD81A3CFC24D59D990C96408C7E066656E0232E13A03
310
14B0AB01724443F05CC3F08780DFC8F19B03FC710A073DC8486413411B49060E3311A05C24C45064703B01D7CCE196A818E5C59C9268B967CBD6DED68ED59DC52EEB78BEF08E09F8223D745649346F1DE9DB35D0B777C089FC5FC3C8EB60BF1A286CF47FE3467F17CC59C5CD990B0CD948C1A77FB9F5CA0E4F479188EA541E
310
3C25A2E22BC99C8892456878B2821857F6B05492C2AD881B41409C21325211340605C9C6DC6006EC49AC088A0CCBB25B1159B72248E415019155047D5453031360047082A7405D92B72AB0F03379693EAB50870260AC609E2C6F6510BB3D081DFE4EF5EFECD71494A7B3590EC7F12C5B25CB32539229914732934ECE22AF1D
310
D259AC8B7B7649E437DE7BDFA69EADF76EE95186E95A7ED74C032DBFA66A9BF1CEF341B19B78E45DDED9EF56FE29189043E4814BF734E1FF34659991678231F23A51010DA578E8294D435524988818E84710A7B2643B4F7C134F5CC6936D1E4176D01398C4D0A83AE0A6BDC86B0BB5C3E1E8299D70A5A945AC12322FE697C4
310
9C8DC3BBBE34D2BA77FBEEA1BEFEED79D15C120DF70F0FEE1A093EF60C8FF47F4BCAB3B0ED666EDB17F5733E2B445B5E2C298985C507BB8BEBBA3A3A3774178B1D777FA5B36B9D327BBE1ED84C030BC74C9EDAB5B64D88BC405AEF1E1CD9D73A34B88F70838775AD5DDBD1B9B6BBABBB73A0ABA37F5D7BE0E757F57D1DB80F
310
037BFBB60D6D6F1DDED1DA3B3CB47D6FDF2EF8A0AD5933506CEF2FF6F7ADD9D6B56D5DFF9A60D6A95222FF670B51F8295953F8455019945B7EE9315C7A8AFEC352DE9D4B4A5050256AA6D1B42D5F0C265BEED4473538E9811F770DEFDCDD3732B86D706870E4A1D69DC303E45F6349C807B6EFCB8B8692103DC352AE816545
310
9E9E798813B5E9A692C86DD9B1A355A5424F8E0BF018466AF90D150136590E2905AA568F782650907D5A7180140B84AD0159F8156902B8F63BDA8BE1A72E29AF48322EA98B5F578631B6F5489B26184C63434803DB221A328E6B58DEAED6DB808FEB6DC068BD0DF8A4DE065CABB7018B3045EB390B3EAD7704C6EA6DC07518
310
10B79C17773A0DB6C361F03BDD064B22C8C7303844629E5064B47323116EB9039777E096BB70247238880C6E39831B9F221C81B3E543C57019D4736C30574EE2DD4AD73B12B9771099772B997713E97A974DF4CECD5D9582B938116EC00926492C777A7F676A8F441E4C882C98032C983211AE26DE8974E196022EC7174366
310
F9AE62C95769E105B5C4B012E2E82ED8CD3516C5E34D519CF0D1F6765A8551C6CC0505130A3E8ABEC46EF81CED54DC1DA04AB7BC4DB0CA082453194AB29B82400C2B438BA6322032B88FE093B3E13470C11297490C8EEF78E88158D51A8AD42283A38F61044E78707A57F8BBDFE2DF2167F36975041D1DA7FCF59430C35792
310
05112533A905D5D3CAAB4759DBB4CA160F3E9309466F934A1794E7E1154C402D3088858048DCDF7EA3E7FECD5B7A7B376D5480CBF43A7E5E49CCBE6BEB37D945B2402FC65F52AB73B67E7F3A58AE93F37A04F6B7011D680556EBCCA2819BC8A21C320F385BBDB4EE56E6E32CE2CB18E358AD7676B4C7C096B1674BAF7B1278
310
1E906198B0DF8681EA696AF34D20563061CAB731C0DB01185B8B0DCA46538BD880EB0E2C6FC3120B40E62289BC162112587895C11513E18290E892090EBF46A9321968C513E0BB89A0AE8F2431B88A7DFC9E07A7BD0A8E668E3AF3CDEA083A3A8ECFB770A00AB53712018F2859D8DB3D93C2E4D422CB77A40BB73A5DB807A7
310
0857A5727AC8838BE45965D0D3D5B29CBEEF99145F4E558AC0C3E9C23D922EDC0FD285FBA107E7958EEDE721E98018A3E3AAC64E7F5C166D7ABA81B65C437BB31D766C74A6ED6E1FBC2766B7AFDAD87156F9771BF44A2A724C461AB43EE729AAFB710D63E2111810BBA3ABC9AE6037E09AB9BF3AB40BE8309F8736AB64CAB2
310
BE7E3364E5AC569CA6976081AF5A311628A8EF68C5B3A4609E3E86AC3AA156E3E83562F4B5A292099A878C61EB3B549CF92354989982613F016CE7AD5A4D09AA1F5126387AAD451EE384D9C035A925859E39C1AA865EE9A9B8DA21CEE289167F7CF1D4C4BC7A125EC5AED5D8BB0B5A9D9144D134CFA71BF85A8D44BE568348
310
F6AA55A2F3CAEACF6982FD29118CC249D3CBF852A586F278BA70FBD3853B90085793EDE51E143F0AD06C6B4CB2242BDDBDD1419166C2865E85F9CE1648F3CBF54B2E655D5432557AB8C599EEE6E763403914E55050D879E2BFFA30F366F009F0CB378371CA9B99D05949929DD07465EA8797A3808B6B06B9536E64AF9C844C
310
903AF2F3709D3783A318A078E4F37AEBBCEC2DD1B228B722F785DC2DB9D64C476675A63353CC74E937B1FA39BFA7DB58A6AFC19E49583A4A9B6110A6BA038D3C80418F79D091B18A763C1D8524AA5361F194EC4CC4B23EDBA3192533E95398E41423EB6DCA1C239B4DBF91D13F6D762A6897D7013D496371DC8BECCAA7D45E
310
0C251095ABC98AA38E1B6540CD3DACF829EF15C38D27C2B92DA64A071D13897001094F16523EC1C9E5A99FF465029665AB5B13C49AF8984D174EA40B273D389D33BB29A272F6749622C2719C22AC925104534E7A8CF33714555C6B3CF3BE4BE0AF28994CA9B8353E0F28878DD26D8D2F007FBAAD11BD305CEB4EAB35BE08B8
310
B8D678FEB81BD9134AB6ADF10A644BBEF9C2334A81E4EAA6772450D87DD2AF49C178F020A0EBD3055FF292CC5B8AB3FC4114C86BA708ACDB15F49C43C04EBBE7FCBD0CA8A1CB2AF59CC3897035E1E39713E16AD873FE91085A131FFF19C04DBEDBF8D75406FD3B3A2842E56C8ABE82A171BC3BF89ECB0E0F287926BC7B0450
310
75E4DDA3C09F2EEF56BE2579157071BCBBE7881BD93E255BDE7D04B225A07C61BD5230DE1DBA8C1158736B225E412358525F03747D78F79897E472BCCBAF5BAF2BA0DDE3804E9B765F2F035A65DA3D910857134A7A2311AE52DA8D6E0E9C1341735A873DD47F12A16BE2E99BE9C275792B70532835F1AEDB838B7404B509F7
310
74C449519D9AA19EB28205FF5B08785CE3F9307262735AC933693C270155C7C6730AF8E9359ED3808B6B3CA387DDC6734EC9B6F1C897238DE72006D89713F9C2E58B91C6F3388D608DE70CA0A7DA7866D30F8008DC16BEAA2D26A2AAB848F4108A0CF46D0F54D7A73989E2C56D75B6B8431D2F6EAB64C5CD94644C04869974
310
1626C5B6A280378D1BEE62BCE2C3917700E714386FAA719B1D7E7D464DF7DD444F8317374E8CAA75BEF65E19D0F8F0523EC21D7470DCC60B8CAEF29753FC38EF4760CFDBF99B4673F680D0869F6742513F06849341B61DF57EE3400A02734628D75C0DBC8B68A868B98655ECA330208EA3C6F1B52E3DF1E8849E2433679564
310
431A886148B568E62C4406F75F64308EFD2F9D7039EA6D259B5B2BF91AD8396F72B01004EFC5CD6C88F911E8CCDF849C077E5C64E9488747967101058B73015D99FA9B900B808B63FFB117DCC85E50324556799F2F34BC086EC70CD18A4318C0D9FF2AB6807CDB718046B0A4BE0FE8B4D9FFA207EA504E3D7E65FA014C7226
310
B329B0E8D703AAFEBAA304E869379E693123CD68457958A4FF2F11AE86ECFF6119D078F6E7138AD87FF2370F86D6E1E34789702D76FED2134932CCA824CB8C811832A3160D33426421BD940847AF6F0C11D33DEECB1CFE9B7175D1F926045DE5BD8DBFBDBE9C081764D0049324E6DDB40A8607F34A225C4D16463974B5B836
310
F3B3A32E193EACE499B49986C93A780A6DA631A981D7A6CD34012EAECDFCF23937B23F51B26D337F80CCDBCC36A5C0ECD07DE7E7A7236D663D8D6033A419D0536D33E07F56B8C4CA7C0D48229F9610695A461A0883CE7B494E8DD95B004DF38E8247AB09FE45AC1A52EDAC32A0861DD8DA85D8A76276989D08579353913989
310
700119397510D9BB4CAB9DF096393711B4263ECE4B176E7EBA700B3C389DB3F0B5335AA6A7234288EA142D784A9083AFB414616018456CF64C3293C4CD2F49D3E5A5F0410CEE3E0F2E6A6FEA11580893E29AEE529C2FC11C4DF48D4AA628982DB44A422820F8563073C8F989CF2240392BED74F7768B819FDEDE6E09E0E29A
310
EE0AFA030B3CB273954C91D5916E83CC9BEE074FAB1E6B73B11CFB6CBEB73B4C23589D2D05F4CC9AAE2E4C768646F0614DBB4BD40606BDCC4B726A4DF72640A7DD749797013521AB4ED3C5971C1BF2225712D922FD192CAA82F186C253F467B664EED8B163100EA1787299890C1D4314EEF90B040C236113FD72905624B8F0
310
99FF03A92412CEF64B0000
  0
DICTIONARY
  5
162E
330
EFF
100
AcDbDictionary
280
     1
281
     1
  3
ACAD_ROUNDTRIP_2008_TABLESTYLE_CELLSTYLEMAP
360
162F
  0
CELLSTYLEMAP
  5
162F
102
{ACAD_REACTORS
330
162E
102
}
330
162E
100
AcDbCellStyleMap
 90
        3
300
CELLSTYLE
  1
TABLEFORMAT_BEGIN
 90
        5
170
     1
 91
        0
 92
        0
 62
   257
 93
        1
300
CONTENTFORMAT
  1
CONTENTFORMAT_BEGIN
 90
        0
 91
        0
 92
        4
 93
        0
300

 40
0.0
140
1.0
 94
        5
 62
     0
340
11
144
6.0
309
CONTENTFORMAT_END
171
     1
301
MARGIN
  1
CELLMARGIN_BEGIN
 40
1.5
 40
1.5
 40
1.5
 40
1.5
 40
1.5
 40
1.5
309
CELLMARGIN_END
 94
        6
 95
        1
302
GRIDFORMAT
  1
GRIDFORMAT_BEGIN
 90
        0
 91
        1
 62
     0
 92
       -2
340
14
 93
        0
 40
0.045
309
GRIDFORMAT_END
 95
        2
302
GRIDFORMAT
  1
GRIDFORMAT_BEGIN
 90
        0
 91
        1
 62
     0
 92
       -2
340
14
 93
        0
 40
0.045
309
GRIDFORMAT_END
 95
        4
302
GRIDFORMAT
  1
GRIDFORMAT_BEGIN
 90
        0
 91
        1
 62
     0
 92
       -2
340
14
 93
        0
 40
0.045
309
GRIDFORMAT_END
 95
        8
302
GRIDFORMAT
  1
GRIDFORMAT_BEGIN
 90
        0
 91
        1
 62
     0
 92
       -2
340
14
 93
        0
 40
0.045
309
GRIDFORMAT_END
 95
       16
302
GRIDFORMAT
  1
GRIDFORMAT_BEGIN
 90
        0
 91
        1
 62
     0
 92
       -2
340
14
 93
        0
 40
0.045
309
GRIDFORMAT_END
 95
       32
302
GRIDFORMAT
  1
GRIDFORMAT_BEGIN
 90
        0
 91
        1
 62
     0
 92
       -2
340
14
 93
        0
 40
0.045
309
GRIDFORMAT_END
309
TABLEFORMAT_END
  1
CELLSTYLE_BEGIN
 90
        1
 91
        1
300
_TITLE
309
CELLSTYLE_END
300
CELLSTYLE
  1
TABLEFORMAT_BEGIN
 90
        5
170
     1
 91
        0
 92
        0
 62
   257
 93
        1
300
CONTENTFORMAT
  1
CONTENTFORMAT_BEGIN
 90
        0
 91
        0
 92
        4
 93
        0
300

 40
0.0
140
1.0
 94
        5
 62
     0
340
11
144
4.5
309
CONTENTFORMAT_END
171
     1
301
MARGIN
  1
CELLMARGIN_BEGIN
 40
1.5
 40
1.5
 40
1.5
 40
1.5
 40
1.5
 40
1.5
309
CELLMARGIN_END
 94
        6
 95
        1
302
GRIDFORMAT
  1
GRIDFORMAT_BEGIN
 90
        0
 91
        1
 62
     0
 92
       -2
340
14
 93
        0
 40
0.045
309
GRIDFORMAT_END
 95
        2
302
GRIDFORMAT
  1
GRIDFORMAT_BEGIN
 90
        0
 91
        1
 62
     0
 92
       -2
340
14
 93
        0
 40
0.045
309
GRIDFORMAT_END
 95
        4
302
GRIDFORMAT
  1
GRIDFORMAT_BEGIN
 90
        0
 91
        1
 62
     0
 92
       -2
340
14
 93
        0
 40
0.045
309
GRIDFORMAT_END
 95
        8
302
GRIDFORMAT
  1
GRIDFORMAT_BEGIN
 90
        0
 91
        1
 62
     0
 92
       -2
340
14
 93
        0
 40
0.045
309
GRIDFORMAT_END
 95
       16
302
GRIDFORMAT
  1
GRIDFORMAT_BEGIN
 90
        0
 91
        1
 62
     0
 92
       -2
340
14
 93
        0
 40
0.045
309
GRIDFORMAT_END
 95
       32
302
GRIDFORMAT
  1
GRIDFORMAT_BEGIN
 90
        0
 91
        1
 62
     0
 92
       -2
340
14
 93
        0
 40
0.045
309
GRIDFORMAT_END
309
TABLEFORMAT_END
  1
CELLSTYLE_BEGIN
 90
        2
 91
        1
300
_HEADER
309
CELLSTYLE_END
300
CELLSTYLE
  1
TABLEFORMAT_BEGIN
 90
        5
170
     1
 91
        0
 92
        0
 62
   257
 93
        1
300
CONTENTFORMAT
  1
CONTENTFORMAT_BEGIN
 90
        0
 91
        0
 92
        4
 93
        0
300

 40
0.0
140
1.0
 94
        2
 62
     0
340
11
144
4.5
309
CONTENTFORMAT_END
171
     1
301
MARGIN
  1
CELLMARGIN_BEGIN
 40
1.5
 40
1.5
 40
1.5
 40
1.5
 40
1.5
 40
1.5
309
CELLMARGIN_END
 94
        6
 95
        1
302
GRIDFORMAT
  1
GRIDFORMAT_BEGIN
 90
        0
 91
        1
 62
     0
 92
       -2
340
14
 93
        0
 40
0.045
309
GRIDFORMAT_END
 95
        2
302
GRIDFORMAT
  1
GRIDFORMAT_BEGIN
 90
        0
 91
        1
 62
     0
 92
       -2
340
14
 93
        0
 40
0.045
309
GRIDFORMAT_END
 95
        4
302
GRIDFORMAT
  1
GRIDFORMAT_BEGIN
 90
        0
 91
        1
 62
     0
 92
       -2
340
14
 93
        0
 40
0.045
309
GRIDFORMAT_END
 95
        8
302
GRIDFORMAT
  1
GRIDFORMAT_BEGIN
 90
        0
 91
        1
 62
     0
 92
       -2
340
14
 93
        0
 40
0.045
309
GRIDFORMAT_END
 95
       16
302
GRIDFORMAT
  1
GRIDFORMAT_BEGIN
 90
        0
 91
        1
 62
     0
 92
       -2
340
14
 93
        0
 40
0.045
309
GRIDFORMAT_END
 95
       32
302
GRIDFORMAT
  1
GRIDFORMAT_BEGIN
 90
        0
 91
        1
 62
     0
 92
       -2
340
14
 93
        0
 40
0.045
309
GRIDFORMAT_END
309
TABLEFORMAT_END
  1
CELLSTYLE_BEGIN
 90
        3
 91
        2
300
_DATA
309
CELLSTYLE_END
  0
ENDSEC
  0
EOF
