  0
SECTION
  2
HEADER
  9
$ACADVER
  1
AC1015
  9
$ACADMAINTVER
 70
     6
  9
$DWGCODEPAGE
  3
ANSI_1252
  9
$INSBASE
 10
0.0
 20
0.0
 30
0.0
  9
$EXTMIN
 10
230.652667672075
 20
120.882766075364
 30
0.0
  9
$EXTMAX
 10
529.652667672075
 20
296.382766075364
 30
0.0
  9
$LIMMIN
 10
0.0
 20
0.0
  9
$LIMMAX
 10
12.0
 20
9.0
  9
$ORTHOMODE
 70
     0
  9
$REGENMODE
 70
     1
  9
$FILLMODE
 70
     1
  9
$QTEXTMODE
 70
     0
  9
$MIRRTEXT
 70
     1
  9
$LTSCALE
 40
1.0
  9
$ATTMODE
 70
     1
  9
$TEXTSIZE
 40
0.2
  9
$TRACEWID
 40
0.05
  9
$TEXTSTYLE
  7
Standard
  9
$CLAYER
  8
0
  9
$CELTYPE
  6
ByLayer
  9
$CECOLOR
 62
   256
  9
$CELTSCALE
 40
1.0
  9
$DISPSILH
 70
     0
  9
$DIMSCALE
 40
1.0
  9
$DIMASZ
 40
0.18
  9
$DIMEXO
 40
0.0625
  9
$DIMDLI
 40
0.38
  9
$DIMRND
 40
0.0
  9
$DIMDLE
 40
0.0
  9
$DIMEXE
 40
0.18
  9
$DIMTP
 40
0.0
  9
$DIMTM
 40
0.0
  9
$DIMTXT
 40
0.18
  9
$DIMCEN
 40
0.09
  9
$DIMTSZ
 40
0.0
  9
$DIMTOL
 70
     0
  9
$DIMLIM
 70
     0
  9
$DIMTIH
 70
     1
  9
$DIMTOH
 70
     1
  9
$DIMSE1
 70
     0
  9
$DIMSE2
 70
     0
  9
$DIMTAD
 70
     0
  9
$DIMZIN
 70
     0
  9
$DIMBLK
  1

  9
$DIMASO
 70
     1
  9
$DIMSHO
 70
     1
  9
$DIMPOST
  1

  9
$DIMAPOST
  1

  9
$DIMALT
 70
     0
  9
$DIMALTD
 70
     2
  9
$DIMALTF
 40
25.4
  9
$DIMLFAC
 40
1.0
  9
$DIMTOFL
 70
     0
  9
$DIMTVP
 40
0.0
  9
$DIMTIX
 70
     0
  9
$DIMSOXD
 70
     0
  9
$DIMSAH
 70
     0
  9
$DIMBLK1
  1

  9
$DIMBLK2
  1

  9
$DIMSTYLE
  2
Standard
  9
$DIMCLRD
 70
     0
  9
$DIMCLRE
 70
     0
  9
$DIMCLRT
 70
     0
  9
$DIMTFAC
 40
1.0
  9
$DIMGAP
 40
0.09
  9
$DIMJUST
 70
     0
  9
$DIMSD1
 70
     0
  9
$DIMSD2
 70
     0
  9
$DIMTOLJ
 70
     1
  9
$DIMTZIN
 70
     0
  9
$DIMALTZ
 70
     0
  9
$DIMALTTZ
 70
     0
  9
$DIMUPT
 70
     0
  9
$DIMDEC
 70
     4
  9
$DIMTDEC
 70
     4
  9
$DIMALTU
 70
     2
  9
$DIMALTTD
 70
     2
  9
$DIMTXSTY
  7
Standard
  9
$DIMAUNIT
 70
     0
  9
$DIMADEC
 70
     0
  9
$DIMALTRND
 40
0.0
  9
$DIMAZIN
 70
     0
  9
$DIMDSEP
 70
    46
  9
$DIMATFIT
 70
     3
  9
$DIMFRAC
 70
     0
  9
$DIMLDRBLK
  1

  9
$DIMLUNIT
 70
     2
  9
$DIMLWD
 70
    -2
  9
$DIMLWE
 70
    -2
  9
$DIMTMOVE
 70
     0
  9
$LUNITS
 70
     2
  9
$LUPREC
 70
     4
  9
$SKETCHINC
 40
0.1
  9
$FILLETRAD
 40
0.5
  9
$AUNITS
 70
     0
  9
$AUPREC
 70
     0
  9
$MENU
  1
.
  9
$ELEVATION
 40
0.0
  9
$PELEVATION
 40
0.0
  9
$THICKNESS
 40
0.0
  9
$LIMCHECK
 70
     0
  9
$CHAMFERA
 40
0.5
  9
$CHAMFERB
 40
0.5
  9
$CHAMFERC
 40
1.0
  9
$CHAMFERD
 40
0.0
  9
$SKPOLY
 70
     0
  9
$TDCREATE
 40
2457520.738817778
  9
$TDUCREATE
 40
2457520.655484444
  9
$TDUPDATE
 40
2457520.738817963
  9
$TDUUPDATE
 40
2457520.65548463
  9
$TDINDWG
 40
0.0000000116
  9
$TDUSRTIMER
 40
0.0000000116
  9
$USRTIMER
 70
     1
  9
$ANGBASE
 50
0.0
  9
$ANGDIR
 70
     0
  9
$PDMODE
 70
     0
  9
$PDSIZE
 40
0.0
  9
$PLINEWID
 40
0.0
  9
$SPLFRAME
 70
     0
  9
$SPLINETYPE
 70
     6
  9
$SPLINESEGS
 70
     8
  9
$HANDSEED
  5
184
  9
$SURFTAB1
 70
     6
  9
$SURFTAB2
 70
     6
  9
$SURFTYPE
 70
     6
  9
$SURFU
 70
     6
  9
$SURFV
 70
     6
  9
$UCSBASE
  2

  9
$UCSNAME
  2

  9
$UCSORG
 10
0.0
 20
0.0
 30
0.0
  9
$UCSXDIR
 10
1.0
 20
0.0
 30
0.0
  9
$UCSYDIR
 10
0.0
 20
1.0
 30
0.0
  9
$UCSORTHOREF
  2

  9
$UCSORTHOVIEW
 70
     0
  9
$UCSORGTOP
 10
0.0
 20
0.0
 30
0.0
  9
$UCSORGBOTTOM
 10
0.0
 20
0.0
 30
0.0
  9
$UCSORGLEFT
 10
0.0
 20
0.0
 30
0.0
  9
$UCSORGRIGHT
 10
0.0
 20
0.0
 30
0.0
  9
$UCSORGFRONT
 10
0.0
 20
0.0
 30
0.0
  9
$UCSORGBACK
 10
0.0
 20
0.0
 30
0.0
  9
$PUCSBASE
  2

  9
$PUCSNAME
  2

  9
$PUCSORG
 10
0.0
 20
0.0
 30
0.0
  9
$PUCSXDIR
 10
1.0
 20
0.0
 30
0.0
  9
$PUCSYDIR
 10
0.0
 20
1.0
 30
0.0
  9
$PUCSORTHOREF
  2

  9
$PUCSORTHOVIEW
 70
     0
  9
$PUCSORGTOP
 10
0.0
 20
0.0
 30
0.0
  9
$PUCSORGBOTTOM
 10
0.0
 20
0.0
 30
0.0
  9
$PUCSORGLEFT
 10
0.0
 20
0.0
 30
0.0
  9
$PUCSORGRIGHT
 10
0.0
 20
0.0
 30
0.0
  9
$PUCSORGFRONT
 10
0.0
 20
0.0
 30
0.0
  9
$PUCSORGBACK
 10
0.0
 20
0.0
 30
0.0
  9
$USERI1
 70
     0
  9
$USERI2
 70
     0
  9
$USERI3
 70
     0
  9
$USERI4
 70
     0
  9
$USERI5
 70
     0
  9
$USERR1
 40
18.1
  9
$USERR2
 40
0.0
  9
$USERR3
 40
0.0
  9
$USERR4
 40
0.0
  9
$USERR5
 40
0.0
  9
$WORLDVIEW
 70
     1
  9
$SHADEDGE
 70
     3
  9
$SHADEDIF
 70
    70
  9
$TILEMODE
 70
     1
  9
$MAXACTVP
 70
    64
  9
$PINSBASE
 10
0.0
 20
0.0
 30
0.0
  9
$PLIMCHECK
 70
     0
  9
$PEXTMIN
 10
1.00000000000000E+20
 20
1.00000000000000E+20
 30
1.00000000000000E+20
  9
$PEXTMAX
 10
-1.00000000000000E+20
 20
-1.00000000000000E+20
 30
-1.00000000000000E+20
  9
$PLIMMIN
 10
0.0
 20
0.0
  9
$PLIMMAX
 10
12.0
 20
9.0
  9
$UNITMODE
 70
     0
  9
$VISRETAIN
 70
     1
  9
$PLINEGEN
 70
     0
  9
$PSLTSCALE
 70
     1
  9
$TREEDEPTH
 70
  3020
  9
$CMLSTYLE
  2
Standard
  9
$CMLJUST
 70
     0
  9
$CMLSCALE
 40
1.0
  9
$PROXYGRAPHICS
 70
     1
  9
$MEASUREMENT
 70
     1
  9
$CELWEIGHT
370
    -1
  9
$ENDCAPS
280
     0
  9
$JOINSTYLE
280
     0
  9
$LWDISPLAY
290
     0
  9
$INSUNITS
 70
     4
  9
$HYPERLINKBASE
  1

  9
$STYLESHEET
  1

  9
$XEDIT
290
     1
  9
$CEPSNTYPE
380
     0
  9
$PSTYLEMODE
290
     1
  9
$FINGERPRINTGUID
  2
{EEF86CB9-9248-4D3D-B529-28B307C061BD}
  9
$VERSIONGUID
  2
{FAEB1C32-E019-11D5-929B-00C0DF256EC4}
  9
$EXTNAMES
290
     1
  9
$PSVPSCALE
 40
0.0
  9
$OLESTARTUP
290
     0
  0
ENDSEC
  0
SECTION
  2
CLASSES
  0
CLASS
  1
ACDBDICTIONARYWDFLT
  2
AcDbDictionaryWithDefault
  3
ObjectDBX Classes
 90
        0
280
     0
281
     0
  0
CLASS
  1
VISUALSTYLE
  2
AcDbVisualStyle
  3
ObjectDBX Classes
 90
     4095
280
     0
281
     0
  0
CLASS
  1
MATERIAL
  2
AcDbMaterial
  3
ObjectDBX Classes
 90
     1153
280
     0
281
     0
  0
CLASS
  1
DICTIONARYVAR
  2
AcDbDictionaryVar
  3
ObjectDBX Classes
 90
        0
280
     0
281
     0
  0
CLASS
  1
ACDBPLACEHOLDER
  2
AcDbPlaceHolder
  3
ObjectDBX Classes
 90
        0
280
     0
281
     0
  0
CLASS
  1
LAYOUT
  2
AcDbLayout
  3
ObjectDBX Classes
 90
        0
280
     0
281
     0
  0
ENDSEC
  0
SECTION
  2
TABLES
  0
TABLE
  2
VPORT
  5
8
330
0
100
AcDbSymbolTable
 70
     1
  0
VPORT
  5
29
330
8
100
AcDbSymbolTableRecord
100
AcDbViewportTableRecord
  2
*Active
 70
     0
 10
0.0
 20
0.0
 11
1.0
 21
1.0
 12
380.152667672075
 22
208.632766075364
 13
0.0
 23
0.0
 14
0.5
 24
0.5
 15
0.5
 25
0.5
 16
0.0
 26
0.0
 36
1.0
 17
0.0
 27
0.0
 37
0.0
 40
205.2189415041784
 41
1.60267857142857
 42
50.0
 43
0.0
 44
0.0
 50
0.0
 51
0.0
 71
     0
 72
   100
 73
     1
 74
     3
 75
     0
 76
     0
 77
     0
 78
     0
281
     0
 65
     1
110
0.0
120
0.0
130
0.0
111
1.0
121
0.0
131
0.0
112
0.0
122
1.0
132
0.0
 79
     0
146
0.0
  0
ENDTAB
  0
TABLE
  2
LTYPE
  5
5
330
0
100
AcDbSymbolTable
 70
     8
  0
LTYPE
  5
14
330
5
100
AcDbSymbolTableRecord
100
AcDbLinetypeTableRecord
  2
ByBlock
 70
     0
  3

 72
    65
 73
     0
 40
0.0
  0
LTYPE
  5
15
330
5
100
AcDbSymbolTableRecord
100
AcDbLinetypeTableRecord
  2
ByLayer
 70
     0
  3

 72
    65
 73
     0
 40
0.0
  0
LTYPE
  5
16
330
5
100
AcDbSymbolTableRecord
100
AcDbLinetypeTableRecord
  2
Continuous
 70
     0
  3
Solid line
 72
    65
 73
     0
 40
0.0
  0
LTYPE
  5
3F
330
5
100
AcDbSymbolTableRecord
100
AcDbLinetypeTableRecord
  2
DASHED
 70
     0
  3
Dashed
 72
    65
 73
     2
 40
15.0
 49
7.0
 74
     0
 49
-8.0
 74
     0
  0
LTYPE
  5
40
330
5
100
AcDbSymbolTableRecord
100
AcDbLinetypeTableRecord
  2
DOTTED
 70
     0
  3
Dotted
 72
    65
 73
     2
 40
1.0
 49
0.0
 74
     0
 49
-1.0
 74
     0
  0
LTYPE
  5
41
330
5
100
AcDbSymbolTableRecord
100
AcDbLinetypeTableRecord
  2
DOT_CENTER
 70
     0
  3
Dot_Center
 72
    65
 73
     4
 40
14.0
 49
12.0
 74
     0
 49
-1.0
 74
     0
 49
0.0
 74
     0
 49
-1.0
 74
     0
  0
LTYPE
  5
42
330
5
100
AcDbSymbolTableRecord
100
AcDbLinetypeTableRecord
  2
LONG_DASHED
 70
     0
  3
Long_Dashed
 72
    65
 73
     2
 40
15.0
 49
10.0
 74
     0
 49
-5.0
 74
     0
  0
LTYPE
  5
43
330
5
100
AcDbSymbolTableRecord
100
AcDbLinetypeTableRecord
  2
DASH_CENTER
 70
     0
  3
Dash_Center
 72
    65
 73
     4
 40
14.0
 49
11.0
 74
     0
 49
-1.0
 74
     0
 49
1.0
 74
     0
 49
-1.0
 74
     0
  0
LTYPE
  5
44
330
5
100
AcDbSymbolTableRecord
100
AcDbLinetypeTableRecord
  2
PHANTOM
 70
     0
  3
Phantom
 72
    65
 73
     6
 40
13.0
 49
10.0
 74
     0
 49
-1.0
 74
     0
 49
0.0
 74
     0
 49
-1.0
 74
     0
 49
0.0
 74
     0
 49
-1.0
 74
     0
  0
LTYPE
  5
45
330
5
100
AcDbSymbolTableRecord
100
AcDbLinetypeTableRecord
  2
CENTER_DASH_DASH
 70
     0
  3
Center_Dash_Dash
 72
    65
 73
     6
 40
14.0
 49
9.0
 74
     0
 49
-1.0
 74
     0
 49
1.0
 74
     0
 49
-1.0
 74
     0
 49
1.0
 74
     0
 49
-1.0
 74
     0
  0
ENDTAB
  0
TABLE
  2
LAYER
  5
2
330
0
100
AcDbSymbolTable
 70
     2
  0
LAYER
  5
10
330
2
100
AcDbSymbolTableRecord
100
AcDbLayerTableRecord
  2
0
 70
     0
 62
     7
  6
Continuous
370
    -3
390
F
  0
LAYER
  5
46
330
2
100
AcDbSymbolTableRecord
100
AcDbLayerTableRecord
  2
1
 70
     0
 62
     7
  6
Continuous
370
    -3
390
F
  0
ENDTAB
  0
TABLE
  2
STYLE
  5
3
330
0
100
AcDbSymbolTable
 70
     2
  0
STYLE
  5
11
330
3
100
AcDbSymbolTableRecord
100
AcDbTextStyleTableRecord
  2
Standard
 70
     0
 40
0.0
 41
1.0
 50
0.0
 71
     0
 42
0.2
  3
txt
  4

  0
STYLE
  5
AC
330
3
100
AcDbSymbolTableRecord
100
AcDbTextStyleTableRecord
  2
CONVERTER_11
 70
     0
 40
0.0
 41
0.9
 50
0.0
 71
     0
 42
0.2
  3
txt.shx
  4

  0
ENDTAB
  0
TABLE
  2
VIEW
  5
6
330
0
100
AcDbSymbolTable
 70
     0
  0
ENDTAB
  0
TABLE
  2
UCS
  5
7
330
0
100
AcDbSymbolTable
 70
     0
  0
ENDTAB
  0
TABLE
  2
APPID
  5
9
330
0
100
AcDbSymbolTable
 70
     1
  0
APPID
  5
12
330
9
100
AcDbSymbolTableRecord
100
AcDbRegAppTableRecord
  2
ACAD
 70
     0
  0
ENDTAB
  0
TABLE
  2
DIMSTYLE
  5
A
330
0
100
AcDbSymbolTable
 70
    10
100
AcDbDimStyleTable
  0
DIMSTYLE
105
27
330
A
100
AcDbSymbolTableRecord
100
AcDbDimStyleTableRecord
  2
Standard
 70
     0
178
     0
340
11
  0
DIMSTYLE
105
BB
102
{ACAD_REACTORS
330
BC
102
}
330
A
100
AcDbSymbolTableRecord
100
AcDbDimStyleTableRecord
  2
ME10_DIM_10
 70
     0
 41
5.0
 42
0.0
 44
2.0
 73
     0
 74
     0
 77
     1
 78
     8
140
5.0
147
2.0
172
     1
173
     1
174
     1
175
     1
176
     2
177
     2
271
     2
178
     3
271
     2
340
AC
  0
DIMSTYLE
105
C8
102
{ACAD_REACTORS
330
C9
102
}
330
A
100
AcDbSymbolTableRecord
100
AcDbDimStyleTableRecord
  2
ME10_DIM_11
 70
     0
 41
5.0
 42
0.0
 44
2.0
 73
     0
 74
     0
 77
     1
 78
     8
140
5.0
147
2.0
172
     1
173
     1
174
     1
175
     1
176
     2
177
     2
271
     2
178
     3
271
     2
340
AC
  0
DIMSTYLE
105
D5
102
{ACAD_REACTORS
330
D6
102
}
330
A
100
AcDbSymbolTableRecord
100
AcDbDimStyleTableRecord
  2
ME10_DIM_12
 70
     0
 41
5.0
 42
0.0
 44
2.0
 73
     0
 74
     0
 77
     1
 78
     8
140
5.0
147
2.0
172
     1
173
     1
174
     1
175
     1
176
     2
177
     2
271
     2
178
     3
271
     2
340
AC
  0
DIMSTYLE
105
E0
102
{ACAD_REACTORS
330
E1
102
}
330
A
100
AcDbSymbolTableRecord
100
AcDbDimStyleTableRecord
  2
ME10_DIM_13
 70
     0
  3
Ø<>
 41
5.0
 42
0.0
 44
2.0
 73
     0
 74
     0
 77
     1
 78
     8
140
5.0
147
2.0
172
     1
173
     1
174
     1
175
     1
176
     2
177
     2
271
     2
178
     3
271
     2
340
AC
  0
DIMSTYLE
105
EB
102
{ACAD_REACTORS
330
EC
102
}
330
A
100
AcDbSymbolTableRecord
100
AcDbDimStyleTableRecord
  2
ME10_DIM_14
 70
     0
  3
Ø<>
 41
5.0
 42
0.0
 44
2.0
 73
     0
 74
     0
 77
     1
 78
     8
140
5.0
147
2.0
172
     1
173
     1
174
     1
175
     1
176
     2
177
     2
271
     2
178
     3
271
     2
340
AC
  0
DIMSTYLE
105
F6
102
{ACAD_REACTORS
330
F7
102
}
330
A
100
AcDbSymbolTableRecord
100
AcDbDimStyleTableRecord
  2
ME10_DIM_15
 70
     0
  3
Ø<>
 41
5.0
 42
0.0
 44
2.0
 73
     0
 74
     0
 77
     1
 78
     8
140
5.0
147
2.0
172
     1
173
     1
174
     1
175
     1
176
     2
177
     2
271
     2
178
     3
271
     2
340
AC
  0
DIMSTYLE
105
103
102
{ACAD_REACTORS
330
104
102
}
330
A
100
AcDbSymbolTableRecord
100
AcDbDimStyleTableRecord
  2
ME10_DIM_16
 70
     0
 41
5.0
 42
0.0
 44
2.0
 73
     0
 74
     0
 77
     1
 78
     8
140
5.0
147
2.0
172
     1
173
     1
174
     1
175
     1
176
     2
177
     2
271
     2
178
     3
271
     2
340
AC
  0
DIMSTYLE
105
110
102
{ACAD_REACTORS
330
111
102
}
330
A
100
AcDbSymbolTableRecord
100
AcDbDimStyleTableRecord
  2
ME10_DIM_17
 70
     0
 41
5.0
 42
0.0
 44
2.0
 73
     0
 74
     0
 77
     1
 78
     8
140
5.0
147
2.0
172
     1
173
     1
174
     1
175
     1
176
     2
177
     2
271
     2
178
     3
271
     2
340
AC
  0
DIMSTYLE
105
11B
102
{ACAD_REACTORS
330
11C
102
}
330
A
100
AcDbSymbolTableRecord
100
AcDbDimStyleTableRecord
  2
ME10_DIM_18
 70
     0
 41
5.0
 42
0.0
 44
2.0
 73
     0
 74
     0
 77
     1
 78
     8
140
5.0
147
2.0
172
     1
173
     1
174
     1
175
     1
176
     2
177
     2
271
     2
178
     3
271
     2
340
AC
  0
ENDTAB
  0
TABLE
  2
BLOCK_RECORD
  5
1
330
0
100
AcDbSymbolTable
 70
    20
  0
BLOCK_RECORD
  5
1F
330
1
100
AcDbSymbolTableRecord
100
AcDbBlockTableRecord
  2
*Model_Space
340
22
  0
BLOCK_RECORD
  5
1B
330
1
100
AcDbSymbolTableRecord
100
AcDbBlockTableRecord
  2
*Paper_Space
340
1E
  0
BLOCK_RECORD
  5
23
330
1
100
AcDbSymbolTableRecord
100
AcDbBlockTableRecord
  2
*Paper_Space0
340
26
  0
BLOCK_RECORD
  5
47
330
1
100
AcDbSymbolTableRecord
100
AcDbBlockTableRecord
  2
1__1
340
0
102
{BLKREFS
331
4B
102
}
  0
BLOCK_RECORD
  5
4A
330
1
100
AcDbSymbolTableRecord
100
AcDbBlockTableRecord
  2
A-A__2
340
0
102
{BLKREFS
331
59
102
}
  0
BLOCK_RECORD
  5
4E
330
1
100
AcDbSymbolTableRecord
100
AcDbBlockTableRecord
  2
A-A__3
340
0
102
{BLKREFS
331
55
102
}
  0
BLOCK_RECORD
  5
51
330
1
100
AcDbSymbolTableRecord
100
AcDbBlockTableRecord
  2
1__4
340
0
102
{BLKREFS
331
56
102
}
  0
BLOCK_RECORD
  5
54
330
1
100
AcDbSymbolTableRecord
100
AcDbBlockTableRecord
  2
Face
340
0
102
{BLKREFS
331
5A
102
}
  0
BLOCK_RECORD
  5
B2
330
1
100
AcDbSymbolTableRecord
100
AcDbBlockTableRecord
  2
*D6
340
0
  0
BLOCK_RECORD
  5
BD
330
1
100
AcDbSymbolTableRecord
100
AcDbBlockTableRecord
  2
*D7
340
0
  0
BLOCK_RECORD
  5
CA
330
1
100
AcDbSymbolTableRecord
100
AcDbBlockTableRecord
  2
*D8
340
0
  0
BLOCK_RECORD
  5
D7
330
1
100
AcDbSymbolTableRecord
100
AcDbBlockTableRecord
  2
*D9
340
0
  0
BLOCK_RECORD
  5
E2
330
1
100
AcDbSymbolTableRecord
100
AcDbBlockTableRecord
  2
*D10
340
0
  0
BLOCK_RECORD
  5
ED
330
1
100
AcDbSymbolTableRecord
100
AcDbBlockTableRecord
  2
*D11
340
0
  0
BLOCK_RECORD
  5
F8
330
1
100
AcDbSymbolTableRecord
100
AcDbBlockTableRecord
  2
*D12
340
0
  0
BLOCK_RECORD
  5
105
330
1
100
AcDbSymbolTableRecord
100
AcDbBlockTableRecord
  2
*D13
340
0
  0
BLOCK_RECORD
  5
112
330
1
100
AcDbSymbolTableRecord
100
AcDbBlockTableRecord
  2
*D14
340
0
  0
BLOCK_RECORD
  5
11D
330
1
100
AcDbSymbolTableRecord
100
AcDbBlockTableRecord
  2
*D15
340
0
102
{BLKREFS
331
123
102
}
  0
BLOCK_RECORD
  5
124
330
1
100
AcDbSymbolTableRecord
100
AcDbBlockTableRecord
  2
*D16
340
0
102
{BLKREFS
331
12A
102
}
  0
BLOCK_RECORD
  5
12B
330
1
100
AcDbSymbolTableRecord
100
AcDbBlockTableRecord
  2
*D17
340
0
102
{BLKREFS
331
131
102
}
  0
BLOCK_RECORD
  5
132
330
1
100
AcDbSymbolTableRecord
100
AcDbBlockTableRecord
  2
*D18
340
0
102
{BLKREFS
331
139
102
}
  0
BLOCK_RECORD
  5
13A
330
1
100
AcDbSymbolTableRecord
100
AcDbBlockTableRecord
  2
*D19
340
0
102
{BLKREFS
331
143
102
}
  0
ENDTAB
  0
ENDSEC
  0
SECTION
  2
BLOCKS
  0
BLOCK
  5
20
330
1F
100
AcDbEntity
  8
0
100
AcDbBlockBegin
  2
*Model_Space
 70
     0
 10
0.0
 20
0.0
 30
0.0
  3
*Model_Space
  1

  0
ENDBLK
  5
21
330
1F
100
AcDbEntity
  8
0
100
AcDbBlockEnd
  0
BLOCK
  5
1C
330
1B
100
AcDbEntity
 67
     1
  8
0
100
AcDbBlockBegin
  2
*Paper_Space
 70
     0
 10
0.0
 20
0.0
 30
0.0
  3
*Paper_Space
  1

  0
ENDBLK
  5
1D
330
1B
100
AcDbEntity
 67
     1
  8
0
100
AcDbBlockEnd
  0
BLOCK
  5
24
330
23
100
AcDbEntity
  8
0
100
AcDbBlockBegin
  2
*Paper_Space0
 70
     0
 10
0.0
 20
0.0
 30
0.0
  3
*Paper_Space0
  1

  0
ENDBLK
  5
25
330
23
100
AcDbEntity
  8
0
100
AcDbBlockEnd
  0
BLOCK
  5
48
330
47
100
AcDbEntity
  8
0
100
AcDbBlockBegin
  2
1__1
 70
     0
 10
737.4999999999299
 20
273.328485
 30
0.0
  3
1__1
  1

  0
LINE
  5
5B
330
47
100
AcDbEntity
  8
1
  6
DOT_CENTER
 62
     2
100
AcDbLine
 10
738.5000000001162
 20
365.9999999999834
 30
0.0
 11
737.4999999999438
 21
365.9999999999834
 31
0.0
  0
LINE
  5
5C
330
47
100
AcDbEntity
  8
1
  6
DOT_CENTER
 62
     2
100
AcDbLine
 10
748.9999999999561
 20
365.9999999999963
 30
0.0
 11
755.0000000001039
 21
365.9999999999963
 31
0.0
  0
LINE
  5
5D
330
47
100
AcDbEntity
  8
1
  6
DOT_CENTER
 62
     2
100
AcDbLine
 10
739.49999999995
 20
365.9999999999846
 30
0.0
 11
745.00000000011
 21
365.9999999999846
 31
0.0
  0
LINE
  5
5E
330
47
100
AcDbEntity
  8
1
  6
DOT_CENTER
 62
     2
100
AcDbLine
 10
766.5000000001162
 20
366.0000000000179
 30
0.0
 11
765.4999999999438
 21
366.0000000000179
 31
0.0
  0
LINE
  5
5F
330
47
100
AcDbEntity
  8
1
  6
DOT_CENTER
 62
     2
100
AcDbLine
 10
758.99999999995
 20
366.0000000000086
 30
0.0
 11
764.50000000011
 21
366.0000000000086
 31
0.0
  0
LINE
  5
60
330
47
100
AcDbEntity
  8
0
  6
Continuous
 62
     4
100
AcDbLine
 10
755.00000000003
 20
366.0000000000039
 30
0.0
 11
754.9999999999561
 21
426.0000000000037
 31
0.0
  0
LINE
  5
61
102
{ACAD_REACTORS
330
A5
102
}
330
47
100
AcDbEntity
  8
0
  6
Continuous
 62
   250
100
AcDbLine
 10
758.99999999995
 20
431.0000000000086
 30
0.0
 11
764.49999999995
 21
431.0000000000154
 31
0.0
  0
LINE
  5
62
330
47
100
AcDbEntity
  8
0
  6
Continuous
 62
     4
100
AcDbLine
 10
764.50000000003
 20
366.0000000000156
 30
0.0
 11
764.49999999995
 21
431.0000000000154
 31
0.0
  0
LINE
  5
63
330
47
100
AcDbEntity
  8
0
  6
Continuous
 62
     4
100
AcDbLine
 10
759.00000000003
 20
366.0000000000088
 30
0.0
 11
758.99999999995
 21
431.0000000000086
 31
0.0
  0
LINE
  5
64
330
47
100
AcDbEntity
  8
0
  6
Continuous
 62
   250
100
AcDbLine
 10
757.00000000003
 20
366.0000000000063
 30
0.0
 11
756.9999999999536
 21
428.0000000000061
 31
0.0
  0
LINE
  5
65
102
{ACAD_REACTORS
330
A5
102
}
330
47
100
AcDbEntity
  8
0
  6
Continuous
 62
   250
100
AcDbLine
 10
756.9999999999536
 20
428.0000000000061
 30
0.0
 11
756.9999999999525
 21
429.0000000000061
 31
0.0
  0
LINE
  5
66
102
{ACAD_REACTORS
330
A5
102
}
330
47
100
AcDbEntity
  8
0
  6
Continuous
 62
   250
100
AcDbLine
 10
766.4999999999299
 20
447.3131840265592
 30
0.0
 11
766.4999999999426
 21
437.0000000000179
 31
0.0
  0
LINE
  5
67
330
47
100
AcDbEntity
  8
0
  6
Continuous
 62
   250
100
AcDbLine
 10
766.5000000001124
 20
299.0000000000179
 30
0.0
 11
766.50000000003
 21
366.000000000018
 31
0.0
  0
LINE
  5
68
330
47
100
AcDbEntity
  8
0
  6
Continuous
 62
   250
100
AcDbLine
 10
766.50000000003
 20
366.000000000018
 30
0.0
 11
766.4999999999475
 21
433.0000000000179
 31
0.0
  0
LINE
  5
69
102
{ACAD_REACTORS
330
A4
102
}
330
47
100
AcDbEntity
  8
0
  6
Continuous
 62
   250
100
AcDbLine
 10
766.5000000001124
 20
299.0000000000179
 30
0.0
 11
766.5000000001162
 21
296.0000000000179
 31
0.0
  0
LINE
  5
6A
330
47
100
AcDbEntity
  8
0
  6
Continuous
 62
   250
100
AcDbLine
 10
766.5000000001162
 20
296.0000000000179
 30
0.0
 11
766.5000000001174
 21
295.0000000000179
 31
0.0
  0
LINE
  5
6B
102
{ACAD_REACTORS
330
A4
102
}
330
47
100
AcDbEntity
  8
0
  6
Continuous
 62
   250
100
AcDbLine
 10
766.5000000001162
 20
296.0000000000179
 30
0.0
 11
765.5000000001162
 21
296.0000000000166
 31
0.0
  0
LINE
  5
6C
330
47
100
AcDbEntity
  8
0
  6
Continuous
 62
     4
100
AcDbLine
 10
745.00000000011
 20
300.9999999999914
 30
0.0
 11
745.00000000003
 21
365.9999999999916
 31
0.0
  0
LINE
  5
6D
330
47
100
AcDbEntity
  8
0
  6
Continuous
 62
     4
100
AcDbLine
 10
745.00000000003
 20
365.9999999999916
 30
0.0
 11
744.99999999995
 21
430.9999999999914
 31
0.0
  0
LINE
  5
6E
330
47
100
AcDbEntity
  8
0
  6
Continuous
 62
   250
100
AcDbLine
 10
747.00000000003
 20
365.999999999994
 30
0.0
 11
746.9999999999536
 21
427.9999999999939
 31
0.0
  0
LINE
  5
6F
330
47
100
AcDbEntity
  8
0
  6
Continuous
 62
     4
100
AcDbLine
 10
749.00000000003
 20
365.9999999999965
 30
0.0
 11
748.9999999999561
 21
425.9999999999963
 31
0.0
  0
LINE
  5
70
102
{ACAD_REACTORS
330
A5
102
}
330
47
100
AcDbEntity
  8
0
  6
Continuous
 62
   250
100
AcDbLine
 10
748.9999999999561
 20
425.9999999999963
 30
0.0
 11
754.9999999999561
 21
426.0000000000037
 31
0.0
  0
LINE
  5
71
102
{ACAD_REACTORS
330
A5
102
}
330
47
100
AcDbEntity
  8
0
  6
Continuous
 62
   250
100
AcDbLine
 10
766.4999999999438
 20
436.0000000000179
 30
0.0
 11
766.4999999999475
 21
433.0000000000179
 31
0.0
  0
LINE
  5
72
330
47
100
AcDbEntity
  8
0
  6
Continuous
 62
   250
100
AcDbLine
 10
766.4999999999426
 20
437.0000000000179
 30
0.0
 11
766.4999999999438
 21
436.0000000000179
 31
0.0
  0
LINE
  5
73
102
{ACAD_REACTORS
330
A5
102
}
330
47
100
AcDbEntity
  8
0
  6
Continuous
 62
   250
100
AcDbLine
 10
766.4999999999438
 20
436.0000000000179
 30
0.0
 11
765.4999999999438
 21
436.0000000000166
 31
0.0
  0
LINE
  5
74
102
{ACAD_REACTORS
330
A5
102
}
330
47
100
AcDbEntity
  8
0
  6
Continuous
 62
   250
100
AcDbLine
 10
746.9999999999525
 20
428.9999999999939
 30
0.0
 11
746.9999999999536
 21
427.9999999999939
 31
0.0
  0
LINE
  5
75
102
{ACAD_REACTORS
330
A4
102
}
330
47
100
AcDbEntity
  8
0
  6
Continuous
 62
   250
100
AcDbLine
 10
737.5000000001301
 20
284.6868159734409
 30
0.0
 11
737.5000000001174
 21
294.9999999999822
 31
0.0
  0
LINE
  5
76
330
47
100
AcDbEntity
  8
0
  6
Continuous
 62
     4
100
AcDbLine
 10
739.50000000003
 20
365.9999999999848
 30
0.0
 11
739.49999999995
 21
430.9999999999846
 31
0.0
  0
LINE
  5
77
330
47
100
AcDbEntity
  8
0
  6
Continuous
 62
     4
100
AcDbLine
 10
739.50000000011
 20
300.9999999999846
 30
0.0
 11
739.50000000003
 21
365.9999999999848
 31
0.0
  0
LINE
  5
78
330
47
100
AcDbEntity
  8
0
  6
Continuous
 62
   250
100
AcDbLine
 10
737.4999999999475
 20
432.9999999999822
 30
0.0
 11
737.50000000003
 21
365.9999999999823
 31
0.0
  0
LINE
  5
79
102
{ACAD_REACTORS
330
A4
102
}
330
47
100
AcDbEntity
  8
0
  6
Continuous
 62
   250
100
AcDbLine
 10
737.5000000001124
 20
298.9999999999822
 30
0.0
 11
737.5000000001162
 21
295.9999999999822
 31
0.0
  0
LINE
  5
7A
330
47
100
AcDbEntity
  8
0
  6
Continuous
 62
   250
100
AcDbLine
 10
737.5000000001162
 20
295.9999999999822
 30
0.0
 11
737.5000000001174
 21
294.9999999999822
 31
0.0
  0
LINE
  5
7B
330
47
100
AcDbEntity
  8
0
  6
Continuous
 62
   250
100
AcDbLine
 10
737.50000000003
 20
365.9999999999823
 30
0.0
 11
737.5000000001124
 21
298.9999999999822
 31
0.0
  0
LINE
  5
7C
102
{ACAD_REACTORS
330
A5
102
}
330
47
100
AcDbEntity
  8
0
  6
Continuous
 62
   250
100
AcDbLine
 10
737.4999999999438
 20
435.9999999999822
 30
0.0
 11
737.4999999999475
 21
432.9999999999822
 31
0.0
  0
LINE
  5
7D
330
47
100
AcDbEntity
  8
0
  6
Continuous
 62
   250
100
AcDbLine
 10
737.4999999999426
 20
436.9999999999822
 30
0.0
 11
737.4999999999438
 21
435.9999999999822
 31
0.0
  0
LINE
  5
7E
102
{ACAD_REACTORS
330
A4
102
}
330
47
100
AcDbEntity
  8
0
  6
Continuous
 62
   250
100
AcDbLine
 10
738.5000000001162
 20
295.9999999999834
 30
0.0
 11
737.5000000001162
 21
295.9999999999822
 31
0.0
  0
LINE
  5
7F
102
{ACAD_REACTORS
330
A5
102
}
330
47
100
AcDbEntity
  8
0
  6
Continuous
 62
   250
100
AcDbLine
 10
738.4999999999438
 20
435.9999999999834
 30
0.0
 11
737.4999999999438
 21
435.9999999999822
 31
0.0
  0
LINE
  5
80
330
47
100
AcDbEntity
  8
0
  6
Continuous
 62
     4
100
AcDbLine
 10
755.0000000001039
 20
306.0000000000037
 30
0.0
 11
755.00000000003
 21
366.0000000000039
 31
0.0
  0
LINE
  5
81
330
47
100
AcDbEntity
  8
0
  6
Continuous
 62
     4
100
AcDbLine
 10
764.50000000011
 20
301.0000000000154
 30
0.0
 11
764.50000000003
 21
366.0000000000156
 31
0.0
  0
LINE
  5
82
102
{ACAD_REACTORS
330
A4
102
}
330
47
100
AcDbEntity
  8
0
  6
Continuous
 62
   250
100
AcDbLine
 10
759.00000000011
 20
301.0000000000086
 30
0.0
 11
764.50000000011
 21
301.0000000000154
 31
0.0
  0
LINE
  5
83
330
47
100
AcDbEntity
  8
0
  6
Continuous
 62
     4
100
AcDbLine
 10
759.00000000011
 20
301.0000000000086
 30
0.0
 11
759.00000000003
 21
366.0000000000088
 31
0.0
  0
LINE
  5
84
330
47
100
AcDbEntity
  8
0
  6
Continuous
 62
   250
100
AcDbLine
 10
757.0000000001063
 20
304.0000000000061
 30
0.0
 11
757.00000000003
 21
366.0000000000063
 31
0.0
  0
LINE
  5
85
102
{ACAD_REACTORS
330
A4
102
}
330
47
100
AcDbEntity
  8
0
  6
Continuous
 62
   250
100
AcDbLine
 10
757.0000000001075
 20
303.0000000000061
 30
0.0
 11
757.0000000001063
 21
304.0000000000061
 31
0.0
  0
LINE
  5
86
330
47
100
AcDbEntity
  8
0
  6
Continuous
 62
   250
100
AcDbLine
 10
747.0000000001063
 20
303.9999999999939
 30
0.0
 11
747.00000000003
 21
365.999999999994
 31
0.0
  0
LINE
  5
87
330
47
100
AcDbEntity
  8
0
  6
Continuous
 62
     4
100
AcDbLine
 10
749.0000000001039
 20
305.9999999999963
 30
0.0
 11
749.00000000003
 21
365.9999999999965
 31
0.0
  0
LINE
  5
88
102
{ACAD_REACTORS
330
A4
102
}
330
47
100
AcDbEntity
  8
0
  6
Continuous
 62
   250
100
AcDbLine
 10
739.50000000011
 20
300.9999999999846
 30
0.0
 11
745.00000000011
 21
300.9999999999914
 31
0.0
  0
LINE
  5
89
102
{ACAD_REACTORS
330
A4
102
}
330
47
100
AcDbEntity
  8
0
  6
Continuous
 62
   250
100
AcDbLine
 10
749.0000000001039
 20
305.9999999999963
 30
0.0
 11
755.0000000001039
 21
306.0000000000037
 31
0.0
  0
LINE
  5
8A
102
{ACAD_REACTORS
330
A4
102
}
330
47
100
AcDbEntity
  8
0
  6
Continuous
 62
   250
100
AcDbLine
 10
747.0000000001063
 20
303.9999999999939
 30
0.0
 11
747.0000000001075
 21
302.9999999999939
 31
0.0
  0
LINE
  5
8B
102
{ACAD_REACTORS
330
A4
102
}
330
47
100
AcDbEntity
  8
0
  6
Continuous
 62
   250
100
AcDbLine
 10
766.5000000001174
 20
295.0000000000179
 30
0.0
 11
766.5000000001301
 21
284.6868159734765
 31
0.0
  0
LINE
  5
8C
102
{ACAD_REACTORS
330
A5
102
}
330
47
100
AcDbEntity
  8
0
  6
Continuous
 62
   250
100
AcDbLine
 10
739.49999999995
 20
430.9999999999846
 30
0.0
 11
744.99999999995
 21
430.9999999999914
 31
0.0
  0
LINE
  5
8D
102
{ACAD_REACTORS
330
A5
102
}
330
47
100
AcDbEntity
  8
0
  6
Continuous
 62
   250
100
AcDbLine
 10
737.4999999999426
 20
436.9999999999822
 30
0.0
 11
737.4999999999299
 21
447.3131840265234
 31
0.0
  0
ARC
  5
8E
102
{ACAD_REACTORS
330
A4
102
}
330
47
100
AcDbEntity
  8
0
  6
Continuous
 62
   250
100
AcDbCircle
 10
748.5000000001301
 20
284.6868159734544
 30
0.0
 40
11.0
100
AcDbArc
 50
180.0000000000702
 51
258.3088186647912
  0
ARC
  5
8F
102
{ACAD_REACTORS
330
A5
102
}
330
47
100
AcDbEntity
  8
0
  6
Continuous
 62
   250
100
AcDbCircle
 10
758.9999999999525
 20
429.0000000000086
 30
0.0
 40
2.0
100
AcDbArc
 50
90.00000000007164
 51
180.0000000000717
  0
ARC
  5
90
102
{ACAD_REACTORS
330
A5
102
}
330
47
100
AcDbEntity
  8
0
  6
Continuous
 62
   250
100
AcDbCircle
 10
754.9999999999536
 20
428.0000000000037
 30
0.0
 40
2.0
100
AcDbArc
 50
270.0000000000717
 51
0.00000000006839
  0
ARC
  5
91
102
{ACAD_REACTORS
330
A4
102
}
330
47
100
AcDbEntity
  8
0
  6
Continuous
 62
   250
100
AcDbCircle
 10
766.5000000001162
 20
296.0000000000179
 30
0.0
 40
1.0
100
AcDbArc
 50
180.0000000000749
 51
270.0000000000717
  0
ARC
  5
92
102
{ACAD_REACTORS
330
A5
102
}
330
47
100
AcDbEntity
  8
0
  6
Continuous
 62
   250
100
AcDbCircle
 10
764.4999999999475
 20
433.0000000000154
 30
0.0
 40
2.0
100
AcDbArc
 50
270.0000000000717
 51
0.00000000007165
  0
ARC
  5
93
102
{ACAD_REACTORS
330
A4
102
}
330
47
100
AcDbEntity
  8
0
  6
Continuous
 62
   250
100
AcDbCircle
 10
764.5000000001124
 20
299.0000000000154
 30
0.0
 40
2.0
100
AcDbArc
 50
0.00000000007165
 51
90.00000000006838
  0
ARC
  5
94
102
{ACAD_REACTORS
330
A5
102
}
330
47
100
AcDbEntity
  8
0
  6
Continuous
 62
   250
100
AcDbCircle
 10
755.4999999999299
 20
447.3131840265456
 30
0.0
 40
11.0
100
AcDbArc
 50
0.00000000007076
 51
78.30881866479076
  0
ARC
  5
95
102
{ACAD_REACTORS
330
A5
102
}
330
47
100
AcDbEntity
  8
0
  6
Continuous
 62
   250
100
AcDbCircle
 10
766.4999999999438
 20
436.0000000000179
 30
0.0
 40
1.0
100
AcDbArc
 50
90.00000000007164
 51
180.0000000000749
  0
ARC
  5
96
102
{ACAD_REACTORS
330
A5
102
}
330
47
100
AcDbEntity
  8
0
  6
Continuous
 62
   250
100
AcDbCircle
 10
748.9999999999536
 20
427.9999999999963
 30
0.0
 40
2.0
100
AcDbArc
 50
180.0000000000684
 51
270.0000000000717
  0
ARC
  5
97
102
{ACAD_REACTORS
330
A4
102
}
330
47
100
AcDbEntity
  8
0
  6
Continuous
 62
   250
100
AcDbCircle
 10
739.5000000001124
 20
298.9999999999846
 30
0.0
 40
2.0
100
AcDbArc
 50
90.00000000006838
 51
180.0000000000684
  0
ARC
  5
98
102
{ACAD_REACTORS
330
A5
102
}
330
47
100
AcDbEntity
  8
0
  6
Continuous
 62
   250
100
AcDbCircle
 10
737.4999999999438
 20
435.9999999999822
 30
0.0
 40
1.0
100
AcDbArc
 50
0.00000000006839
 51
90.00000000007164
  0
ARC
  5
99
102
{ACAD_REACTORS
330
A4
102
}
330
47
100
AcDbEntity
  8
0
  6
Continuous
 62
   250
100
AcDbCircle
 10
737.5000000001162
 20
295.9999999999822
 30
0.0
 40
1.0
100
AcDbArc
 50
270.0000000000717
 51
0.00000000006839
  0
ARC
  5
9A
102
{ACAD_REACTORS
330
A5
102
}
330
47
100
AcDbEntity
  8
0
  6
Continuous
 62
   250
100
AcDbCircle
 10
739.4999999999475
 20
432.9999999999846
 30
0.0
 40
2.0
100
AcDbArc
 50
180.0000000000684
 51
270.0000000000717
  0
ARC
  5
9B
102
{ACAD_REACTORS
330
A4
102
}
330
47
100
AcDbEntity
  8
0
  6
Continuous
 62
   250
100
AcDbCircle
 10
755.0000000001063
 20
304.0000000000037
 30
0.0
 40
2.0
100
AcDbArc
 50
0.00000000006839
 51
90.00000000006838
  0
ARC
  5
9C
102
{ACAD_REACTORS
330
A4
102
}
330
47
100
AcDbEntity
  8
0
  6
Continuous
 62
   250
100
AcDbCircle
 10
755.5000000001301
 20
284.686815973463
 30
0.0
 40
10.99999999999996
100
AcDbArc
 50
281.6911813353502
 51
0.00000000007017
  0
ARC
  5
9D
102
{ACAD_REACTORS
330
A4
102
}
330
47
100
AcDbEntity
  8
0
  6
Continuous
 62
   250
100
AcDbCircle
 10
752.0000000001093
 20
301.6007863127497
 30
0.0
 40
28.27230131274964
100
AcDbArc
 50
258.308818664791
 51
281.6911813353501
  0
ARC
  5
9E
102
{ACAD_REACTORS
330
A4
102
}
330
47
100
AcDbEntity
  8
0
  6
Continuous
 62
   250
100
AcDbCircle
 10
759.0000000001075
 20
303.0000000000086
 30
0.0
 40
2.0
100
AcDbArc
 50
180.0000000000717
 51
270.0000000000717
  0
ARC
  5
9F
102
{ACAD_REACTORS
330
A4
102
}
330
47
100
AcDbEntity
  8
0
  6
Continuous
 62
   250
100
AcDbCircle
 10
745.0000000001075
 20
302.9999999999914
 30
0.0
 40
2.0
100
AcDbArc
 50
270.0000000000717
 51
0.00000000007165
  0
ARC
  5
A0
102
{ACAD_REACTORS
330
A4
102
}
330
47
100
AcDbEntity
  8
0
  6
Continuous
 62
   250
100
AcDbCircle
 10
749.0000000001063
 20
303.9999999999963
 30
0.0
 40
2.0
100
AcDbArc
 50
90.00000000006838
 51
180.0000000000684
  0
ARC
  5
A1
102
{ACAD_REACTORS
330
A5
102
}
330
47
100
AcDbEntity
  8
0
  6
Continuous
 62
   250
100
AcDbCircle
 10
748.4999999999299
 20
447.313184026537
 30
0.0
 40
11.00000000000007
100
AcDbArc
 50
101.6911813353501
 51
180.0000000000707
  0
ARC
  5
A2
102
{ACAD_REACTORS
330
A5
102
}
330
47
100
AcDbEntity
  8
0
  6
Continuous
 62
   250
100
AcDbCircle
 10
751.9999999999508
 20
430.3992136872503
 30
0.0
 40
28.27230131274975
100
AcDbArc
 50
78.30881866479109
 51
101.6911813353503
  0
ARC
  5
A3
102
{ACAD_REACTORS
330
A5
102
}
330
47
100
AcDbEntity
  8
0
  6
Continuous
 62
   250
100
AcDbCircle
 10
744.9999999999525
 20
428.9999999999914
 30
0.0
 40
2.0
100
AcDbArc
 50
0.00000000007165
 51
90.00000000007164
  0
HATCH
  5
A4
330
47
100
AcDbEntity
  8
0
  6
Continuous
 62
   253
100
AcDbHatch
 10
0.0
 20
0.0
 30
0.0
210
0.0
220
0.0
230
1.0
  2
_USER
 70
     0
 71
     1
 91
        1
 92
        1
 93
       22
 72
     2
 10
752.0000000001093
 20
301.6007863127497
 40
28.27230131274964
 50
258.308818664791
 51
281.6911813353501
 73
     1
 72
     2
 10
755.5000000001301
 20
284.686815973463
 40
10.99999999999996
 50
281.6911813353502
 51
360.0000000000702
 73
     1
 72
     1
 10
766.5000000001301
 20
284.6868159734765
 11
766.5000000001174
 21
295.0000000000179
 72
     2
 10
766.5000000001162
 20
296.0000000000179
 40
1.0
 50
89.99999999992835
 51
179.9999999999251
 73
     0
 72
     1
 10
765.5000000001162
 20
296.0000000000166
 11
766.5000000001162
 21
296.0000000000179
 72
     1
 10
766.5000000001162
 20
296.0000000000179
 11
766.5000000001124
 21
299.0000000000179
 72
     2
 10
764.5000000001124
 20
299.0000000000154
 40
2.0
 50
0.0000000000716515
 51
90.00000000006838
 73
     1
 72
     1
 10
764.50000000011
 20
301.0000000000154
 11
759.00000000011
 21
301.0000000000086
 72
     2
 10
759.0000000001075
 20
303.0000000000086
 40
2.0
 50
89.99999999992835
 51
179.9999999999283
 73
     0
 72
     1
 10
757.0000000001075
 20
303.0000000000061
 11
757.0000000001063
 21
304.0000000000061
 72
     2
 10
755.0000000001063
 20
304.0000000000037
 40
2.0
 50
0.0000000000683946
 51
90.00000000006838
 73
     1
 72
     1
 10
755.0000000001039
 20
306.0000000000037
 11
749.0000000001039
 21
305.9999999999963
 72
     2
 10
749.0000000001063
 20
303.9999999999963
 40
2.0
 50
90.00000000006838
 51
180.0000000000684
 73
     1
 72
     1
 10
747.0000000001063
 20
303.9999999999939
 11
747.0000000001075
 21
302.9999999999939
 72
     2
 10
745.0000000001075
 20
302.9999999999914
 40
2.0
 50
359.9999999999283
 51
449.9999999999284
 73
     0
 72
     1
 10
745.00000000011
 20
300.9999999999914
 11
739.50000000011
 21
300.9999999999846
 72
     2
 10
739.5000000001124
 20
298.9999999999846
 40
2.0
 50
90.00000000006838
 51
180.0000000000684
 73
     1
 72
     1
 10
737.5000000001124
 20
298.9999999999822
 11
737.5000000001162
 21
295.9999999999822
 72
     1
 10
737.5000000001162
 20
295.9999999999822
 11
738.5000000001162
 21
295.9999999999834
 72
     2
 10
737.5000000001162
 20
295.9999999999822
 40
1.0
 50
359.9999999999316
 51
449.9999999999284
 73
     0
 72
     1
 10
737.5000000001174
 20
294.9999999999822
 11
737.5000000001301
 21
284.6868159734409
 72
     2
 10
748.5000000001301
 20
284.6868159734544
 40
11.0
 50
180.0000000000702
 51
258.3088186647912
 73
     1
 97
       22
330
9D
330
9C
330
8B
330
91
330
6B
330
69
330
93
330
82
330
9E
330
85
330
9B
330
89
330
A0
330
8A
330
9F
330
88
330
97
330
79
330
7E
330
99
330
75
330
8E
 75
     1
 76
     0
 52
135.0
 41
5.0
 77
     0
 78
     1
 53
135.0
 43
0.0
 44
0.0
 45
-3.535533905932738
 46
-3.535533905932737
 79
     0
 98
        1
 10
0.0
 20
0.0
  0
HATCH
  5
A5
330
47
100
AcDbEntity
  8
0
  6
Continuous
 62
   253
100
AcDbHatch
 10
0.0
 20
0.0
 30
0.0
210
0.0
220
0.0
230
1.0
  2
_USER
 70
     0
 71
     1
 91
        1
 92
        1
 93
       22
 72
     1
 10
758.99999999995
 20
431.0000000000086
 11
764.49999999995
 21
431.0000000000154
 72
     2
 10
764.4999999999475
 20
433.0000000000154
 40
2.0
 50
270.0000000000717
 51
360.0000000000716
 73
     1
 72
     1
 10
766.4999999999475
 20
433.0000000000179
 11
766.4999999999438
 21
436.0000000000179
 72
     1
 10
766.4999999999438
 20
436.0000000000179
 11
765.4999999999438
 21
436.0000000000166
 72
     2
 10
766.4999999999438
 20
436.0000000000179
 40
1.0
 50
179.9999999999251
 51
269.9999999999283
 73
     0
 72
     1
 10
766.4999999999426
 20
437.0000000000179
 11
766.4999999999299
 21
447.3131840265592
 72
     2
 10
755.4999999999299
 20
447.3131840265456
 40
11.0
 50
0.0000000000707633
 51
78.30881866479076
 73
     1
 72
     2
 10
751.9999999999508
 20
430.3992136872503
 40
28.27230131274975
 50
78.30881866479109
 51
101.6911813353503
 73
     1
 72
     2
 10
748.4999999999299
 20
447.313184026537
 40
11.00000000000007
 50
101.6911813353501
 51
180.0000000000707
 73
     1
 72
     1
 10
737.4999999999299
 20
447.3131840265234
 11
737.4999999999426
 21
436.9999999999822
 72
     2
 10
737.4999999999438
 20
435.9999999999822
 40
1.0
 50
269.9999999999283
 51
359.9999999999316
 73
     0
 72
     1
 10
738.4999999999438
 20
435.9999999999834
 11
737.4999999999438
 21
435.9999999999822
 72
     1
 10
737.4999999999438
 20
435.9999999999822
 11
737.4999999999475
 21
432.9999999999822
 72
     2
 10
739.4999999999475
 20
432.9999999999846
 40
2.0
 50
180.0000000000684
 51
270.0000000000717
 73
     1
 72
     1
 10
739.49999999995
 20
430.9999999999846
 11
744.99999999995
 21
430.9999999999914
 72
     2
 10
744.9999999999525
 20
428.9999999999914
 40
2.0
 50
269.9999999999283
 51
359.9999999999283
 73
     0
 72
     1
 10
746.9999999999525
 20
428.9999999999939
 11
746.9999999999536
 21
427.9999999999939
 72
     2
 10
748.9999999999536
 20
427.9999999999963
 40
2.0
 50
180.0000000000684
 51
270.0000000000717
 73
     1
 72
     1
 10
748.9999999999561
 20
425.9999999999963
 11
754.9999999999561
 21
426.0000000000037
 72
     2
 10
754.9999999999536
 20
428.0000000000037
 40
2.0
 50
270.0000000000717
 51
360.0000000000684
 73
     1
 72
     1
 10
756.9999999999536
 20
428.0000000000061
 11
756.9999999999525
 21
429.0000000000061
 72
     2
 10
758.9999999999525
 20
429.0000000000086
 40
2.0
 50
179.9999999999283
 51
269.9999999999283
 73
     0
 97
       22
330
65
330
90
330
70
330
96
330
74
330
A3
330
8C
330
9A
330
7C
330
7F
330
98
330
8D
330
A1
330
A2
330
94
330
66
330
95
330
73
330
71
330
92
330
61
330
8F
 75
     1
 76
     0
 52
135.0
 41
5.0
 77
     0
 78
     1
 53
135.0
 43
0.0
 44
0.0
 45
-3.535533905932738
 46
-3.535533905932737
 79
     0
 98
        1
 10
0.0
 20
0.0
  0
ENDBLK
  5
49
330
47
100
AcDbEntity
  8
0
100
AcDbBlockEnd
  0
BLOCK
  5
4C
330
4A
100
AcDbEntity
  8
0
100
AcDbBlockBegin
  2
A-A__2
 70
     0
 10
752.0
 20
366.0
 30
0.0
  3
A-A__2
  1

  0
INSERT
  5
4B
330
4A
100
AcDbEntity
  8
0
100
AcDbBlockReference
  2
1__1
 10
737.4999999999299
 20
273.328485
 30
0.0
  0
LINE
  5
A6
330
4A
100
AcDbEntity
  8
1
  6
Continuous
 62
   250
100
AcDbLine
 10
461.30533534415
 20
241.765532150728
 30
0.0
 11
461.30533534415
 21
592.765532150728
 31
0.0
  0
LINE
  5
A7
330
4A
100
AcDbEntity
  8
1
  6
Continuous
 62
   250
100
AcDbLine
 10
1059.30533534415
 20
241.765532150728
 30
0.0
 11
461.30533534415
 21
241.765532150728
 31
0.0
  0
LINE
  5
A8
330
4A
100
AcDbEntity
  8
1
  6
Continuous
 62
   250
100
AcDbLine
 10
1059.30533534415
 20
592.765532150728
 30
0.0
 11
1059.30533534415
 21
241.765532150728
 31
0.0
  0
LINE
  5
A9
330
4A
100
AcDbEntity
  8
1
  6
Continuous
 62
   250
100
AcDbLine
 10
461.30533534415
 20
592.765532150728
 30
0.0
 11
1059.30533534415
 21
592.765532150728
 31
0.0
  0
SOLID
  5
AA
330
4A
100
AcDbEntity
  8
1
 62
     2
100
AcDbTrace
 10
770.9266960779509
 20
439.4161273426824
 30
0.0
 11
771.4011998384979
 21
438.1880865480315
 31
0.0
 12
766.4999999999426
 22
437.0000000000179
 32
0.0
 13
766.4999999999426
 23
437.0000000000179
 33
0.0
  0
LEADER
  5
AB
330
4A
100
AcDbEntity
  8
1
  6
Continuous
 62
     2
100
AcDbLeader
  3
Standard
 71
     0
 76
     2
 10
766.4999999999426
 20
437.0000000000179
 30
0.0
 10
813.851628666512
 20
455.296237362964
 30
0.0
  0
MTEXT
  5
AD
330
4A
100
AcDbEntity
  8
1
 62
     3
100
AcDbMText
 10
814.780137578886
 20
455.750413608712
 30
0.0
 40
5.0
 41
0.0
 71
     7
 72
     1
  1
gorge non fonctionnel\P\U+00e0 r\U+00e9aliser par exemple avec la pointe d'une plaquette droite
  7
CONVERTER_11
 73
     1
 44
1.20048019207683
  0
MTEXT
  5
AE
330
4A
100
AcDbEntity
  8
1
 62
     3
100
AcDbMText
 10
984.387666457632
 20
509.02379763742
 30
0.0
 40
10.0
 41
0.0
 71
     7
 72
     1
  1
mati\U+00e8re : \P- alu \Pou\P- inox
  7
CONVERTER_11
 73
     1
 44
1.20048019207683
  0
MTEXT
  5
AF
330
4A
100
AcDbEntity
  8
1
 62
     3
100
AcDbMText
 10
785.01627192001
 20
286.197348869184
 30
0.0
 40
5.0
 41
0.0
 71
     7
 72
     1
  1
R2 non pr\U+00e9cis, peux \U+00eatre r\U+00e9aliser en conventionnel voir \U+00e0 la main
  7
CONVERTER_11
 73
     1
 44
1.20048019207683
  0
TEXT
  5
B0
330
4A
100
AcDbEntity
  8
1
 62
     3
100
AcDbText
 10
772.125361258744
 20
489.333022821852
 30
0.0
 40
5.0
  1
R28 Peux devenir plat
 41
0.9
  7
CONVERTER_11
100
AcDbText
  0
MTEXT
  5
B1
330
4A
100
AcDbEntity
  8
1
 62
     7
100
AcDbMText
 10
752.00000000003
 20
554.671515
 30
0.0
 40
8.0
 41
0.0
 71
     8
 72
     1
  1
Cross-section A-A
  7
CONVERTER_11
 73
     1
 44
1.20048019207683
  0
DIMENSION
  5
BC
330
4A
100
AcDbEntity
  8
1
100
AcDbDimension
  2
*D6
 10
826.9529228175545
 20
436.0000000000923
 30
0.0
 11
831.4529228176407
 21
366.0000000000978
 31
0.0
 70
    33
  1
<>
 71
     5
 42
-1.0
 53
-89.99999999992947
  3
ME10_DIM_10
100
AcDbAlignedDimension
 13
766.5000000001162
 23
296.0000000000179
 33
0.0
 14
766.4999999999438
 24
436.0000000000179
 34
0.0
  0
DIMENSION
  5
C9
330
4A
100
AcDbEntity
  8
1
100
AcDbDimension
  2
*D7
 10
747.0000000001075
 20
260.534149639872
 30
0.0
 11
729.797696736606
 21
265.034149639872
 31
0.0
 70
    32
  1
<>
 71
     5
 42
-1.0
 53
0.00013888888889
  3
ME10_DIM_11
100
AcDbAlignedDimension
 13
737.5000000001162
 23
295.9999999999822
 33
0.0
 14
747.0000000001075
 24
302.9999999999939
 34
0.0
100
AcDbRotatedDimension
  0
DIMENSION
  5
D6
330
4A
100
AcDbEntity
  8
1
100
AcDbDimension
  2
*D8
 10
766.5000000001124
 20
260.514444129678
 30
0.0
 11
776.176730062842
 21
265.014444129678
 31
0.0
 70
    32
  1
<>
 71
     5
 42
-1.0
 53
0.00013888888889
  3
ME10_DIM_12
100
AcDbAlignedDimension
 13
757.0000000001075
 23
303.0000000000061
 33
0.0
 14
766.5000000001124
 24
299.0000000000179
 34
0.0
100
AcDbRotatedDimension
  0
DIMENSION
  5
E1
330
4A
100
AcDbEntity
  8
1
100
AcDbDimension
  2
*D9
 10
713.769103048124
 20
430.9999999999914
 30
0.0
 11
709.269103048124
 21
365.9999999999914
 31
0.0
 70
    32
  1
<>
 71
     5
 42
-1.0
 53
90.0
  3
ME10_DIM_13
100
AcDbAlignedDimension
 13
745.00000000011
 23
300.9999999999914
 33
0.0
 14
744.99999999995
 24
430.9999999999914
 34
0.0
 50
90.0
100
AcDbRotatedDimension
  0
DIMENSION
  5
EC
330
4A
100
AcDbEntity
  8
1
100
AcDbDimension
  2
*D10
 10
814.952740310252
 20
431.0000000000154
 30
0.0
 11
810.452740310252
 21
366.0000000000154
 31
0.0
 70
    32
  1
<>
 71
     5
 42
-1.0
 53
90.0
  3
ME10_DIM_14
100
AcDbAlignedDimension
 13
764.50000000011
 23
301.0000000000154
 33
0.0
 14
764.49999999995
 24
431.0000000000154
 34
0.0
 50
90.0
100
AcDbRotatedDimension
  0
DIMENSION
  5
F7
330
4A
100
AcDbEntity
  8
1
100
AcDbDimension
  2
*D11
 10
801.402703283326
 20
425.9999999999963
 30
0.0
 11
796.902703283326
 21
366.0
 31
0.0
 70
    32
  1
<>
 71
     5
 42
-1.0
 53
90.0
  3
ME10_DIM_15
100
AcDbAlignedDimension
 13
755.0000000001039
 23
306.0000000000037
 33
0.0
 14
748.9999999999561
 24
425.9999999999963
 34
0.0
 50
90.0
100
AcDbRotatedDimension
  0
DIMENSION
  5
104
330
4A
100
AcDbEntity
  8
1
100
AcDbDimension
  2
*D12
 10
737.4999999999426
 20
413.34941592493
 30
0.0
 11
727.249546764076
 21
417.84941592493
 31
0.0
 70
    32
  1
<>
 71
     5
 42
-1.0
 53
0.00013888888889
  3
ME10_DIM_16
100
AcDbAlignedDimension
 13
746.9999999999525
 23
428.9999999999939
 33
0.0
 14
737.4999999999426
 24
436.9999999999822
 34
0.0
100
AcDbRotatedDimension
  0
DIMENSION
  5
111
330
4A
100
AcDbEntity
  8
1
100
AcDbDimension
  2
*D13
 10
756.9999999999536
 20
413.394202952568
 30
0.0
 11
779.06236250846
 21
417.894202952568
 31
0.0
 70
    32
  1
<>
 71
     5
 42
-1.0
 53
0.00013888888889
  3
ME10_DIM_17
100
AcDbAlignedDimension
 13
766.4999999999426
 23
437.0000000000179
 33
0.0
 14
756.9999999999536
 24
428.0000000000061
 34
0.0
100
AcDbRotatedDimension
  0
DIMENSION
  5
11C
330
4A
100
AcDbEntity
  8
1
100
AcDbDimension
  2
*D14
 10
766.4999999999299
 20
520.7253165276361
 30
0.0
 11
751.9999999999362
 21
525.2253165276361
 31
0.0
 70
    32
  1
<>
 71
     5
 42
-1.0
 53
0.00013888888889
  3
ME10_DIM_18
100
AcDbAlignedDimension
 13
737.4999999999426
 23
436.9999999999822
 33
0.0
 14
766.4999999999299
 24
447.3131840265592
 34
0.0
100
AcDbRotatedDimension
  0
INSERT
  5
123
330
4A
100
AcDbEntity
  8
1
100
AcDbBlockReference
  2
*D15
 10
0.0
 20
0.0
 30
0.0
  0
INSERT
  5
12A
330
4A
100
AcDbEntity
  8
1
100
AcDbBlockReference
  2
*D16
 10
0.0
 20
0.0
 30
0.0
  0
INSERT
  5
131
330
4A
100
AcDbEntity
  8
1
100
AcDbBlockReference
  2
*D17
 10
0.0
 20
0.0
 30
0.0
  0
INSERT
  5
139
330
4A
100
AcDbEntity
  8
1
100
AcDbBlockReference
  2
*D18
 10
0.0
 20
0.0
 30
0.0
  0
INSERT
  5
143
330
4A
100
AcDbEntity
  8
1
100
AcDbBlockReference
  2
*D19
 10
0.0
 20
0.0
 30
0.0
  0
ENDBLK
  5
4D
330
4A
100
AcDbEntity
  8
0
100
AcDbBlockEnd
  0
BLOCK
  5
4F
330
4E
100
AcDbEntity
  8
0
100
AcDbBlockBegin
  2
A-A__3
 70
     0
 10
557.1715164185705
 20
261.175549418576
 30
0.0
  3
A-A__3
  1

  0
LINE
  5
144
330
4E
100
AcDbEntity
  8
1
  6
DOT_CENTER
 62
     2
100
AcDbLine
 10
577.1715164185705
 20
498.36609116034
 30
0.0
 11
577.1715164185705
 21
275.175549418576
 31
0.0
  0
SOLID
  5
145
330
4E
100
AcDbEntity
  8
1
 62
     7
100
AcDbTrace
 10
567.1715164185705
 20
273.859024442702
 30
0.0
 11
567.1715164185705
 21
276.49207439445
 31
0.0
 12
577.1715164185705
 22
275.175549418576
 32
0.0
 13
577.1715164185705
 23
275.175549418576
 33
0.0
  0
LEADER
  5
146
330
4E
100
AcDbEntity
  8
1
  6
Continuous
 62
     7
100
AcDbLeader
  3
Standard
 71
     0
 76
     2
 10
577.1715164185705
 20
275.175549418576
 30
0.0
 10
557.1715164185705
 20
275.175549418576
 30
0.0
  0
SOLID
  5
147
330
4E
100
AcDbEntity
  8
1
 62
     7
100
AcDbTrace
 10
567.1715164185705
 20
497.049566184466
 30
0.0
 11
567.1715164185705
 21
499.6826161362139
 31
0.0
 12
577.1715164185705
 22
498.36609116034
 32
0.0
 13
577.1715164185705
 23
498.36609116034
 33
0.0
  0
LEADER
  5
148
330
4E
100
AcDbEntity
  8
1
  6
Continuous
 62
     7
100
AcDbLeader
  3
Standard
 71
     0
 76
     2
 10
577.1715164185705
 20
498.36609116034
 30
0.0
 10
557.1715164185705
 20
498.36609116034
 30
0.0
  0
LEADER
  5
149
330
4E
100
AcDbEntity
  8
1
  6
Continuous
 62
     7
100
AcDbLeader
  3
Standard
 71
     0
 76
     2
 10
577.1715164185705
 20
265.175549418576
 30
0.0
 10
577.1715164185705
 20
275.175549418576
 30
0.0
  0
LEADER
  5
14A
330
4E
100
AcDbEntity
  8
1
  6
Continuous
 62
     7
100
AcDbLeader
  3
Standard
 71
     0
 76
     2
 10
577.1715164185705
 20
508.36609116034
 30
0.0
 10
577.1715164185705
 20
498.36609116034
 30
0.0
  0
LEADER
  5
14B
330
4E
100
AcDbEntity
  8
1
  6
Continuous
 62
     7
100
AcDbLeader
  3
Standard
 71
     0
 76
     2
 10
577.1715164185705
 20
275.175549418576
 30
0.0
 10
577.1715164185705
 20
285.175549418576
 30
0.0
  0
LEADER
  5
14C
330
4E
100
AcDbEntity
  8
1
  6
Continuous
 62
     7
100
AcDbLeader
  3
Standard
 71
     0
 76
     2
 10
577.1715164185705
 20
498.36609116034
 30
0.0
 10
577.1715164185705
 20
488.36609116034
 30
0.0
  0
MTEXT
  5
14D
330
4E
100
AcDbEntity
  8
1
 62
     7
100
AcDbMText
 10
561.1715164185705
 20
265.175549418576
 30
0.0
 40
8.0
 41
0.0
 71
     5
 72
     1
  1
A
  7
CONVERTER_11
 73
     1
 44
1.20048019207683
  0
MTEXT
  5
14E
330
4E
100
AcDbEntity
  8
1
 62
     7
100
AcDbMText
 10
561.1715164185705
 20
508.36609116034
 30
0.0
 40
8.0
 41
0.0
 71
     5
 72
     1
  1
A
  7
CONVERTER_11
 73
     1
 44
1.20048019207683
  0
ENDBLK
  5
50
330
4E
100
AcDbEntity
  8
0
100
AcDbBlockEnd
  0
BLOCK
  5
52
330
51
100
AcDbEntity
  8
0
100
AcDbBlockBegin
  2
1__4
 70
     0
 10
484.5000014185705
 20
293.3284849999997
 30
0.0
  3
1__4
  1

  0
CIRCLE
  5
14F
330
51
100
AcDbEntity
  8
0
  6
Continuous
 62
   250
100
AcDbCircle
 10
577.1715164185705
 20
385.9999999999997
 30
0.0
 40
92.671515
  0
CIRCLE
  5
150
330
51
100
AcDbEntity
  8
0
  6
Continuous
 62
     4
100
AcDbCircle
 10
577.1715164185705
 20
385.9999999999997
 30
0.0
 40
92.084978147274
  0
CIRCLE
  5
151
330
51
100
AcDbEntity
  8
0
  6
Continuous
 62
   250
100
AcDbCircle
 10
577.1715164185705
 20
385.9999999999997
 30
0.0
 40
71.0
  0
CIRCLE
  5
152
330
51
100
AcDbEntity
  8
0
  6
Continuous
 62
     4
100
AcDbCircle
 10
577.1715164185705
 20
385.9999999999997
 30
0.0
 40
67.0
  0
CIRCLE
  5
153
330
51
100
AcDbEntity
  8
0
  6
Continuous
 62
   250
100
AcDbCircle
 10
577.1715164185705
 20
385.9999999999997
 30
0.0
 40
65.0
  0
CIRCLE
  5
154
330
51
100
AcDbEntity
  8
0
  6
Continuous
 62
     4
100
AcDbCircle
 10
577.1715164185705
 20
385.9999999999997
 30
0.0
 40
62.0
  0
CIRCLE
  5
155
330
51
100
AcDbEntity
  8
0
  6
Continuous
 62
   250
100
AcDbCircle
 10
577.1715164185705
 20
385.9999999999997
 30
0.0
 40
60.0
  0
CIRCLE
  5
156
330
51
100
AcDbEntity
  8
0
  6
Continuous
 62
     4
100
AcDbCircle
 10
577.1715164185705
 20
385.9999999999997
 30
0.0
 40
63.0
  0
CIRCLE
  5
157
330
51
100
AcDbEntity
  8
0
  6
Continuous
 62
   250
100
AcDbCircle
 10
577.1715164185705
 20
385.9999999999997
 30
0.0
 40
70.0
  0
CIRCLE
  5
158
330
51
100
AcDbEntity
  8
0
  6
Continuous
 62
     4
100
AcDbCircle
 10
577.1715164185705
 20
385.9999999999997
 30
0.0
 40
81.31318402654131
  0
ENDBLK
  5
53
330
51
100
AcDbEntity
  8
0
100
AcDbBlockEnd
  0
BLOCK
  5
57
330
54
100
AcDbEntity
  8
0
100
AcDbBlockBegin
  2
Face
 70
     0
 10
577.1715164185705
 20
385.9999999999997
 30
0.0
  3
Face
  1

  0
INSERT
  5
55
330
54
100
AcDbEntity
  8
1
100
AcDbBlockReference
  2
A-A__3
 10
557.1715164185705
 20
261.175549418576
 30
0.0
  0
INSERT
  5
56
330
54
100
AcDbEntity
  8
0
100
AcDbBlockReference
  2
1__4
 10
484.5000014185705
 20
293.3284849999997
 30
0.0
  0
ENDBLK
  5
58
330
54
100
AcDbEntity
  8
0
100
AcDbBlockEnd
  0
BLOCK
  5
B9
330
B2
100
AcDbEntity
  8
0
100
AcDbBlockBegin
  2
*D6
 70
     1
 10
0.0
 20
0.0
 30
0.0
  3
*D6
  1

  0
LINE
  5
B3
330
B2
100
AcDbEntity
  8
1
  6
Continuous
 62
     2
100
AcDbLine
 10
826.9529228175545
 20
436.0000000000923
 30
0.0
 11
826.9529228177269
 21
296.0000000000923
 31
0.0
  0
LINE
  5
B4
330
B2
100
AcDbEntity
  8
1
  6
Continuous
 62
     2
100
AcDbLine
 10
766.5000000001162
 20
296.0000000000178
 30
0.0
 11
828.9529228177269
 21
296.0000000000947
 31
0.0
  0
LINE
  5
B5
330
B2
100
AcDbEntity
  8
1
  6
Continuous
 62
     2
100
AcDbLine
 10
766.4999999999438
 20
436.0000000000178
 30
0.0
 11
828.9529228175545
 21
436.0000000000947
 31
0.0
  0
SOLID
  5
B6
330
B2
100
AcDbEntity
  8
1
 62
     2
100
AcDbTrace
 10
827.6111853054915
 20
431.0000000000923
 30
0.0
 11
826.2946603296175
 21
431.0000000000923
 31
0.0
 12
826.9529228175545
 22
436.0000000000923
 32
0.0
 13
826.9529228175545
 23
436.0000000000923
 33
0.0
  0
SOLID
  5
B7
330
B2
100
AcDbEntity
  8
1
 62
     2
100
AcDbTrace
 10
826.2946603297898
 20
301.0000000000923
 30
0.0
 11
827.6111853056639
 21
301.0000000000923
 31
0.0
 12
826.9529228177269
 22
296.0000000000923
 32
0.0
 13
826.9529228177269
 23
296.0000000000923
 33
0.0
  0
MTEXT
  5
B8
330
B2
100
AcDbEntity
  8
1
 62
     3
100
AcDbMText
 10
828.9529228176342
 20
371.2500000000948
 30
0.0
 40
5.0
 41
0.0
 71
     7
 72
     1
  1
140
  7
CONVERTER_11
 11
0.0
 21
1.0
 31
0.0
 73
     1
 44
0.60024009603842
  0
ENDBLK
  5
BA
330
B2
100
AcDbEntity
  8
0
100
AcDbBlockEnd
  0
BLOCK
  5
C6
330
BD
100
AcDbEntity
  8
0
100
AcDbBlockBegin
  2
*D7
 70
     1
 10
0.0
 20
0.0
 30
0.0
  3
*D7
  1

  0
LINE
  5
BE
330
BD
100
AcDbEntity
  8
1
  6
Continuous
 62
     2
100
AcDbLine
 10
737.5000000001162
 20
260.534149639872
 30
0.0
 11
725.235196736606
 21
260.534149639872
 31
0.0
  0
LINE
  5
BF
330
BD
100
AcDbEntity
  8
1
  6
Continuous
 62
     2
100
AcDbLine
 10
747.0000000001075
 20
260.534149639872
 30
0.0
 11
737.5000000001162
 21
260.534149639872
 31
0.0
  0
LINE
  5
C0
330
BD
100
AcDbEntity
  8
1
  6
Continuous
 62
     2
100
AcDbLine
 10
757.0000000001075
 20
260.534149639872
 30
0.0
 11
747.0000000001075
 21
260.534149639872
 31
0.0
  0
LINE
  5
C1
330
BD
100
AcDbEntity
  8
1
  6
Continuous
 62
     2
100
AcDbLine
 10
737.5000000001162
 20
295.9999999999822
 30
0.0
 11
737.5000000001162
 21
258.534149639872
 31
0.0
  0
LINE
  5
C2
330
BD
100
AcDbEntity
  8
1
  6
Continuous
 62
     2
100
AcDbLine
 10
747.0000000001075
 20
302.9999999999939
 30
0.0
 11
747.0000000001075
 21
258.534149639872
 31
0.0
  0
SOLID
  5
C3
330
BD
100
AcDbEntity
  8
1
 62
     2
100
AcDbTrace
 10
752.0000000001075
 20
261.192412127809
 30
0.0
 11
752.0000000001075
 21
259.875887151935
 31
0.0
 12
747.0000000001075
 22
260.534149639872
 32
0.0
 13
747.0000000001075
 23
260.534149639872
 33
0.0
  0
SOLID
  5
C4
330
BD
100
AcDbEntity
  8
1
 62
     2
100
AcDbTrace
 10
732.5000000001162
 20
259.875887151935
 30
0.0
 11
732.5000000001162
 21
261.192412127809
 31
0.0
 12
737.5000000001162
 22
260.534149639872
 32
0.0
 13
737.5000000001162
 23
260.534149639872
 33
0.0
  0
MTEXT
  5
C5
330
BD
100
AcDbEntity
  8
1
 62
     3
100
AcDbMText
 10
725.235196736606
 20
262.534149639872
 30
0.0
 40
5.0
 41
0.0
 71
     7
 72
     1
  1
9.5
  7
CONVERTER_11
 11
0.9999999999970619
 21
2.424068405545306E-6
 31
0.0
 73
     1
 44
0.60024009603842
  0
ENDBLK
  5
C7
330
BD
100
AcDbEntity
  8
0
100
AcDbBlockEnd
  0
BLOCK
  5
D3
330
CA
100
AcDbEntity
  8
0
100
AcDbBlockBegin
  2
*D8
 70
     1
 10
0.0
 20
0.0
 30
0.0
  3
*D8
  1

  0
LINE
  5
CB
330
CA
100
AcDbEntity
  8
1
  6
Continuous
 62
     2
100
AcDbLine
 10
757.0000000001075
 20
260.514444129678
 30
0.0
 11
747.0000000001075
 21
260.514444129678
 31
0.0
  0
LINE
  5
CC
330
CA
100
AcDbEntity
  8
1
  6
Continuous
 62
     2
100
AcDbLine
 10
766.5000000001124
 20
260.514444129678
 30
0.0
 11
757.0000000001075
 21
260.514444129678
 31
0.0
  0
LINE
  5
CD
330
CA
100
AcDbEntity
  8
1
  6
Continuous
 62
     2
100
AcDbLine
 10
780.739230062842
 20
260.514444129678
 30
0.0
 11
766.5000000001124
 21
260.514444129678
 31
0.0
  0
LINE
  5
CE
330
CA
100
AcDbEntity
  8
1
  6
Continuous
 62
     2
100
AcDbLine
 10
757.0000000001075
 20
303.0000000000061
 30
0.0
 11
757.0000000001075
 21
258.514444129678
 31
0.0
  0
LINE
  5
CF
330
CA
100
AcDbEntity
  8
1
  6
Continuous
 62
     2
100
AcDbLine
 10
766.5000000001124
 20
299.0000000000178
 30
0.0
 11
766.5000000001124
 21
258.514444129678
 31
0.0
  0
SOLID
  5
D0
330
CA
100
AcDbEntity
  8
1
 62
     2
100
AcDbTrace
 10
771.5000000001124
 20
261.1727066176149
 30
0.0
 11
771.5000000001124
 21
259.856181641741
 31
0.0
 12
766.5000000001124
 22
260.514444129678
 32
0.0
 13
766.5000000001124
 23
260.514444129678
 33
0.0
  0
SOLID
  5
D1
330
CA
100
AcDbEntity
  8
1
 62
     2
100
AcDbTrace
 10
752.0000000001075
 20
259.856181641741
 30
0.0
 11
752.0000000001075
 21
261.1727066176149
 31
0.0
 12
757.0000000001075
 22
260.514444129678
 32
0.0
 13
757.0000000001075
 23
260.514444129678
 33
0.0
  0
MTEXT
  5
D2
330
CA
100
AcDbEntity
  8
1
 62
     3
100
AcDbMText
 10
771.614230062842
 20
262.514444129678
 30
0.0
 40
5.0
 41
0.0
 71
     7
 72
     1
  1
9.5
  7
CONVERTER_11
 11
0.9999999999970619
 21
2.424068405545306E-6
 31
0.0
 73
     1
 44
0.60024009603842
  0
ENDBLK
  5
D4
330
CA
100
AcDbEntity
  8
0
100
AcDbBlockEnd
  0
BLOCK
  5
DE
330
D7
100
AcDbEntity
  8
0
100
AcDbBlockBegin
  2
*D9
 70
     1
 10
0.0
 20
0.0
 30
0.0
  3
*D9
  1

  0
LINE
  5
D8
330
D7
100
AcDbEntity
  8
1
  6
Continuous
 62
     2
100
AcDbLine
 10
713.769103048124
 20
430.9999999999914
 30
0.0
 11
713.769103048124
 21
300.9999999999914
 31
0.0
  0
LINE
  5
D9
330
D7
100
AcDbEntity
  8
1
  6
Continuous
 62
     2
100
AcDbLine
 10
745.00000000011
 20
300.9999999999914
 30
0.0
 11
711.769103048124
 21
300.9999999999914
 31
0.0
  0
LINE
  5
DA
330
D7
100
AcDbEntity
  8
1
  6
Continuous
 62
     2
100
AcDbLine
 10
744.99999999995
 20
430.9999999999914
 30
0.0
 11
711.769103048124
 21
430.9999999999914
 31
0.0
  0
SOLID
  5
DB
330
D7
100
AcDbEntity
  8
1
 62
     2
100
AcDbTrace
 10
714.427365536061
 20
425.9999999999914
 30
0.0
 11
713.110840560187
 21
425.9999999999914
 31
0.0
 12
713.769103048124
 22
430.9999999999914
 32
0.0
 13
713.769103048124
 23
430.9999999999914
 33
0.0
  0
SOLID
  5
DC
330
D7
100
AcDbEntity
  8
1
 62
     2
100
AcDbTrace
 10
713.110840560187
 20
305.9999999999914
 30
0.0
 11
714.427365536061
 21
305.9999999999914
 31
0.0
 12
713.769103048124
 22
300.9999999999914
 32
0.0
 13
713.769103048124
 23
300.9999999999914
 33
0.0
  0
MTEXT
  5
DD
330
D7
100
AcDbEntity
  8
1
 62
     3
100
AcDbMText
 10
711.769103048124
 20
359.6499999999914
 30
0.0
 40
5.0
 41
0.0
 71
     7
 72
     1
  1
\C3;%%c\C3;130
  7
CONVERTER_11
 11
0.0
 21
1.0
 31
0.0
 73
     1
 44
0.60024009603842
  0
ENDBLK
  5
DF
330
D7
100
AcDbEntity
  8
0
100
AcDbBlockEnd
  0
BLOCK
  5
E9
330
E2
100
AcDbEntity
  8
0
100
AcDbBlockBegin
  2
*D10
 70
     1
 10
0.0
 20
0.0
 30
0.0
  3
*D10
  1

  0
LINE
  5
E3
330
E2
100
AcDbEntity
  8
1
  6
Continuous
 62
     2
100
AcDbLine
 10
814.952740310252
 20
431.0000000000154
 30
0.0
 11
814.952740310252
 21
301.0000000000154
 31
0.0
  0
LINE
  5
E4
330
E2
100
AcDbEntity
  8
1
  6
Continuous
 62
     2
100
AcDbLine
 10
764.50000000011
 20
301.0000000000154
 30
0.0
 11
816.952740310252
 21
301.0000000000154
 31
0.0
  0
LINE
  5
E5
330
E2
100
AcDbEntity
  8
1
  6
Continuous
 62
     2
100
AcDbLine
 10
764.49999999995
 20
431.0000000000154
 30
0.0
 11
816.952740310252
 21
431.0000000000154
 31
0.0
  0
SOLID
  5
E6
330
E2
100
AcDbEntity
  8
1
 62
     2
100
AcDbTrace
 10
815.611002798189
 20
426.0000000000154
 30
0.0
 11
814.294477822315
 21
426.0000000000154
 31
0.0
 12
814.952740310252
 22
431.0000000000154
 32
0.0
 13
814.952740310252
 23
431.0000000000154
 33
0.0
  0
SOLID
  5
E7
330
E2
100
AcDbEntity
  8
1
 62
     2
100
AcDbTrace
 10
814.294477822315
 20
306.0000000000154
 30
0.0
 11
815.611002798189
 21
306.0000000000154
 31
0.0
 12
814.952740310252
 22
301.0000000000154
 32
0.0
 13
814.952740310252
 23
301.0000000000154
 33
0.0
  0
MTEXT
  5
E8
330
E2
100
AcDbEntity
  8
1
 62
     3
100
AcDbMText
 10
812.952740310252
 20
359.6500000000154
 30
0.0
 40
5.0
 41
0.0
 71
     7
 72
     1
  1
\C3;%%c\C3;130
  7
CONVERTER_11
 11
0.0
 21
1.0
 31
0.0
 73
     1
 44
0.60024009603842
  0
ENDBLK
  5
EA
330
E2
100
AcDbEntity
  8
0
100
AcDbBlockEnd
  0
BLOCK
  5
F4
330
ED
100
AcDbEntity
  8
0
100
AcDbBlockBegin
  2
*D11
 70
     1
 10
0.0
 20
0.0
 30
0.0
  3
*D11
  1

  0
LINE
  5
EE
330
ED
100
AcDbEntity
  8
1
  6
Continuous
 62
     2
100
AcDbLine
 10
801.402703283326
 20
425.9999999999963
 30
0.0
 11
801.402703283326
 21
306.0000000000037
 31
0.0
  0
LINE
  5
EF
330
ED
100
AcDbEntity
  8
1
  6
Continuous
 62
     2
100
AcDbLine
 10
755.0000000001039
 20
306.0000000000037
 30
0.0
 11
803.402703283326
 21
306.0000000000037
 31
0.0
  0
LINE
  5
F0
330
ED
100
AcDbEntity
  8
1
  6
Continuous
 62
     2
100
AcDbLine
 10
748.9999999999561
 20
425.9999999999963
 30
0.0
 11
803.402703283326
 21
425.9999999999963
 31
0.0
  0
SOLID
  5
F1
330
ED
100
AcDbEntity
  8
1
 62
     2
100
AcDbTrace
 10
802.060965771263
 20
420.9999999999963
 30
0.0
 11
800.744440795389
 21
420.9999999999963
 31
0.0
 12
801.402703283326
 22
425.9999999999963
 32
0.0
 13
801.402703283326
 23
425.9999999999963
 33
0.0
  0
SOLID
  5
F2
330
ED
100
AcDbEntity
  8
1
 62
     2
100
AcDbTrace
 10
800.744440795389
 20
311.0000000000037
 30
0.0
 11
802.060965771263
 21
311.0000000000037
 31
0.0
 12
801.402703283326
 22
306.0000000000037
 32
0.0
 13
801.402703283326
 23
306.0000000000037
 33
0.0
  0
MTEXT
  5
F3
330
ED
100
AcDbEntity
  8
1
 62
     3
100
AcDbMText
 10
799.402703283326
 20
359.65
 30
0.0
 40
5.0
 41
0.0
 71
     7
 72
     1
  1
\C3;%%c\C3;120
  7
CONVERTER_11
 11
0.0
 21
1.0
 31
0.0
 73
     1
 44
0.60024009603842
  0
ENDBLK
  5
F5
330
ED
100
AcDbEntity
  8
0
100
AcDbBlockEnd
  0
BLOCK
  5
101
330
F8
100
AcDbEntity
  8
0
100
AcDbBlockBegin
  2
*D12
 70
     1
 10
0.0
 20
0.0
 30
0.0
  3
*D12
  1

  0
LINE
  5
F9
330
F8
100
AcDbEntity
  8
1
  6
Continuous
 62
     2
100
AcDbLine
 10
746.9999999999525
 20
413.34941592493
 30
0.0
 11
756.9999999999525
 21
413.34941592493
 31
0.0
  0
LINE
  5
FA
330
F8
100
AcDbEntity
  8
1
  6
Continuous
 62
     2
100
AcDbLine
 10
737.4999999999426
 20
413.34941592493
 30
0.0
 11
746.9999999999525
 21
413.34941592493
 31
0.0
  0
LINE
  5
FB
330
F8
100
AcDbEntity
  8
1
  6
Continuous
 62
     2
100
AcDbLine
 10
722.687046764076
 20
413.34941592493
 30
0.0
 11
737.4999999999426
 21
413.34941592493
 31
0.0
  0
LINE
  5
FC
330
F8
100
AcDbEntity
  8
1
  6
Continuous
 62
     2
100
AcDbLine
 10
746.9999999999525
 20
428.9999999999939
 30
0.0
 11
746.9999999999525
 21
411.34941592493
 31
0.0
  0
LINE
  5
FD
330
F8
100
AcDbEntity
  8
1
  6
Continuous
 62
     2
100
AcDbLine
 10
737.4999999999426
 20
436.9999999999822
 30
0.0
 11
737.4999999999426
 21
411.34941592493
 31
0.0
  0
SOLID
  5
FE
330
F8
100
AcDbEntity
  8
1
 62
     2
100
AcDbTrace
 10
732.4999999999426
 20
412.691153436993
 30
0.0
 11
732.4999999999426
 21
414.0076784128669
 31
0.0
 12
737.4999999999426
 22
413.34941592493
 32
0.0
 13
737.4999999999426
 23
413.34941592493
 33
0.0
  0
SOLID
  5
FF
330
F8
100
AcDbEntity
  8
1
 62
     2
100
AcDbTrace
 10
751.9999999999525
 20
414.0076784128669
 30
0.0
 11
751.9999999999525
 21
412.691153436993
 31
0.0
 12
746.9999999999525
 22
413.34941592493
 32
0.0
 13
746.9999999999525
 23
413.34941592493
 33
0.0
  0
MTEXT
  5
100
330
F8
100
AcDbEntity
  8
1
 62
     3
100
AcDbMText
 10
722.687046764076
 20
415.34941592493
 30
0.0
 40
5.0
 41
0.0
 71
     7
 72
     1
  1
9.5
  7
CONVERTER_11
 11
0.9999999999970619
 21
2.424068405545306E-6
 31
0.0
 73
     1
 44
0.60024009603842
  0
ENDBLK
  5
102
330
F8
100
AcDbEntity
  8
0
100
AcDbBlockEnd
  0
BLOCK
  5
10E
330
105
100
AcDbEntity
  8
0
100
AcDbBlockBegin
  2
*D13
 70
     1
 10
0.0
 20
0.0
 30
0.0
  3
*D13
  1

  0
LINE
  5
106
330
105
100
AcDbEntity
  8
1
  6
Continuous
 62
     2
100
AcDbLine
 10
766.4999999999426
 20
413.394202952568
 30
0.0
 11
783.62486250846
 21
413.394202952568
 31
0.0
  0
LINE
  5
107
330
105
100
AcDbEntity
  8
1
  6
Continuous
 62
     2
100
AcDbLine
 10
756.9999999999536
 20
413.394202952568
 30
0.0
 11
766.4999999999426
 21
413.394202952568
 31
0.0
  0
LINE
  5
108
330
105
100
AcDbEntity
  8
1
  6
Continuous
 62
     2
100
AcDbLine
 10
746.9999999999536
 20
413.394202952568
 30
0.0
 11
756.9999999999536
 21
413.394202952568
 31
0.0
  0
LINE
  5
109
330
105
100
AcDbEntity
  8
1
  6
Continuous
 62
     2
100
AcDbLine
 10
766.4999999999426
 20
437.0000000000178
 30
0.0
 11
766.4999999999426
 21
411.394202952568
 31
0.0
  0
LINE
  5
10A
330
105
100
AcDbEntity
  8
1
  6
Continuous
 62
     2
100
AcDbLine
 10
756.9999999999536
 20
428.0000000000061
 30
0.0
 11
756.9999999999536
 21
411.394202952568
 31
0.0
  0
SOLID
  5
10B
330
105
100
AcDbEntity
  8
1
 62
     2
100
AcDbTrace
 10
751.9999999999536
 20
412.735940464631
 30
0.0
 11
751.9999999999536
 21
414.0524654405049
 31
0.0
 12
756.9999999999536
 22
413.394202952568
 32
0.0
 13
756.9999999999536
 23
413.394202952568
 33
0.0
  0
SOLID
  5
10C
330
105
100
AcDbEntity
  8
1
 62
     2
100
AcDbTrace
 10
771.4999999999426
 20
414.0524654405049
 30
0.0
 11
771.4999999999426
 21
412.735940464631
 31
0.0
 12
766.4999999999426
 22
413.394202952568
 32
0.0
 13
766.4999999999426
 23
413.394202952568
 33
0.0
  0
MTEXT
  5
10D
330
105
100
AcDbEntity
  8
1
 62
     3
100
AcDbMText
 10
774.49986250846
 20
415.394202952568
 30
0.0
 40
5.0
 41
0.0
 71
     7
 72
     1
  1
9.5
  7
CONVERTER_11
 11
0.9999999999970619
 21
2.424068405545306E-6
 31
0.0
 73
     1
 44
0.60024009603842
  0
ENDBLK
  5
10F
330
105
100
AcDbEntity
  8
0
100
AcDbBlockEnd
  0
BLOCK
  5
119
330
112
100
AcDbEntity
  8
0
100
AcDbBlockBegin
  2
*D14
 70
     1
 10
0.0
 20
0.0
 30
0.0
  3
*D14
  1

  0
LINE
  5
113
330
112
100
AcDbEntity
  8
1
  6
Continuous
 62
     2
100
AcDbLine
 10
766.4999999999299
 20
520.7253165276361
 30
0.0
 11
737.4999999999426
 21
520.7253165276361
 31
0.0
  0
LINE
  5
114
330
112
100
AcDbEntity
  8
1
  6
Continuous
 62
     2
100
AcDbLine
 10
737.4999999999426
 20
436.9999999999822
 30
0.0
 11
737.4999999999426
 21
522.7253165276361
 31
0.0
  0
LINE
  5
115
330
112
100
AcDbEntity
  8
1
  6
Continuous
 62
     2
100
AcDbLine
 10
766.4999999999299
 20
447.3131840265592
 30
0.0
 11
766.4999999999299
 21
522.7253165276361
 31
0.0
  0
SOLID
  5
116
330
112
100
AcDbEntity
  8
1
 62
     2
100
AcDbTrace
 10
761.4999999999299
 20
520.0670540396991
 30
0.0
 11
761.4999999999299
 21
521.3835790155731
 31
0.0
 12
766.4999999999299
 22
520.7253165276361
 32
0.0
 13
766.4999999999299
 23
520.7253165276361
 33
0.0
  0
SOLID
  5
117
330
112
100
AcDbEntity
  8
1
 62
     2
100
AcDbTrace
 10
742.4999999999426
 20
521.3835790155731
 30
0.0
 11
742.4999999999426
 21
520.0670540396991
 31
0.0
 12
737.4999999999426
 22
520.7253165276361
 32
0.0
 13
737.4999999999426
 23
520.7253165276361
 33
0.0
  0
MTEXT
  5
118
330
112
100
AcDbEntity
  8
1
 62
     3
100
AcDbMText
 10
748.2499999999362
 20
522.7253165276361
 30
0.0
 40
5.0
 41
0.0
 71
     7
 72
     1
  1
29
  7
CONVERTER_11
 11
0.9999999999970619
 21
2.424068405545306E-6
 31
0.0
 73
     1
 44
0.60024009603842
  0
ENDBLK
  5
11A
330
112
100
AcDbEntity
  8
0
100
AcDbBlockEnd
  0
BLOCK
  5
121
330
11D
100
AcDbEntity
  8
0
100
AcDbBlockBegin
  2
*D15
 70
     1
 10
0.0
 20
0.0
 30
0.0
  3
*D15
  1

  0
LINE
  5
11E
330
11D
100
AcDbEntity
  8
1
  6
Continuous
 62
     2
100
AcDbLine
 10
751.9999999999508
 20
430.3992136872503
 30
0.0
 11
746.6620503630159
 21
484.4643394865123
 31
0.0
  0
SOLID
  5
11F
330
11D
100
AcDbEntity
  8
1
 62
     2
100
AcDbTrace
 10
748.0757820140719
 20
463.4458452455308
 30
0.0
 11
749.3859367968945
 21
463.5751992448771
 31
0.0
 12
749.2221299917492
 22
458.5347154552382
 32
0.0
 13
749.2221299917492
 23
458.5347154552382
 33
0.0
  0
MTEXT
  5
120
330
11D
100
AcDbEntity
  8
1
 62
     3
100
AcDbMText
 10
748.8292304900579
 20
482.8695572766311
 30
0.0
 40
5.0
 41
0.0
 71
     7
 72
     1
  1
\C3; R\C3;28
  7
CONVERTER_11
 11
0.09825411725322869
 21
-0.9951613579931593
 31
0.0
 73
     1
 44
0.60024009603842
  0
ENDBLK
  5
122
330
11D
100
AcDbEntity
  8
0
100
AcDbBlockEnd
  0
BLOCK
  5
128
330
124
100
AcDbEntity
  8
0
100
AcDbBlockBegin
  2
*D16
 70
     1
 10
0.0
 20
0.0
 30
0.0
  3
*D16
  1

  0
LINE
  5
125
330
124
100
AcDbEntity
  8
1
  6
Continuous
 62
     2
100
AcDbLine
 10
748.4999999999299
 20
447.313184026537
 30
0.0
 11
715.1075949406214
 21
473.0837353966292
 31
0.0
  0
SOLID
  5
126
330
124
100
AcDbEntity
  8
1
 62
     2
100
AcDbTrace
 10
735.4312727161243
 20
456.5674628576801
 30
0.0
 11
736.2356199956848
 21
457.6097024970931
 31
0.0
 12
739.7917443696624
 22
454.0337705989961
 32
0.0
 13
739.7917443696624
 23
454.0337705989961
 33
0.0
  0
MTEXT
  5
127
330
124
100
AcDbEntity
  8
1
 62
     3
100
AcDbMText
 10
717.7545070569304
 20
473.5673222539118
 30
0.0
 40
5.0
 41
0.0
 71
     7
 72
     1
  1
\C3; R\C3;11
  7
CONVERTER_11
 11
0.7916596027515814
 21
-0.6109624156780911
 31
0.0
 73
     1
 44
0.60024009603842
  0
ENDBLK
  5
129
330
124
100
AcDbEntity
  8
0
100
AcDbBlockEnd
  0
BLOCK
  5
12F
330
12B
100
AcDbEntity
  8
0
100
AcDbBlockBegin
  2
*D17
 70
     1
 10
0.0
 20
0.0
 30
0.0
  3
*D17
  1

  0
LINE
  5
12C
330
12B
100
AcDbEntity
  8
1
  6
Continuous
 62
     2
100
AcDbLine
 10
755.4999999999299
 20
447.3131840265456
 30
0.0
 11
786.0469469551448
 21
470.0828711961148
 31
0.0
  0
SOLID
  5
12D
330
12B
100
AcDbEntity
  8
1
 62
     2
100
AcDbTrace
 10
767.9348685988168
 20
457.4031469814549
 30
0.0
 11
768.7216724609906
 21
456.3476008220812
 31
0.0
 12
764.319435989287
 22
453.887189565761
 32
0.0
 13
764.319435989287
 23
453.887189565761
 33
0.0
  0
MTEXT
  5
12E
330
12B
100
AcDbEntity
  8
1
 62
     3
100
AcDbMText
 10
774.6692334875752
 20
464.0964167989038
 30
0.0
 40
5.0
 41
0.0
 71
     7
 72
     1
  1
\C3; R\C3;11
  7
CONVERTER_11
 11
0.8017669081233683
 21
0.5976368672013922
 31
0.0
 73
     1
 44
0.60024009603842
  0
ENDBLK
  5
130
330
12B
100
AcDbEntity
  8
0
100
AcDbBlockEnd
  0
BLOCK
  5
137
330
132
100
AcDbEntity
  8
0
100
AcDbBlockBegin
  2
*D18
 70
     1
 10
0.0
 20
0.0
 30
0.0
  3
*D18
  1

  0
LINE
  5
133
330
132
100
AcDbEntity
  8
1
  6
Continuous
 62
     2
100
AcDbLine
 10
764.5000000001124
 20
299.0000000000154
 30
0.0
 11
791.7078435771043
 21
293.2540136483566
 31
0.0
  0
ARC
  5
134
330
132
100
AcDbEntity
  8
1
  6
Continuous
 62
     2
100
AcDbCircle
 10
764.5000000001124
 20
299.0000000000154
 30
0.0
 40
1.999999999999971
100
AcDbArc
 50
290.7792317422022
 51
0.00000000007002
  0
SOLID
  5
135
330
132
100
AcDbEntity
  8
1
 62
     2
100
AcDbTrace
 10
771.4849501022788
 20
298.1976399977287
 30
0.0
 11
771.2129153239359
 21
296.9095270013376
 31
0.0
 12
766.456837918111
 22
298.5867381427348
 32
0.0
 13
766.456837918111
 23
298.5867381427348
 33
0.0
  0
MTEXT
  5
136
330
132
100
AcDbEntity
  8
1
 62
     3
100
AcDbMText
 10
781.162813093593
 20
297.5251179671266
 30
0.0
 40
5.0
 41
0.0
 71
     7
 72
     1
  1
\C3; R\C3;2
  7
CONVERTER_11
 11
0.9784189589992844
 21
-0.206630928640309
 31
0.0
 73
     1
 44
0.60024009603842
  0
ENDBLK
  5
138
330
132
100
AcDbEntity
  8
0
100
AcDbBlockEnd
  0
BLOCK
  5
141
330
13A
100
AcDbEntity
  8
0
100
AcDbBlockBegin
  2
*D19
 70
     1
 10
0.0
 20
0.0
 30
0.0
  3
*D19
  1

  0
LINE
  5
13B
330
13A
100
AcDbEntity
  8
1
  6
Continuous
 62
     2
100
AcDbLine
 10
686.54112166802
 20
458.6715150000001
 30
0.0
 11
686.54112166802
 21
273.3284849999999
 31
0.0
  0
LINE
  5
13C
330
13A
100
AcDbEntity
  8
1
  6
Continuous
 62
     2
100
AcDbLine
 10
752.0000000001093
 20
273.3284849999999
 30
0.0
 11
684.54112166802
 21
273.3284849999999
 31
0.0
  0
LINE
  5
13D
330
13A
100
AcDbEntity
  8
1
  6
Continuous
 62
     2
100
AcDbLine
 10
751.9999999999508
 20
458.6715150000001
 30
0.0
 11
684.54112166802
 21
458.6715150000001
 31
0.0
  0
SOLID
  5
13E
330
13A
100
AcDbEntity
  8
1
 62
     2
100
AcDbTrace
 10
687.199384155957
 20
453.6715150000001
 30
0.0
 11
685.882859180083
 21
453.6715150000001
 31
0.0
 12
686.54112166802
 22
458.6715150000001
 32
0.0
 13
686.54112166802
 23
458.6715150000001
 33
0.0
  0
SOLID
  5
13F
330
13A
100
AcDbEntity
  8
1
 62
     2
100
AcDbTrace
 10
685.882859180083
 20
278.3284849999999
 30
0.0
 11
687.199384155957
 21
278.3284849999999
 31
0.0
 12
686.54112166802
 22
273.3284849999999
 32
0.0
 13
686.54112166802
 23
273.3284849999999
 33
0.0
  0
MTEXT
  5
140
330
13A
100
AcDbEntity
  8
1
 62
     3
100
AcDbMText
 10
684.54112166802
 20
360.75
 30
0.0
 40
5.0
 41
0.0
 71
     7
 72
     1
  1
185
  7
CONVERTER_11
 11
0.0
 21
1.0
 31
0.0
 73
     1
 44
0.60024009603842
  0
ENDBLK
  5
142
330
13A
100
AcDbEntity
  8
0
100
AcDbBlockEnd
  0
ENDSEC
  0
SECTION
  2
ENTITIES
  0
INSERT
  5
59
330
1F
100
AcDbEntity
  8
0
100
AcDbBlockReference
  2
A-A__2
 10
376.0
 20
183.0
 30
0.0
 41
0.5
 42
0.5
 43
0.5
  0
INSERT
  5
5A
330
1F
100
AcDbEntity
  8
0
100
AcDbBlockReference
  2
Face
 10
288.5857582092852
 20
192.9999999999999
 30
0.0
 41
0.5
 42
0.5
 43
0.5
  0
ENDSEC
  0
SECTION
  2
OBJECTS
  0
DICTIONARY
  5
C
330
0
100
AcDbDictionary
281
     1
  3
ACAD_GROUP
350
D
  3
ACAD_LAYOUT
350
1A
  3
ACAD_MATERIAL
350
3B
  3
ACAD_MLEADERSTYLE
350
15B
  3
ACAD_MLINESTYLE
350
17
  3
ACAD_PLOTSETTINGS
350
19
  3
ACAD_PLOTSTYLENAME
350
E
  3
ACAD_VISUALSTYLE
350
2A
  3
AcDbVariableDictionary
350
159
  0
DICTIONARY
  5
D
102
{ACAD_REACTORS
330
C
102
}
330
C
100
AcDbDictionary
281
     1
  0
DICTIONARY
  5
1A
102
{ACAD_REACTORS
330
C
102
}
330
C
100
AcDbDictionary
281
     1
  3
Layout1
350
1E
  3
Layout2
350
26
  3
Model
350
22
  0
DICTIONARY
  5
3B
102
{ACAD_REACTORS
330
C
102
}
330
C
100
AcDbDictionary
281
     1
  3
ByBlock
350
3D
  3
ByLayer
350
3C
  3
Global
350
3E
  0
DICTIONARY
  5
15B
102
{ACAD_REACTORS
330
C
102
}
330
C
100
AcDbDictionary
281
     1
  0
DICTIONARY
  5
17
102
{ACAD_REACTORS
330
C
102
}
330
C
100
AcDbDictionary
281
     1
  3
Standard
350
18
  0
DICTIONARY
  5
19
102
{ACAD_REACTORS
330
C
102
}
330
C
100
AcDbDictionary
281
     1
  0
ACDBDICTIONARYWDFLT
  5
E
102
{ACAD_REACTORS
330
C
102
}
330
C
100
AcDbDictionary
281
     1
  3
Normal
350
F
100
AcDbDictionaryWithDefault
340
F
  0
DICTIONARY
  5
2A
102
{ACAD_REACTORS
330
C
102
}
330
C
100
AcDbDictionary
281
     1
  3
2dWireframe
350
2F
  3
3D Hidden
350
31
  3
3dWireframe
350
30
  3
Basic
350
32
  3
Brighten
350
36
  3
ColorChange
350
3A
  3
Conceptual
350
34
  3
Dim
350
35
  3
Facepattern
350
39
  3
Flat
350
2B
  3
FlatWithEdges
350
2C
  3
Gouraud
350
2D
  3
GouraudWithEdges
350
2E
  3
Linepattern
350
38
  3
Realistic
350
33
  3
Thicken
350
37
  0
DICTIONARY
  5
159
102
{ACAD_REACTORS
330
C
102
}
330
C
100
AcDbDictionary
281
     1
  3
DIMASSOC
350
15C
  3
HIDETEXT
350
15D
  0
LAYOUT
  5
1E
102
{ACAD_REACTORS
330
1A
102
}
330
1A
100
AcDbPlotSettings
  1

  2
none_device
  4

  6

 40
0.0
 41
0.0
 42
0.0
 43
0.0
 44
0.0
 45
0.0
 46
0.0
 47
0.0
 48
0.0
 49
0.0
140
0.0
141
0.0
142
1.0
143
1.0
 70
   688
 72
     0
 73
     0
 74
     5
  7

 75
    16
147
1.0
148
0.0
149
0.0
100
AcDbLayout
  1
Layout1
 70
     1
 71
     1
 10
0.0
 20
0.0
 11
12.0
 21
9.0
 12
0.0
 22
0.0
 32
0.0
 14
1.00000000000000E+20
 24
1.00000000000000E+20
 34
1.00000000000000E+20
 15
-1.00000000000000E+20
 25
-1.00000000000000E+20
 35
-1.00000000000000E+20
146
0.0
 13
0.0
 23
0.0
 33
0.0
 16
1.0
 26
0.0
 36
0.0
 17
0.0
 27
1.0
 37
0.0
 76
     0
330
1B
  0
LAYOUT
  5
26
102
{ACAD_REACTORS
330
1A
102
}
330
1A
100
AcDbPlotSettings
  1

  2
none_device
  4

  6

 40
0.0
 41
0.0
 42
0.0
 43
0.0
 44
0.0
 45
0.0
 46
0.0
 47
0.0
 48
0.0
 49
0.0
140
0.0
141
0.0
142
1.0
143
1.0
 70
   688
 72
     0
 73
     0
 74
     5
  7

 75
    16
147
1.0
148
0.0
149
0.0
100
AcDbLayout
  1
Layout2
 70
     1
 71
     2
 10
0.0
 20
0.0
 11
0.0
 21
0.0
 12
0.0
 22
0.0
 32
0.0
 14
0.0
 24
0.0
 34
0.0
 15
0.0
 25
0.0
 35
0.0
146
0.0
 13
0.0
 23
0.0
 33
0.0
 16
1.0
 26
0.0
 36
0.0
 17
0.0
 27
1.0
 37
0.0
 76
     0
330
23
  0
LAYOUT
  5
22
102
{ACAD_REACTORS
330
1A
102
}
330
1A
100
AcDbPlotSettings
  1

  2
none_device
  4

  6

 40
0.0
 41
0.0
 42
0.0
 43
0.0
 44
0.0
 45
0.0
 46
0.0
 47
0.0
 48
0.0
 49
0.0
140
0.0
141
0.0
142
1.0
143
1.0
 70
  1712
 72
     0
 73
     0
 74
     0
  7

 75
     0
147
1.0
148
0.0
149
0.0
100
AcDbLayout
  1
Model
 70
     1
 71
     0
 10
0.0
 20
0.0
 11
12.0
 21
9.0
 12
0.0
 22
0.0
 32
0.0
 14
230.652667672075
 24
120.882766075364
 34
0.0
 15
529.652667672075
 25
296.382766075364
 35
0.0
146
0.0
 13
0.0
 23
0.0
 33
0.0
 16
1.0
 26
0.0
 36
0.0
 17
0.0
 27
1.0
 37
0.0
 76
     0
330
1F
331
29
  0
MATERIAL
  5
3D
102
{ACAD_REACTORS
330
3B
102
}
102
{ACAD_XDICTIONARY
360
180
102
}
330
3B
100
AcDbMaterial
  1
ByBlock
  0
MATERIAL
  5
3C
102
{ACAD_REACTORS
330
3B
102
}
102
{ACAD_XDICTIONARY
360
17E
102
}
330
3B
100
AcDbMaterial
  1
ByLayer
  0
MATERIAL
  5
3E
102
{ACAD_REACTORS
330
3B
102
}
102
{ACAD_XDICTIONARY
360
182
102
}
330
3B
100
AcDbMaterial
  1
Global
  0
MLINESTYLE
  5
18
102
{ACAD_REACTORS
330
17
102
}
330
17
100
AcDbMlineStyle
  2
Standard
 70
     0
  3

 62
   256
 51
90.0
 52
90.0
 71
     2
 49
0.5
 62
   256
  6
BYLAYER
 49
-0.5
 62
   256
  6
BYLAYER
  0
ACDBPLACEHOLDER
  5
F
102
{ACAD_REACTORS
330
E
102
}
330
E
  0
VISUALSTYLE
  5
2F
102
{ACAD_REACTORS
330
2A
102
}
102
{ACAD_XDICTIONARY
360
166
102
}
330
2A
100
AcDbVisualStyle
  2
2dWireframe
 70
     4
 71
     0
 72
     2
 73
     0
 90
        0
 40
-0.6
 41
-30.0
 62
     5
 63
     7
 74
     1
 91
        4
 64
     7
 65
   257
 75
     1
175
     1
 42
1.0
 92
        0
 66
   257
 43
1.0
 76
     1
 77
     6
 78
     2
 67
     7
 79
     5
170
     0
171
     0
290
     0
174
     0
 93
        1
 44
0.0
173
     0
291
     0
 45
0.0
1001
ACAD
1000
AcDbSavedByObjectVersion
1070
     0
  0
VISUALSTYLE
  5
31
102
{ACAD_REACTORS
330
2A
102
}
102
{ACAD_XDICTIONARY
360
16A
102
}
330
2A
100
AcDbVisualStyle
  2
3D Hidden
 70
     6
 71
     1
 72
     2
 73
     2
 90
        0
 40
-0.6
 41
-30.0
 62
     5
 63
     7
 74
     2
 91
        2
 64
     7
 65
   257
 75
     2
175
     1
 42
40.0
 92
        0
 66
   257
 43
1.0
 76
     1
 77
     6
 78
     2
 67
     7
 79
     3
170
     0
171
     0
290
     0
174
     0
 93
        1
 44
0.0
173
     0
291
     0
 45
0.0
1001
ACAD
1000
AcDbSavedByObjectVersion
1070
     0
  0
VISUALSTYLE
  5
30
102
{ACAD_REACTORS
330
2A
102
}
102
{ACAD_XDICTIONARY
360
168
102
}
330
2A
100
AcDbVisualStyle
  2
3dWireframe
 70
     5
 71
     0
 72
     2
 73
     0
 90
        0
 40
-0.6
 41
-30.0
 62
     5
 63
     7
 74
     1
 91
        4
 64
     7
 65
   257
 75
     1
175
     1
 42
1.0
 92
        0
 66
   257
 43
1.0
 76
     1
 77
     6
 78
     2
 67
     7
 79
     5
170
     0
171
     0
290
     0
174
     0
 93
        1
 44
0.0
173
     0
291
     0
 45
0.0
1001
ACAD
1000
AcDbSavedByObjectVersion
1070
     0
  0
VISUALSTYLE
  5
32
102
{ACAD_REACTORS
330
2A
102
}
102
{ACAD_XDICTIONARY
360
16C
102
}
330
2A
100
AcDbVisualStyle
  2
Basic
 70
     7
 71
     1
 72
     0
 73
     1
 90
        0
 40
-0.6
 41
-30.0
 62
     5
 63
     7
 74
     0
 91
        4
 64
     7
 65
   257
 75
     1
175
     1
 42
1.0
 92
        8
 66
     7
 43
1.0
 76
     1
 77
     6
 78
     2
 67
     7
 79
     5
170
     0
171
     0
290
     0
174
     0
 93
        1
 44
0.0
173
     0
291
     1
 45
0.0
1001
ACAD
1000
AcDbSavedByObjectVersion
1070
     0
  0
VISUALSTYLE
  5
36
102
{ACAD_REACTORS
330
2A
102
}
102
{ACAD_XDICTIONARY
360
174
102
}
330
2A
100
AcDbVisualStyle
  2
Brighten
 70
    12
 71
     2
 72
     2
 73
     0
 90
        0
 40
-0.6
 41
-30.0
 62
     5
 63
     7
 74
     1
 91
        4
 64
     7
 65
   257
 75
     1
175
     1
 42
1.0
 92
        8
 66
     7
 43
1.0
 76
     1
 77
     6
 78
     2
 67
     7
 79
     5
170
     0
171
     0
290
     0
174
     0
 93
        1
 44
50.0
173
     0
291
     1
 45
0.0
1001
ACAD
1000
AcDbSavedByObjectVersion
1070
     0
  0
VISUALSTYLE
  5
3A
102
{ACAD_REACTORS
330
2A
102
}
102
{ACAD_XDICTIONARY
360
17C
102
}
330
2A
100
AcDbVisualStyle
  2
ColorChange
 70
    16
 71
     2
 72
     2
 73
     3
 90
        0
 40
-0.6
 41
-30.0
 62
     5
 63
     8
 74
     1
 91
        4
 64
     7
 65
   257
 75
     1
175
     1
 42
1.0
 92
        8
 66
     8
 43
1.0
 76
     1
 77
     6
 78
     2
 67
     7
 79
     5
170
     0
171
     0
290
     0
174
     0
 93
        1
 44
0.0
173
     0
291
     1
 45
0.0
1001
ACAD
1000
AcDbSavedByObjectVersion
1070
     0
  0
VISUALSTYLE
  5
34
102
{ACAD_REACTORS
330
2A
102
}
102
{ACAD_XDICTIONARY
360
170
102
}
330
2A
100
AcDbVisualStyle
  2
Conceptual
 70
     9
 71
     3
 72
     2
 73
     0
 90
        0
 40
-0.6
 41
-30.0
 62
     5
 63
     7
 74
     2
 91
        2
 64
     7
 65
   257
 75
     1
175
     1
 42
40.0
 92
        8
 66
     7
 43
1.0
 76
     1
 77
     6
 78
     2
 67
     7
 79
     3
170
     0
171
     0
290
     0
174
     0
 93
        1
 44
0.0
173
     0
291
     0
 45
0.0
1001
ACAD
1000
AcDbSavedByObjectVersion
1070
     0
  0
VISUALSTYLE
  5
35
102
{ACAD_REACTORS
330
2A
102
}
102
{ACAD_XDICTIONARY
360
172
102
}
330
2A
100
AcDbVisualStyle
  2
Dim
 70
    11
 71
     2
 72
     2
 73
     0
 90
        0
 40
-0.6
 41
-30.0
 62
     5
 63
     7
 74
     1
 91
        4
 64
     7
 65
   257
 75
     1
175
     1
 42
1.0
 92
        8
 66
     7
 43
1.0
 76
     1
 77
     6
 78
     2
 67
     7
 79
     5
170
     0
171
     0
290
     0
174
     0
 93
        1
 44
-50.0
173
     0
291
     1
 45
0.0
1001
ACAD
1000
AcDbSavedByObjectVersion
1070
     0
  0
VISUALSTYLE
  5
39
102
{ACAD_REACTORS
330
2A
102
}
102
{ACAD_XDICTIONARY
360
17A
102
}
330
2A
100
AcDbVisualStyle
  2
Facepattern
 70
    15
 71
     2
 72
     2
 73
     0
 90
        0
 40
-0.6
 41
-30.0
 62
     5
 63
     7
 74
     1
 91
        4
 64
     7
 65
   257
 75
     1
175
     1
 42
1.0
 92
        8
 66
     7
 43
1.0
 76
     1
 77
     6
 78
     2
 67
     7
 79
     5
170
     0
171
     0
290
     0
174
     0
 93
        1
 44
0.0
173
     0
291
     1
 45
0.0
1001
ACAD
1000
AcDbSavedByObjectVersion
1070
     0
  0
VISUALSTYLE
  5
2B
102
{ACAD_REACTORS
330
2A
102
}
102
{ACAD_XDICTIONARY
360
15E
102
}
330
2A
100
AcDbVisualStyle
  2
Flat
 70
     0
 71
     2
 72
     1
 73
     1
 90
        2
 40
-0.6
 41
30.0
 62
     5
 63
     7
 74
     0
 91
        4
 64
     7
 65
   257
 75
     1
175
     1
 42
1.0
 92
        8
 66
     7
 43
1.0
 76
     1
 77
     6
 78
     2
 67
     7
 79
     5
170
     0
171
     0
290
     0
174
     0
 93
       13
 44
0.0
173
     0
291
     1
 45
0.0
1001
ACAD
1000
AcDbSavedByObjectVersion
1070
     0
  0
VISUALSTYLE
  5
2C
102
{ACAD_REACTORS
330
2A
102
}
102
{ACAD_XDICTIONARY
360
160
102
}
330
2A
100
AcDbVisualStyle
  2
FlatWithEdges
 70
     1
 71
     2
 72
     1
 73
     1
 90
        2
 40
-0.6
 41
30.0
 62
     5
 63
     7
 74
     1
 91
        4
 64
     7
 65
   257
 75
     1
175
     1
 42
1.0
 92
        0
 66
   257
 43
1.0
 76
     1
 77
     6
 78
     2
 67
     7
 79
     5
170
     0
171
     0
290
     0
174
     0
 93
       13
 44
0.0
173
     0
291
     1
 45
0.0
1001
ACAD
1000
AcDbSavedByObjectVersion
1070
     0
  0
VISUALSTYLE
  5
2D
102
{ACAD_REACTORS
330
2A
102
}
102
{ACAD_XDICTIONARY
360
162
102
}
330
2A
100
AcDbVisualStyle
  2
Gouraud
 70
     2
 71
     2
 72
     2
 73
     1
 90
        2
 40
-0.6
 41
30.0
 62
     5
 63
     7
 74
     0
 91
        4
 64
     7
 65
   257
 75
     1
175
     1
 42
1.0
 92
        0
 66
     7
 43
1.0
 76
     1
 77
     6
 78
     2
 67
     7
 79
     5
170
     0
171
     0
290
     0
174
     0
 93
       13
 44
0.0
173
     0
291
     1
 45
0.0
1001
ACAD
1000
AcDbSavedByObjectVersion
1070
     0
  0
VISUALSTYLE
  5
2E
102
{ACAD_REACTORS
330
2A
102
}
102
{ACAD_XDICTIONARY
360
164
102
}
330
2A
100
AcDbVisualStyle
  2
GouraudWithEdges
 70
     3
 71
     2
 72
     2
 73
     1
 90
        2
 40
-0.6
 41
30.0
 62
     5
 63
     7
 74
     1
 91
        4
 64
     7
 65
   257
 75
     1
175
     1
 42
1.0
 92
        0
 66
   257
 43
1.0
 76
     1
 77
     6
 78
     2
 67
     7
 79
     5
170
     0
171
     0
290
     0
174
     0
 93
       13
 44
0.0
173
     0
291
     1
 45
0.0
1001
ACAD
1000
AcDbSavedByObjectVersion
1070
     0
  0
VISUALSTYLE
  5
38
102
{ACAD_REACTORS
330
2A
102
}
102
{ACAD_XDICTIONARY
360
178
102
}
330
2A
100
AcDbVisualStyle
  2
Linepattern
 70
    14
 71
     2
 72
     2
 73
     0
 90
        0
 40
-0.6
 41
-30.0
 62
     5
 63
     7
 74
     1
 91
        4
 64
     7
 65
   257
 75
     7
175
     7
 42
1.0
 92
        8
 66
     7
 43
1.0
 76
     1
 77
     6
 78
     2
 67
     7
 79
     5
170
     0
171
     0
290
     0
174
     0
 93
        1
 44
0.0
173
     0
291
     1
 45
0.0
1001
ACAD
1000
AcDbSavedByObjectVersion
1070
     0
  0
VISUALSTYLE
  5
33
102
{ACAD_REACTORS
330
2A
102
}
102
{ACAD_XDICTIONARY
360
16E
102
}
330
2A
100
AcDbVisualStyle
  2
Realistic
 70
     8
 71
     2
 72
     2
 73
     0
 90
        0
 40
-0.6
 41
-30.0
 62
     5
 63
     7
 74
     1
 91
        0
 64
     7
 65
   257
 75
     1
175
     1
 42
1.0
 92
        8
 66
     8
 43
1.0
 76
     1
 77
     6
 78
     2
 67
     7
 79
     5
170
     0
171
     0
290
     0
174
     0
 93
       13
 44
0.0
173
     0
291
     0
 45
0.0
1001
ACAD
1000
AcDbSavedByObjectVersion
1070
     0
  0
VISUALSTYLE
  5
37
102
{ACAD_REACTORS
330
2A
102
}
102
{ACAD_XDICTIONARY
360
176
102
}
330
2A
100
AcDbVisualStyle
  2
Thicken
 70
    13
 71
     2
 72
     2
 73
     0
 90
        0
 40
-0.6
 41
-30.0
 62
     5
 63
     7
 74
     1
 91
        4
 64
     7
 65
   257
 75
     1
175
     1
 42
1.0
 92
       12
 66
     7
 43
1.0
 76
     1
 77
     6
 78
     2
 67
     7
 79
     5
170
     0
171
     0
290
     0
174
     0
 93
        1
 44
0.0
173
     0
291
     1
 45
0.0
1001
ACAD
1000
AcDbSavedByObjectVersion
1070
     0
  0
DICTIONARYVAR
  5
15C
102
{ACAD_REACTORS
330
159
102
}
330
159
100
DictionaryVariables
280
     0
  1
2
  0
DICTIONARYVAR
  5
15D
102
{ACAD_REACTORS
330
159
102
}
330
159
100
DictionaryVariables
280
     0
  1
1
  0
DICTIONARY
  5
180
330
3D
100
AcDbDictionary
280
     1
281
     1
  3
ACAD_XREC_ROUNDTRIP
360
181
  0
DICTIONARY
  5
17E
330
3C
100
AcDbDictionary
280
     1
281
     1
  3
ACAD_XREC_ROUNDTRIP
360
17F
  0
DICTIONARY
  5
182
330
3E
100
AcDbDictionary
280
     1
281
     1
  3
ACAD_XREC_ROUNDTRIP
360
183
  0
DICTIONARY
  5
166
330
2F
100
AcDbDictionary
280
     1
281
     1
  3
ACAD_XREC_ROUNDTRIP
360
167
  0
DICTIONARY
  5
16A
330
31
100
AcDbDictionary
280
     1
281
     1
  3
ACAD_XREC_ROUNDTRIP
360
16B
  0
DICTIONARY
  5
168
330
30
100
AcDbDictionary
280
     1
281
     1
  3
ACAD_XREC_ROUNDTRIP
360
169
  0
DICTIONARY
  5
16C
330
32
100
AcDbDictionary
280
     1
281
     1
  3
ACAD_XREC_ROUNDTRIP
360
16D
  0
DICTIONARY
  5
174
330
36
100
AcDbDictionary
280
     1
281
     1
  3
ACAD_XREC_ROUNDTRIP
360
175
  0
DICTIONARY
  5
17C
330
3A
100
AcDbDictionary
280
     1
281
     1
  3
ACAD_XREC_ROUNDTRIP
360
17D
  0
DICTIONARY
  5
170
330
34
100
AcDbDictionary
280
     1
281
     1
  3
ACAD_XREC_ROUNDTRIP
360
171
  0
DICTIONARY
  5
172
330
35
100
AcDbDictionary
280
     1
281
     1
  3
ACAD_XREC_ROUNDTRIP
360
173
  0
DICTIONARY
  5
17A
330
39
100
AcDbDictionary
280
     1
281
     1
  3
ACAD_XREC_ROUNDTRIP
360
17B
  0
DICTIONARY
  5
15E
330
2B
100
AcDbDictionary
280
     1
281
     1
  3
ACAD_XREC_ROUNDTRIP
360
15F
  0
DICTIONARY
  5
160
330
2C
100
AcDbDictionary
280
     1
281
     1
  3
ACAD_XREC_ROUNDTRIP
360
161
  0
DICTIONARY
  5
162
330
2D
100
AcDbDictionary
280
     1
281
     1
  3
ACAD_XREC_ROUNDTRIP
360
163
  0
DICTIONARY
  5
164
330
2E
100
AcDbDictionary
280
     1
281
     1
  3
ACAD_XREC_ROUNDTRIP
360
165
  0
DICTIONARY
  5
178
330
38
100
AcDbDictionary
280
     1
281
     1
  3
ACAD_XREC_ROUNDTRIP
360
179
  0
DICTIONARY
  5
16E
330
33
100
AcDbDictionary
280
     1
281
     1
  3
ACAD_XREC_ROUNDTRIP
360
16F
  0
DICTIONARY
  5
176
330
37
100
AcDbDictionary
280
     1
281
     1
  3
ACAD_XREC_ROUNDTRIP
360
177
  0
XRECORD
  5
181
102
{ACAD_REACTORS
330
180
102
}
330
180
100
AcDbXrecord
280
     1
102
MATERIAL
148
0.0
149
0.0
149
0.0
 93
        0
 94
      127
282
     0
 72
     1
 77
     1
171
     1
175
     1
179
     1
273
     0
  0
XRECORD
  5
17F
102
{ACAD_REACTORS
330
17E
102
}
330
17E
100
AcDbXrecord
280
     1
102
MATERIAL
148
0.0
149
0.0
149
0.0
 93
        0
 94
      127
282
     0
 72
     1
 77
     1
171
     1
175
     1
179
     1
273
     0
  0
XRECORD
  5
183
102
{ACAD_REACTORS
330
182
102
}
330
182
100
AcDbXrecord
280
     1
102
MATERIAL
148
0.0
149
0.0
149
0.0
 93
        0
 94
      127
282
     0
 72
     1
 77
     1
171
     1
175
     1
179
     1
273
     0
  0
XRECORD
  5
167
102
{ACAD_REACTORS
330
166
102
}
330
166
100
AcDbXrecord
280
     1
102
RTVSPropertyOp0
 70
     1
102
RTVSPropertyOp1
 70
     1
102
RTVSPropertyOp2
 70
     1
102
RTVSPropertyOp3
 70
     1
102
RTVSPropertyOp4
 70
     1
102
RTVSPropertyOp5
 70
     1
102
RTVSPropertyOp6
 70
     1
102
RTVSPropertyOp7
 70
     1
102
RTVSPropertyOp8
 70
     1
102
RTVSPropertyOp9
 70
     1
102
RTVSPropertyOp10
 70
     1
102
RTVSPropertyOp11
 70
     1
102
RTVSPropertyOp12
 70
     1
102
RTVSPropertyOp13
 70
     1
102
RTVSPropertyOp14
 70
     1
102
RTVSPropertyOp15
 70
     1
102
RTVSPropertyOp16
 70
     1
102
RTVSPropertyOp17
 70
     1
102
RTVSPropertyOp18
 70
     1
102
RTVSPropertyOp19
 70
     1
102
RTVSPropertyOp20
 70
     1
102
RTVSPropertyOp21
 70
     1
102
RTVSPropertyOp22
 70
     1
102
RTVSPropertyOp23
 70
     1
102
RTVSPropertyOp24
 70
     1
102
RTVSPropertyOp25
 70
     1
102
RTVSPropertyOp26
 70
     1
102
RTVSPropertyOp27
 70
     1
102
RTVSPropertyOp28
 70
     1
102
RTVSPropertyOp29
 70
     1
102
RTVSPropertyOp30
 70
     1
102
RTVSPropertyOp31
 70
     1
102
RTVSPropertyOp32
 70
     1
  0
XRECORD
  5
16B
102
{ACAD_REACTORS
330
16A
102
}
330
16A
100
AcDbXrecord
280
     1
102
RTVSPropertyOp0
 70
     1
102
RTVSPropertyOp1
 70
     1
102
RTVSPropertyOp2
 70
     1
102
RTVSPropertyOp3
 70
     1
102
RTVSPropertyOp4
 70
     1
102
RTVSPropertyOp5
 70
     1
102
RTVSPropertyOp6
 70
     1
102
RTVSPropertyOp7
 70
     1
102
RTVSPropertyOp8
 70
     1
102
RTVSPropertyOp9
 70
     1
102
RTVSPropertyOp10
 70
     1
102
RTVSPropertyOp11
 70
     1
102
RTVSPropertyOp12
 70
     1
102
RTVSPropertyOp13
 70
     1
102
RTVSPropertyOp14
 70
     1
102
RTVSPropertyOp15
 70
     1
102
RTVSPropertyOp16
 70
     1
102
RTVSPropertyOp17
 70
     1
102
RTVSPropertyOp18
 70
     1
102
RTVSPropertyOp19
 70
     1
102
RTVSPropertyOp20
 70
     1
102
RTVSPropertyOp21
 70
     1
102
RTVSPropertyOp22
 70
     1
102
RTVSPropertyOp23
 70
     1
102
RTVSPropertyOp24
 70
     1
102
RTVSPropertyOp25
 70
     1
102
RTVSPropertyOp26
 70
     1
102
RTVSPropertyOp27
 70
     1
102
RTVSPropertyOp28
 70
     1
102
RTVSPropertyOp29
 70
     1
102
RTVSPropertyOp30
 70
     1
102
RTVSPropertyOp31
 70
     1
102
RTVSPropertyOp32
 70
     1
  0
XRECORD
  5
169
102
{ACAD_REACTORS
330
168
102
}
330
168
100
AcDbXrecord
280
     1
102
RTVSPropertyOp0
 70
     1
102
RTVSPropertyOp1
 70
     1
102
RTVSPropertyOp2
 70
     1
102
RTVSPropertyOp3
 70
     1
102
RTVSPropertyOp4
 70
     1
102
RTVSPropertyOp5
 70
     1
102
RTVSPropertyOp6
 70
     1
102
RTVSPropertyOp7
 70
     1
102
RTVSPropertyOp8
 70
     1
102
RTVSPropertyOp9
 70
     1
102
RTVSPropertyOp10
 70
     1
102
RTVSPropertyOp11
 70
     1
102
RTVSPropertyOp12
 70
     1
102
RTVSPropertyOp13
 70
     1
102
RTVSPropertyOp14
 70
     1
102
RTVSPropertyOp15
 70
     1
102
RTVSPropertyOp16
 70
     1
102
RTVSPropertyOp17
 70
     1
102
RTVSPropertyOp18
 70
     1
102
RTVSPropertyOp19
 70
     1
102
RTVSPropertyOp20
 70
     1
102
RTVSPropertyOp21
 70
     1
102
RTVSPropertyOp22
 70
     1
102
RTVSPropertyOp23
 70
     1
102
RTVSPropertyOp24
 70
     1
102
RTVSPropertyOp25
 70
     1
102
RTVSPropertyOp26
 70
     1
102
RTVSPropertyOp27
 70
     1
102
RTVSPropertyOp28
 70
     1
102
RTVSPropertyOp29
 70
     1
102
RTVSPropertyOp30
 70
     1
102
RTVSPropertyOp31
 70
     1
102
RTVSPropertyOp32
 70
     1
  0
XRECORD
  5
16D
102
{ACAD_REACTORS
330
16C
102
}
330
16C
100
AcDbXrecord
280
     1
102
RTVSPropertyOp0
 70
     1
102
RTVSPropertyOp1
 70
     1
102
RTVSPropertyOp2
 70
     1
102
RTVSPropertyOp3
 70
     1
102
RTVSPropertyOp4
 70
     1
102
RTVSPropertyOp5
 70
     1
102
RTVSPropertyOp6
 70
     1
102
RTVSPropertyOp7
 70
     1
102
RTVSPropertyOp8
 70
     1
102
RTVSPropertyOp9
 70
     1
102
RTVSPropertyOp10
 70
     1
102
RTVSPropertyOp11
 70
     1
102
RTVSPropertyOp12
 70
     1
102
RTVSPropertyOp13
 70
     1
102
RTVSPropertyOp14
 70
     1
102
RTVSPropertyOp15
 70
     1
102
RTVSPropertyOp16
 70
     1
102
RTVSPropertyOp17
 70
     1
102
RTVSPropertyOp18
 70
     1
102
RTVSPropertyOp19
 70
     1
102
RTVSPropertyOp20
 70
     1
102
RTVSPropertyOp21
 70
     1
102
RTVSPropertyOp22
 70
     1
102
RTVSPropertyOp23
 70
     1
102
RTVSPropertyOp24
 70
     1
102
RTVSPropertyOp25
 70
     1
102
RTVSPropertyOp26
 70
     1
102
RTVSPropertyOp27
 70
     1
102
RTVSPropertyOp28
 70
     1
102
RTVSPropertyOp29
 70
     1
102
RTVSPropertyOp30
 70
     1
102
RTVSPropertyOp31
 70
     1
102
RTVSPropertyOp32
 70
     1
  0
XRECORD
  5
175
102
{ACAD_REACTORS
330
174
102
}
330
174
100
AcDbXrecord
280
     1
102
RTVSPropertyOp0
 70
     1
102
RTVSPropertyOp1
 70
     1
102
RTVSPropertyOp2
 70
     1
102
RTVSPropertyOp3
 70
     1
102
RTVSPropertyOp4
 70
     1
102
RTVSPropertyOp5
 70
     1
102
RTVSPropertyOp6
 70
     1
102
RTVSPropertyOp7
 70
     1
102
RTVSPropertyOp8
 70
     1
102
RTVSPropertyOp9
 70
     1
102
RTVSPropertyOp10
 70
     1
102
RTVSPropertyOp11
 70
     1
102
RTVSPropertyOp12
 70
     1
102
RTVSPropertyOp13
 70
     1
102
RTVSPropertyOp14
 70
     1
102
RTVSPropertyOp15
 70
     1
102
RTVSPropertyOp16
 70
     1
102
RTVSPropertyOp17
 70
     1
102
RTVSPropertyOp18
 70
     1
102
RTVSPropertyOp19
 70
     1
102
RTVSPropertyOp20
 70
     1
102
RTVSPropertyOp21
 70
     1
102
RTVSPropertyOp22
 70
     1
102
RTVSPropertyOp23
 70
     1
102
RTVSPropertyOp24
 70
     1
102
RTVSPropertyOp25
 70
     1
102
RTVSPropertyOp26
 70
     1
102
RTVSPropertyOp27
 70
     1
102
RTVSPropertyOp28
 70
     1
102
RTVSPropertyOp29
 70
     1
102
RTVSPropertyOp30
 70
     1
102
RTVSPropertyOp31
 70
     1
102
RTVSPropertyOp32
 70
     1
  0
XRECORD
  5
17D
102
{ACAD_REACTORS
330
17C
102
}
330
17C
100
AcDbXrecord
280
     1
102
RTVSPropertyOp0
 70
     1
102
RTVSPropertyOp1
 70
     1
102
RTVSPropertyOp2
 70
     1
102
RTVSPropertyOp3
 70
     1
102
RTVSPropertyOp4
 70
     1
102
RTVSPropertyOp5
 70
     1
102
RTVSPropertyOp6
 70
     1
102
RTVSPropertyOp7
 70
     1
102
RTVSPropertyOp8
 70
     1
102
RTVSPropertyOp9
 70
     1
102
RTVSPropertyOp10
 70
     1
102
RTVSPropertyOp11
 70
     1
102
RTVSPropertyOp12
 70
     1
102
RTVSPropertyOp13
 70
     1
102
RTVSPropertyOp14
 70
     1
102
RTVSPropertyOp15
 70
     1
102
RTVSPropertyOp16
 70
     1
102
RTVSPropertyOp17
 70
     1
102
RTVSPropertyOp18
 70
     1
102
RTVSPropertyOp19
 70
     1
102
RTVSPropertyOp20
 70
     1
102
RTVSPropertyOp21
 70
     1
102
RTVSPropertyOp22
 70
     1
102
RTVSPropertyOp23
 70
     1
102
RTVSPropertyOp24
 70
     1
102
RTVSPropertyOp25
 70
     1
102
RTVSPropertyOp26
 70
     1
102
RTVSPropertyOp27
 70
     1
102
RTVSPropertyOp28
 70
     1
102
RTVSPropertyOp29
 70
     1
102
RTVSPropertyOp30
 70
     1
102
RTVSPropertyOp31
 70
     1
102
RTVSPropertyOp32
 70
     1
  0
XRECORD
  5
171
102
{ACAD_REACTORS
330
170
102
}
330
170
100
AcDbXrecord
280
     1
102
RTVSPropertyOp0
 70
     1
102
RTVSPropertyOp1
 70
     1
102
RTVSPropertyOp2
 70
     1
102
RTVSPropertyOp3
 70
     1
102
RTVSPropertyOp4
 70
     1
102
RTVSPropertyOp5
 70
     1
102
RTVSPropertyOp6
 70
     1
102
RTVSPropertyOp7
 70
     1
102
RTVSPropertyOp8
 70
     1
102
RTVSPropertyOp9
 70
     1
102
RTVSPropertyOp10
 70
     1
102
RTVSPropertyOp11
 70
     1
102
RTVSPropertyOp12
 70
     1
102
RTVSPropertyOp13
 70
     1
102
RTVSPropertyOp14
 70
     1
102
RTVSPropertyOp15
 70
     1
102
RTVSPropertyOp16
 70
     1
102
RTVSPropertyOp17
 70
     1
102
RTVSPropertyOp18
 70
     1
102
RTVSPropertyOp19
 70
     1
102
RTVSPropertyOp20
 70
     1
102
RTVSPropertyOp21
 70
     1
102
RTVSPropertyOp22
 70
     1
102
RTVSPropertyOp23
 70
     1
102
RTVSPropertyOp24
 70
     1
102
RTVSPropertyOp25
 70
     1
102
RTVSPropertyOp26
 70
     1
102
RTVSPropertyOp27
 70
     1
102
RTVSPropertyOp28
 70
     1
102
RTVSPropertyOp29
 70
     1
102
RTVSPropertyOp30
 70
     1
102
RTVSPropertyOp31
 70
     1
102
RTVSPropertyOp32
 70
     1
  0
XRECORD
  5
173
102
{ACAD_REACTORS
330
172
102
}
330
172
100
AcDbXrecord
280
     1
102
RTVSPropertyOp0
 70
     1
102
RTVSPropertyOp1
 70
     1
102
RTVSPropertyOp2
 70
     1
102
RTVSPropertyOp3
 70
     1
102
RTVSPropertyOp4
 70
     1
102
RTVSPropertyOp5
 70
     1
102
RTVSPropertyOp6
 70
     1
102
RTVSPropertyOp7
 70
     1
102
RTVSPropertyOp8
 70
     1
102
RTVSPropertyOp9
 70
     1
102
RTVSPropertyOp10
 70
     1
102
RTVSPropertyOp11
 70
     1
102
RTVSPropertyOp12
 70
     1
102
RTVSPropertyOp13
 70
     1
102
RTVSPropertyOp14
 70
     1
102
RTVSPropertyOp15
 70
     1
102
RTVSPropertyOp16
 70
     1
102
RTVSPropertyOp17
 70
     1
102
RTVSPropertyOp18
 70
     1
102
RTVSPropertyOp19
 70
     1
102
RTVSPropertyOp20
 70
     1
102
RTVSPropertyOp21
 70
     1
102
RTVSPropertyOp22
 70
     1
102
RTVSPropertyOp23
 70
     1
102
RTVSPropertyOp24
 70
     1
102
RTVSPropertyOp25
 70
     1
102
RTVSPropertyOp26
 70
     1
102
RTVSPropertyOp27
 70
     1
102
RTVSPropertyOp28
 70
     1
102
RTVSPropertyOp29
 70
     1
102
RTVSPropertyOp30
 70
     1
102
RTVSPropertyOp31
 70
     1
102
RTVSPropertyOp32
 70
     1
  0
XRECORD
  5
17B
102
{ACAD_REACTORS
330
17A
102
}
330
17A
100
AcDbXrecord
280
     1
102
RTVSPropertyOp0
 70
     1
102
RTVSPropertyOp1
 70
     1
102
RTVSPropertyOp2
 70
     1
102
RTVSPropertyOp3
 70
     1
102
RTVSPropertyOp4
 70
     1
102
RTVSPropertyOp5
 70
     1
102
RTVSPropertyOp6
 70
     1
102
RTVSPropertyOp7
 70
     1
102
RTVSPropertyOp8
 70
     1
102
RTVSPropertyOp9
 70
     1
102
RTVSPropertyOp10
 70
     1
102
RTVSPropertyOp11
 70
     1
102
RTVSPropertyOp12
 70
     1
102
RTVSPropertyOp13
 70
     1
102
RTVSPropertyOp14
 70
     1
102
RTVSPropertyOp15
 70
     1
102
RTVSPropertyOp16
 70
     1
102
RTVSPropertyOp17
 70
     1
102
RTVSPropertyOp18
 70
     1
102
RTVSPropertyOp19
 70
     1
102
RTVSPropertyOp20
 70
     1
102
RTVSPropertyOp21
 70
     1
102
RTVSPropertyOp22
 70
     1
102
RTVSPropertyOp23
 70
     1
102
RTVSPropertyOp24
 70
     1
102
RTVSPropertyOp25
 70
     1
102
RTVSPropertyOp26
 70
     1
102
RTVSPropertyOp27
 70
     1
102
RTVSPropertyOp28
 70
     1
102
RTVSPropertyOp29
 70
     1
102
RTVSPropertyOp30
 70
     1
102
RTVSPropertyOp31
 70
     1
102
RTVSPropertyOp32
 70
     1
  0
XRECORD
  5
15F
102
{ACAD_REACTORS
330
15E
102
}
330
15E
100
AcDbXrecord
280
     1
102
RTVSPropertyOp0
 70
     1
102
RTVSPropertyOp1
 70
     1
102
RTVSPropertyOp2
 70
     1
102
RTVSPropertyOp3
 70
     1
102
RTVSPropertyOp4
 70
     1
102
RTVSPropertyOp5
 70
     1
102
RTVSPropertyOp6
 70
     1
102
RTVSPropertyOp7
 70
     1
102
RTVSPropertyOp8
 70
     1
102
RTVSPropertyOp9
 70
     1
102
RTVSPropertyOp10
 70
     1
102
RTVSPropertyOp11
 70
     1
102
RTVSPropertyOp12
 70
     1
102
RTVSPropertyOp13
 70
     1
102
RTVSPropertyOp14
 70
     1
102
RTVSPropertyOp15
 70
     1
102
RTVSPropertyOp16
 70
     1
102
RTVSPropertyOp17
 70
     1
102
RTVSPropertyOp18
 70
     1
102
RTVSPropertyOp19
 70
     1
102
RTVSPropertyOp20
 70
     1
102
RTVSPropertyOp21
 70
     1
102
RTVSPropertyOp22
 70
     1
102
RTVSPropertyOp23
 70
     1
102
RTVSPropertyOp24
 70
     1
102
RTVSPropertyOp25
 70
     1
102
RTVSPropertyOp26
 70
     1
102
RTVSPropertyOp27
 70
     1
102
RTVSPropertyOp28
 70
     1
102
RTVSPropertyOp29
 70
     1
102
RTVSPropertyOp30
 70
     1
102
RTVSPropertyOp31
 70
     1
102
RTVSPropertyOp32
 70
     1
  0
XRECORD
  5
161
102
{ACAD_REACTORS
330
160
102
}
330
160
100
AcDbXrecord
280
     1
102
RTVSPropertyOp0
 70
     1
102
RTVSPropertyOp1
 70
     1
102
RTVSPropertyOp2
 70
     1
102
RTVSPropertyOp3
 70
     1
102
RTVSPropertyOp4
 70
     1
102
RTVSPropertyOp5
 70
     1
102
RTVSPropertyOp6
 70
     1
102
RTVSPropertyOp7
 70
     1
102
RTVSPropertyOp8
 70
     1
102
RTVSPropertyOp9
 70
     1
102
RTVSPropertyOp10
 70
     1
102
RTVSPropertyOp11
 70
     1
102
RTVSPropertyOp12
 70
     1
102
RTVSPropertyOp13
 70
     1
102
RTVSPropertyOp14
 70
     1
102
RTVSPropertyOp15
 70
     1
102
RTVSPropertyOp16
 70
     1
102
RTVSPropertyOp17
 70
     1
102
RTVSPropertyOp18
 70
     1
102
RTVSPropertyOp19
 70
     1
102
RTVSPropertyOp20
 70
     1
102
RTVSPropertyOp21
 70
     1
102
RTVSPropertyOp22
 70
     1
102
RTVSPropertyOp23
 70
     1
102
RTVSPropertyOp24
 70
     1
102
RTVSPropertyOp25
 70
     1
102
RTVSPropertyOp26
 70
     1
102
RTVSPropertyOp27
 70
     1
102
RTVSPropertyOp28
 70
     1
102
RTVSPropertyOp29
 70
     1
102
RTVSPropertyOp30
 70
     1
102
RTVSPropertyOp31
 70
     1
102
RTVSPropertyOp32
 70
     1
  0
XRECORD
  5
163
102
{ACAD_REACTORS
330
162
102
}
330
162
100
AcDbXrecord
280
     1
102
RTVSPropertyOp0
 70
     1
102
RTVSPropertyOp1
 70
     1
102
RTVSPropertyOp2
 70
     1
102
RTVSPropertyOp3
 70
     1
102
RTVSPropertyOp4
 70
     1
102
RTVSPropertyOp5
 70
     1
102
RTVSPropertyOp6
 70
     1
102
RTVSPropertyOp7
 70
     1
102
RTVSPropertyOp8
 70
     1
102
RTVSPropertyOp9
 70
     1
102
RTVSPropertyOp10
 70
     1
102
RTVSPropertyOp11
 70
     1
102
RTVSPropertyOp12
 70
     1
102
RTVSPropertyOp13
 70
     1
102
RTVSPropertyOp14
 70
     1
102
RTVSPropertyOp15
 70
     1
102
RTVSPropertyOp16
 70
     1
102
RTVSPropertyOp17
 70
     1
102
RTVSPropertyOp18
 70
     1
102
RTVSPropertyOp19
 70
     1
102
RTVSPropertyOp20
 70
     1
102
RTVSPropertyOp21
 70
     1
102
RTVSPropertyOp22
 70
     1
102
RTVSPropertyOp23
 70
     1
102
RTVSPropertyOp24
 70
     1
102
RTVSPropertyOp25
 70
     1
102
RTVSPropertyOp26
 70
     1
102
RTVSPropertyOp27
 70
     1
102
RTVSPropertyOp28
 70
     1
102
RTVSPropertyOp29
 70
     1
102
RTVSPropertyOp30
 70
     1
102
RTVSPropertyOp31
 70
     1
102
RTVSPropertyOp32
 70
     1
  0
XRECORD
  5
165
102
{ACAD_REACTORS
330
164
102
}
330
164
100
AcDbXrecord
280
     1
102
RTVSPropertyOp0
 70
     1
102
RTVSPropertyOp1
 70
     1
102
RTVSPropertyOp2
 70
     1
102
RTVSPropertyOp3
 70
     1
102
RTVSPropertyOp4
 70
     1
102
RTVSPropertyOp5
 70
     1
102
RTVSPropertyOp6
 70
     1
102
RTVSPropertyOp7
 70
     1
102
RTVSPropertyOp8
 70
     1
102
RTVSPropertyOp9
 70
     1
102
RTVSPropertyOp10
 70
     1
102
RTVSPropertyOp11
 70
     1
102
RTVSPropertyOp12
 70
     1
102
RTVSPropertyOp13
 70
     1
102
RTVSPropertyOp14
 70
     1
102
RTVSPropertyOp15
 70
     1
102
RTVSPropertyOp16
 70
     1
102
RTVSPropertyOp17
 70
     1
102
RTVSPropertyOp18
 70
     1
102
RTVSPropertyOp19
 70
     1
102
RTVSPropertyOp20
 70
     1
102
RTVSPropertyOp21
 70
     1
102
RTVSPropertyOp22
 70
     1
102
RTVSPropertyOp23
 70
     1
102
RTVSPropertyOp24
 70
     1
102
RTVSPropertyOp25
 70
     1
102
RTVSPropertyOp26
 70
     1
102
RTVSPropertyOp27
 70
     1
102
RTVSPropertyOp28
 70
     1
102
RTVSPropertyOp29
 70
     1
102
RTVSPropertyOp30
 70
     1
102
RTVSPropertyOp31
 70
     1
102
RTVSPropertyOp32
 70
     1
  0
XRECORD
  5
179
102
{ACAD_REACTORS
330
178
102
}
330
178
100
AcDbXrecord
280
     1
102
RTVSPropertyOp0
 70
     1
102
RTVSPropertyOp1
 70
     1
102
RTVSPropertyOp2
 70
     1
102
RTVSPropertyOp3
 70
     1
102
RTVSPropertyOp4
 70
     1
102
RTVSPropertyOp5
 70
     1
102
RTVSPropertyOp6
 70
     1
102
RTVSPropertyOp7
 70
     1
102
RTVSPropertyOp8
 70
     1
102
RTVSPropertyOp9
 70
     1
102
RTVSPropertyOp10
 70
     1
102
RTVSPropertyOp11
 70
     1
102
RTVSPropertyOp12
 70
     1
102
RTVSPropertyOp13
 70
     1
102
RTVSPropertyOp14
 70
     1
102
RTVSPropertyOp15
 70
     1
102
RTVSPropertyOp16
 70
     1
102
RTVSPropertyOp17
 70
     1
102
RTVSPropertyOp18
 70
     1
102
RTVSPropertyOp19
 70
     1
102
RTVSPropertyOp20
 70
     1
102
RTVSPropertyOp21
 70
     1
102
RTVSPropertyOp22
 70
     1
102
RTVSPropertyOp23
 70
     1
102
RTVSPropertyOp24
 70
     1
102
RTVSPropertyOp25
 70
     1
102
RTVSPropertyOp26
 70
     1
102
RTVSPropertyOp27
 70
     1
102
RTVSPropertyOp28
 70
     1
102
RTVSPropertyOp29
 70
     1
102
RTVSPropertyOp30
 70
     1
102
RTVSPropertyOp31
 70
     1
102
RTVSPropertyOp32
 70
     1
  0
XRECORD
  5
16F
102
{ACAD_REACTORS
330
16E
102
}
330
16E
100
AcDbXrecord
280
     1
102
RTVSPropertyOp0
 70
     1
102
RTVSPropertyOp1
 70
     1
102
RTVSPropertyOp2
 70
     1
102
RTVSPropertyOp3
 70
     1
102
RTVSPropertyOp4
 70
     1
102
RTVSPropertyOp5
 70
     1
102
RTVSPropertyOp6
 70
     1
102
RTVSPropertyOp7
 70
     1
102
RTVSPropertyOp8
 70
     1
102
RTVSPropertyOp9
 70
     1
102
RTVSPropertyOp10
 70
     1
102
RTVSPropertyOp11
 70
     1
102
RTVSPropertyOp12
 70
     1
102
RTVSPropertyOp13
 70
     1
102
RTVSPropertyOp14
 70
     1
102
RTVSPropertyOp15
 70
     1
102
RTVSPropertyOp16
 70
     1
102
RTVSPropertyOp17
 70
     1
102
RTVSPropertyOp18
 70
     1
102
RTVSPropertyOp19
 70
     1
102
RTVSPropertyOp20
 70
     1
102
RTVSPropertyOp21
 70
     1
102
RTVSPropertyOp22
 70
     1
102
RTVSPropertyOp23
 70
     1
102
RTVSPropertyOp24
 70
     1
102
RTVSPropertyOp25
 70
     1
102
RTVSPropertyOp26
 70
     1
102
RTVSPropertyOp27
 70
     1
102
RTVSPropertyOp28
 70
     1
102
RTVSPropertyOp29
 70
     1
102
RTVSPropertyOp30
 70
     1
102
RTVSPropertyOp31
 70
     1
102
RTVSPropertyOp32
 70
     1
  0
XRECORD
  5
177
102
{ACAD_REACTORS
330
176
102
}
330
176
100
AcDbXrecord
280
     1
102
RTVSPropertyOp0
 70
     1
102
RTVSPropertyOp1
 70
     1
102
RTVSPropertyOp2
 70
     1
102
RTVSPropertyOp3
 70
     1
102
RTVSPropertyOp4
 70
     1
102
RTVSPropertyOp5
 70
     1
102
RTVSPropertyOp6
 70
     1
102
RTVSPropertyOp7
 70
     1
102
RTVSPropertyOp8
 70
     1
102
RTVSPropertyOp9
 70
     1
102
RTVSPropertyOp10
 70
     1
102
RTVSPropertyOp11
 70
     1
102
RTVSPropertyOp12
 70
     1
102
RTVSPropertyOp13
 70
     1
102
RTVSPropertyOp14
 70
     1
102
RTVSPropertyOp15
 70
     1
102
RTVSPropertyOp16
 70
     1
102
RTVSPropertyOp17
 70
     1
102
RTVSPropertyOp18
 70
     1
102
RTVSPropertyOp19
 70
     1
102
RTVSPropertyOp20
 70
     1
102
RTVSPropertyOp21
 70
     1
102
RTVSPropertyOp22
 70
     1
102
RTVSPropertyOp23
 70
     1
102
RTVSPropertyOp24
 70
     1
102
RTVSPropertyOp25
 70
     1
102
RTVSPropertyOp26
 70
     1
102
RTVSPropertyOp27
 70
     1
102
RTVSPropertyOp28
 70
     1
102
RTVSPropertyOp29
 70
     1
102
RTVSPropertyOp30
 70
     1
102
RTVSPropertyOp31
 70
     1
102
RTVSPropertyOp32
 70
     1
  0
ENDSEC
  0
EOF
