999
DXF file: qma_100mm.dxf
999
Pro/ENGINEER 2007460 by Parametric Technology Corporation
  0
SECTION
  2
HEADER
  9
$ACADVER
  1
AC1015
  9
$DWGCODEPAGE
  3
ANSI_1252
  9
$EXTMAX
 10
297.0
 20
210.0
 30
0.0
  9
$EXTMIN
 10
0.0
 20
0.0
 30
0.0
  9
$LIMMIN
 10
0.0
 20
0.0
  9
$LIMMAX
 10
297.0
 20
210.0
  9
$VIEWCTR
 10
148.5
 20
105.0
  9
$VIEWSIZE
 40
210.0
  9
$CLAYER
  8
0
  9
$LTSCALE
 40
16.335
  9
$CELTYPE
  6
BYLAYER
  9
$DIMSCALE
 40
1.0
  9
$DIMASZ
 40
3.5
  9
$DIMEXO
 40
1.85625
  9
$DIMDLI
 40
11.286
  9
$DIMEXE
 40
5.346
  9
$DIMCEN
 40
2.673
  9
$DIMLFAC
 40
1.0
  9
$DIMBLK
  1
_FILLED
  9
$DIMTXT
 40
3.5
  9
$DIMTOL
 70
1
  9
$DIMLIM
 70
0
  9
$DIMTFAC
 40
1.0
  9
$DIMTP
 40
0.01
  9
$DIMTM
 40
0.01
  9
$PDMODE
 70
3
  9
$PDSIZE
 40
8.0
  9
$HANDSEED
  5
29C
  9
$MEASUREMENT
 70
1
  9
$INSUNITS
 70
4
  0
ENDSEC
  0
SECTION
  2
CLASSES
  0
CLASS
  1
ACDBDICTIONARYWDFLT
  2
AcDbDictionaryWithDefault
  3
AutoCAD 2000
 90
0
280
0
281
0
  0
CLASS
  1
ACDBPLACEHOLDER
  2
AcDbPlaceHolder
  3
AutoCAD 2000
 90
0
280
0
281
0
  0
CLASS
  1
LAYOUT
  2
AcDbLayout
  3
AutoCAD 2000
 90
0
280
0
281
0
  0
ENDSEC
  0
SECTION
  2
TABLES
  0
TABLE
  2
VPORT
  5
8
100
AcDbSymbolTable
 70
2
  0
VPORT
  5
1F4
100
AcDbSymbolTableRecord
100
AcDbViewportTableRecord
  2
*ACTIVE
 70
0
 10
0.0
 20
0.0
 11
1.0
 21
1.0
 12
148.5
 22
105.0
 13
0.0
 23
0.0
 14
1.0
 24
1.0
 15
0.0
 25
0.0
 16
0.0
 26
0.0
 36
1.0
 17
0.0
 27
0.0
 37
0.0
 40
210.0
 41
1.4142857143
 42
50.0
 43
0.0
 44
0.0
 50
0.0
 51
0.0
 71
0
 72
100
 73
1
 74
1
 75
0
 76
0
 77
0
 78
0
  0
ENDTAB
  0
TABLE
  2
LTYPE
  5
5
100
AcDbSymbolTable
 70
6
  0
LTYPE
  5
14
100
AcDbSymbolTableRecord
100
AcDbLinetypeTableRecord
  2
BYBLOCK
 70
0
  3

 72
65
 73
0
 40
0.0
  0
LTYPE
  5
15
100
AcDbSymbolTableRecord
100
AcDbLinetypeTableRecord
  2
BYLAYER
 70
0
  3

 72
65
 73
0
 40
0.0
  0
LTYPE
  5
16
100
AcDbSymbolTableRecord
100
AcDbLinetypeTableRecord
  2
CONTINUOUS
 70
64
  3
Solid line
 72
65
 73
0
 40
0.0
  0
LTYPE
  5
1F5
100
AcDbSymbolTableRecord
100
AcDbLinetypeTableRecord
  2
CENTER
 70
64
  3
____ _ ____ _ ____ _ ____ _ ____ _ ____ _ ____
 72
65
 73
4
 40
0.6
 49
0.375
 74
0
 49
-0.075
 74
0
 49
0.075
 74
0
 49
-0.075
 74
0
  0
LTYPE
  5
1F6
100
AcDbSymbolTableRecord
100
AcDbLinetypeTableRecord
  2
HIDDEN
 70
64
  3
- - - - - - - - - - - - - - - - - - - -
 72
65
 73
2
 40
0.2
 49
0.1
 74
0
 49
-0.1
 74
0
  0
LTYPE
  5
1F7
100
AcDbSymbolTableRecord
100
AcDbLinetypeTableRecord
  2
PHANTOM
 70
64
  3
_____ _ _ _____ _ _ _____ _ _ _____
 72
65
 73
6
 40
0.8
 49
0.45
 74
0
 49
-0.05
 74
0
 49
0.1
 74
0
 49
-0.05
 74
0
 49
0.1
 74
0
 49
-0.05
 74
0
  0
LTYPE
  5
1F8
100
AcDbSymbolTableRecord
100
AcDbLinetypeTableRecord
  2
DOT
 70
64
  3
. . . . . . . . . . . . . . . . . . . .
 72
65
 73
2
 40
0.2
 49
0.1
 74
0
 49
-0.1
 74
0
  0
LTYPE
  5
1F9
100
AcDbSymbolTableRecord
100
AcDbLinetypeTableRecord
  2
DASHED
 70
64
  3
- - - - - - - - - - - - - - - - - - - -
 72
65
 73
2
 40
0.2
 49
0.1
 74
0
 49
-0.1
 74
0
  0
ENDTAB
  0
TABLE
  2
LAYER
  5
2
100
AcDbSymbolTable
 70
36
  0
LAYER
  5
10
100
AcDbSymbolTableRecord
100
AcDbLayerTableRecord
  2
0
 70
0
 62
7
  6
CONTINUOUS
370
-3
390
F
  0
LAYER
  5
1FA
100
AcDbSymbolTableRecord
100
AcDbLayerTableRecord
  2
DEFAULT_1
 70
0
 62
7
  6
CENTER
370
-3
390
F
  0
LAYER
  5
1FB
100
AcDbSymbolTableRecord
100
AcDbLayerTableRecord
  2
DEFAULT_2
 70
0
 62
8
  6
HIDDEN
370
-3
390
F
  0
LAYER
  5
1FC
100
AcDbSymbolTableRecord
100
AcDbLayerTableRecord
  2
DEFAULT_3
 70
0
 62
7
  6
PHANTOM
370
-3
390
F
  0
LAYER
  5
1FD
100
AcDbSymbolTableRecord
100
AcDbLayerTableRecord
  2
_2D_DELETED_OBJS
 70
0
 62
7
  6
CONTINUOUS
370
-3
390
F
  0
LAYER
  5
1FE
100
AcDbSymbolTableRecord
100
AcDbLayerTableRecord
  2
01___PRT_ALL_DTM_PLN
 70
0
 62
7
  6
CONTINUOUS
370
-3
390
F
  0
LAYER
  5
1FF
100
AcDbSymbolTableRecord
100
AcDbLayerTableRecord
  2
01___PRT_DEF_DTM_PLN
 70
0
 62
7
  6
CONTINUOUS
370
-3
390
F
  0
LAYER
  5
200
100
AcDbSymbolTableRecord
100
AcDbLayerTableRecord
  2
02___PRT_ALL_AXES
 70
0
 62
7
  6
CONTINUOUS
370
-3
390
F
  0
LAYER
  5
201
100
AcDbSymbolTableRecord
100
AcDbLayerTableRecord
  2
03___PRT_ALL_CURVES
 70
0
 62
7
  6
CONTINUOUS
370
-3
390
F
  0
LAYER
  5
202
100
AcDbSymbolTableRecord
100
AcDbLayerTableRecord
  2
04___PRT_ALL_DTM_PNT
 70
0
 62
7
  6
CONTINUOUS
370
-3
390
F
  0
LAYER
  5
203
100
AcDbSymbolTableRecord
100
AcDbLayerTableRecord
  2
05___PRT_ALL_DTM_CSYS
 70
0
 62
7
  6
CONTINUOUS
370
-3
390
F
  0
LAYER
  5
204
100
AcDbSymbolTableRecord
100
AcDbLayerTableRecord
  2
05___PRT_DEF_DTM_CSYS
 70
0
 62
7
  6
CONTINUOUS
370
-3
390
F
  0
LAYER
  5
205
100
AcDbSymbolTableRecord
100
AcDbLayerTableRecord
  2
06___PRT_ALL_SURFS
 70
0
 62
7
  6
CONTINUOUS
370
-3
390
F
  0
LAYER
  5
206
100
AcDbSymbolTableRecord
100
AcDbLayerTableRecord
  2
3_ALL_SYMBOLS
 70
0
 62
7
  6
CONTINUOUS
370
-3
390
F
  0
ENDTAB
  0
TABLE
  2
STYLE
  5
3
100
AcDbSymbolTable
 70
1
  0
STYLE
  5
11
100
AcDbSymbolTableRecord
100
AcDbTextStyleTableRecord
  2
STANDARD
 70
0
 40
0.0
 41
0.85
 50
0.0
 71
0
 42
0.2
  3
txt
  4

  0
ENDTAB
  0
TABLE
  2
VIEW
  5
6
100
AcDbSymbolTable
 70
0
  0
ENDTAB
  0
TABLE
  2
UCS
  5
7
100
AcDbSymbolTable
 70
0
  0
ENDTAB
  0
TABLE
  2
APPID
  5
9
100
AcDbSymbolTable
 70
1
  0
APPID
  5
207
100
AcDbSymbolTableRecord
100
AcDbRegAppTableRecord
  2
ACAD
 70
0
  0
ENDTAB
  0
TABLE
  2
BLOCK_RECORD
  5
1
100
AcDbSymbolTable
 70
0
  0
BLOCK_RECORD
  5
1F
100
AcDbSymbolTableRecord
100
AcDbBlockTableRecord
  2
*MODEL_SPACE
  0
BLOCK_RECORD
  5
1B
100
AcDbSymbolTableRecord
100
AcDbBlockTableRecord
  2
*PAPER_SPACE
  0
BLOCK_RECORD
  5
208
100
AcDbSymbolTableRecord
100
AcDbBlockTableRecord
  2
_FILLED
  0
BLOCK_RECORD
  5
209
100
AcDbSymbolTableRecord
100
AcDbBlockTableRecord
  2
*D0
  0
BLOCK_RECORD
  5
20A
100
AcDbSymbolTableRecord
100
AcDbBlockTableRecord
  2
*D1
  0
BLOCK_RECORD
  5
20B
100
AcDbSymbolTableRecord
100
AcDbBlockTableRecord
  2
*D2
  0
BLOCK_RECORD
  5
20C
100
AcDbSymbolTableRecord
100
AcDbBlockTableRecord
  2
*D3
  0
BLOCK_RECORD
  5
20D
100
AcDbSymbolTableRecord
100
AcDbBlockTableRecord
  2
*D4
  0
BLOCK_RECORD
  5
20E
100
AcDbSymbolTableRecord
100
AcDbBlockTableRecord
  2
*D5
  0
ENDTAB
  0
TABLE
  2
DIMSTYLE
  5
A
100
AcDbSymbolTable
 70
1
100
AcDbDimStyleTable
 71
0
  0
DIMSTYLE
105
20F
100
AcDbSymbolTableRecord
100
AcDbDimStyleTableRecord
  2
STANDARD
 70
0
  3

  4

 40
1.0
 41
3.5
 42
0.0625
 43
0.38
 44
0.18
 45
0.0
 46
0.0
 47
0.01
 48
0.01
140
3.5
141
0.09
142
0.0
143
25.4
144
1.0
145
0.0
146
1.0
147
0.09
 71
1.0
 72
0.0
 73
0
 74
0
 75
0
 76
0
 77
1
 78
8
170
0
171
2
172
0
173
0
174
0
175
0
176
0
177
0
178
0
270
2
271
2
272
2
273
2
274
2
275
0
280
0
281
0
282
0
283
1
284
8
285
0
286
0
287
3
288
0
340
11
341
208
342
208
343
208
344
208
  0
DIMSTYLE
105
210
100
AcDbSymbolTableRecord
100
AcDbDimStyleTableRecord
  2
DIMSTYLE_1
 70
0
  3

  4

 40
1.0
 41
3.5
 42
0.0625
 43
0.38
 44
0.18
 45
0.0
 46
0.0
 47
0.05
 48
0.05
140
3.5
141
0.09
142
0.0
143
25.4
144
25.0
145
0.0
146
1.0
147
0.09
 71
1.0
 72
0.0
 73
0
 74
0
 75
0
 76
0
 77
1
 78
8
170
0
171
2
172
0
173
0
174
0
175
0
176
0
177
0
178
0
270
2
271
2
272
2
273
2
274
2
275
0
280
0
281
0
282
0
283
1
284
8
285
0
286
0
287
3
288
0
340
11
341
208
342
208
343
208
344
208
  0
DIMSTYLE
105
211
100
AcDbSymbolTableRecord
100
AcDbDimStyleTableRecord
  2
DIMSTYLE_2
 70
0
  3

  4

 40
1.0
 41
3.5
 42
0.0625
 43
0.38
 44
0.18
 45
0.0
 46
0.0
 47
0.05
 48
0.05
140
3.5
141
0.09
142
0.0
143
25.4
144
25.0
145
0.0
146
1.0
147
0.09
 71
1.0
 72
0.0
 73
0
 74
0
 75
0
 76
0
 77
1
 78
8
170
0
171
2
172
0
173
0
174
0
175
0
176
0
177
0
178
0
270
2
271
2
272
2
273
2
274
2
275
0
280
0
281
0
282
0
283
1
284
8
285
0
286
0
287
3
288
0
340
11
341
208
342
208
343
208
344
208
  0
ENDTAB
  0
ENDSEC
  0
SECTION
  2
BLOCKS
  0
BLOCK
  5
20
100
AcDbEntity
  8
0
100
AcDbBlockBegin
  2
*MODEL_SPACE
 70
0
 10
0.0
 20
0.0
 30
0.0
  3
*MODEL_SPACE
  1

  0
ENDBLK
  5
21
100
AcDbEntity
  8
0
100
AcDbBlockEnd
  0
BLOCK
  5
1C
100
AcDbEntity
  8
0
100
AcDbBlockBegin
  2
*PAPER_SPACE
 70
0
 10
0.0
 20
0.0
 30
0.0
  3
*PAPER_SPACE
  1

  0
ENDBLK
  5
1D
100
AcDbEntity
  8
0
100
AcDbBlockEnd
  0
BLOCK
  5
212
100
AcDbEntity
  8
0
100
AcDbBlockBegin
 62
2
  6
CONTINUOUS
  2
*D0
 70
65
 10
0.0
 20
0.0
  3
*D0
  1

  0
TEXT
  5
213
100
AcDbEntity
  8
0
100
AcDbText
 62
2
  6
CONTINUOUS
 10
175.9847479586
 20
157.9166347387
  7
STANDARD
 40
3.5
  1
3%%p0,05
 50
90.0
 41
0.9027777778
 72
0
100
AcDbText
  0
LINE
  5
214
100
AcDbEntity
  8
0
100
AcDbLine
 62
2
  6
CONTINUOUS
 10
131.4347699704
 20
165.8718014053
 11
178.3597479586
 21
165.8718014053
  0
LINE
  5
215
100
AcDbEntity
  8
0
100
AcDbLine
 62
2
  6
CONTINUOUS
 10
131.4347699704
 20
168.9198014053
 11
178.3597479586
 21
168.9198014053
  0
LINE
  5
216
100
AcDbEntity
  8
0
100
AcDbLine
 62
2
  6
CONTINUOUS
 10
176.8597479586
 20
165.8718014053
 11
176.8597479586
 21
167.3958014053
  0
LINE
  5
217
100
AcDbEntity
  8
0
100
AcDbLine
 62
2
  6
CONTINUOUS
 10
176.8597479586
 20
168.9198014053
 11
176.8597479586
 21
167.3958014053
  0
INSERT
  5
218
100
AcDbEntity
  8
0
100
AcDbBlockReference
 62
2
  6
CONTINUOUS
  2
_FILLED
 10
176.8597479586
 20
165.8718014053
 41
3.5
 42
3.5
 43
3.5
 50
270.0
  0
INSERT
  5
219
100
AcDbEntity
  8
0
100
AcDbBlockReference
 62
2
  6
CONTINUOUS
  2
_FILLED
 10
176.8597479586
 20
168.9198014053
 41
3.5
 42
3.5
 43
3.5
 50
90.0
  0
ENDBLK
  5
21A
100
AcDbEntity
  8
0
  6
BYBLOCK
 62
0
100
AcDbBlockEnd
  0
BLOCK
  5
21B
100
AcDbEntity
  8
0
100
AcDbBlockBegin
 62
2
  6
CONTINUOUS
  2
*D1
 70
65
 10
0.0
 20
0.0
  3
*D1
  1

  0
TEXT
  5
21C
100
AcDbEntity
  8
0
100
AcDbText
 62
2
  6
CONTINUOUS
 10
146.11401303
 20
185.0219682406
  7
STANDARD
 40
3.5
  1
7%%p0,05
 50
90.0
 41
0.9027777778
 72
0
100
AcDbText
  0
LINE
  5
21D
100
AcDbEntity
  8
0
100
AcDbLine
 62
2
  6
CONTINUOUS
 10
111.6227699704
 20
172.9838014053
 11
148.48901303
 21
172.9838014053
  0
LINE
  5
21E
100
AcDbEntity
  8
0
100
AcDbLine
 62
2
  6
CONTINUOUS
 10
131.4347699704
 20
165.8718014053
 11
148.48901303
 21
165.8718014053
  0
LINE
  5
21F
100
AcDbEntity
  8
0
100
AcDbLine
 62
2
  6
CONTINUOUS
 10
146.98901303
 20
172.9838014053
 11
146.98901303
 21
203.9803015739
  0
LINE
  5
220
100
AcDbEntity
  8
0
100
AcDbLine
 62
2
  6
CONTINUOUS
 10
146.98901303
 20
203.9803015739
 11
146.98901303
 21
169.4278014053
  0
LINE
  5
221
100
AcDbEntity
  8
0
100
AcDbLine
 62
2
  6
CONTINUOUS
 10
146.98901303
 20
165.8718014053
 11
146.98901303
 21
160.8718014053
  0
LINE
  5
222
100
AcDbEntity
  8
0
100
AcDbLine
 62
2
  6
CONTINUOUS
 10
146.98901303
 20
160.8718014053
 11
146.98901303
 21
169.4278014053
  0
INSERT
  5
223
100
AcDbEntity
  8
0
100
AcDbBlockReference
 62
2
  6
CONTINUOUS
  2
_FILLED
 10
146.98901303
 20
172.9838014053
 41
3.5
 42
3.5
 43
3.5
 50
270.0
  0
INSERT
  5
224
100
AcDbEntity
  8
0
100
AcDbBlockReference
 62
2
  6
CONTINUOUS
  2
_FILLED
 10
146.98901303
 20
165.8718014053
 41
3.5
 42
3.5
 43
3.5
 50
90.0
  0
ENDBLK
  5
225
100
AcDbEntity
  8
0
  6
BYBLOCK
 62
0
100
AcDbBlockEnd
  0
BLOCK
  5
226
100
AcDbEntity
  8
0
100
AcDbBlockBegin
 62
2
  6
CONTINUOUS
  2
*D2
 70
65
 10
0.0
 20
0.0
  3
*D2
  1

  0
TEXT
  5
227
100
AcDbEntity
  8
0
100
AcDbText
 62
2
  6
CONTINUOUS
 10
13.6342264908
 20
157.9166347387
  7
STANDARD
 40
3.5
  1
3%%p0,05
 50
90.0
 41
0.9027777778
 72
0
100
AcDbText
  0
LINE
  5
228
100
AcDbEntity
  8
0
100
AcDbLine
 62
2
  6
CONTINUOUS
 10
28.8507699704
 20
165.8718014053
 11
13.0092264908
 21
165.8718014053
  0
LINE
  5
229
100
AcDbEntity
  8
0
100
AcDbLine
 62
2
  6
CONTINUOUS
 10
81.2763699704
 20
168.9198014053
 11
13.0092264908
 21
168.9198014053
  0
LINE
  5
22A
100
AcDbEntity
  8
0
100
AcDbLine
 62
2
  6
CONTINUOUS
 10
14.5092264908
 20
165.8718014053
 11
14.5092264908
 21
160.8718014053
  0
LINE
  5
22B
100
AcDbEntity
  8
0
100
AcDbLine
 62
2
  6
CONTINUOUS
 10
14.5092264908
 20
160.8718014053
 11
14.5092264908
 21
167.3958014053
  0
LINE
  5
22C
100
AcDbEntity
  8
0
100
AcDbLine
 62
2
  6
CONTINUOUS
 10
14.5092264908
 20
168.9198014053
 11
14.5092264908
 21
173.9198014053
  0
LINE
  5
22D
100
AcDbEntity
  8
0
100
AcDbLine
 62
2
  6
CONTINUOUS
 10
14.5092264908
 20
173.9198014053
 11
14.5092264908
 21
167.3958014053
  0
INSERT
  5
22E
100
AcDbEntity
  8
0
100
AcDbBlockReference
 62
2
  6
CONTINUOUS
  2
_FILLED
 10
14.5092264908
 20
165.8718014053
 41
3.5
 42
3.5
 43
3.5
 50
90.0
  0
INSERT
  5
22F
100
AcDbEntity
  8
0
100
AcDbBlockReference
 62
2
  6
CONTINUOUS
  2
_FILLED
 10
14.5092264908
 20
168.9198014053
 41
3.5
 42
3.5
 43
3.5
 50
270.0
  0
ENDBLK
  5
230
100
AcDbEntity
  8
0
  6
BYBLOCK
 62
0
100
AcDbBlockEnd
  0
BLOCK
  5
231
100
AcDbEntity
  8
0
100
AcDbBlockBegin
 62
2
  6
CONTINUOUS
  2
*D3
 70
65
 10
0.0
 20
0.0
  3
*D3
  1

  0
TEXT
  5
232
100
AcDbEntity
  8
0
100
AcDbText
 62
2
  6
CONTINUOUS
 10
88.4013996704
 20
191.0794166677
  7
STANDARD
 40
3.5
  1
%%c4,2%%p0,05
 41
0.9388888889
 72
0
100
AcDbText
  0
LINE
  5
233
100
AcDbEntity
  8
0
100
AcDbLine
 62
2
  6
CONTINUOUS
 10
78.0091699704
 20
173.9838014053
 11
78.0091699704
 21
191.7044166677
  0
LINE
  5
234
100
AcDbEntity
  8
0
100
AcDbLine
 62
2
  6
CONTINUOUS
 10
82.2763699704
 20
173.9838014053
 11
82.2763699704
 21
191.7044166677
  0
LINE
  5
235
100
AcDbEntity
  8
0
100
AcDbLine
 62
2
  6
CONTINUOUS
 10
78.0091699704
 20
190.2044166677
 11
73.0091699704
 21
190.2044166677
  0
LINE
  5
236
100
AcDbEntity
  8
0
100
AcDbLine
 62
2
  6
CONTINUOUS
 10
73.0091699704
 20
190.2044166677
 11
80.1427699704
 21
190.2044166677
  0
LINE
  5
237
100
AcDbEntity
  8
0
100
AcDbLine
 62
2
  6
CONTINUOUS
 10
82.2763699704
 20
190.2044166677
 11
117.9763996704
 21
190.2044166677
  0
LINE
  5
238
100
AcDbEntity
  8
0
100
AcDbLine
 62
2
  6
CONTINUOUS
 10
117.9763996704
 20
190.2044166677
 11
80.1427699704
 21
190.2044166677
  0
INSERT
  5
239
100
AcDbEntity
  8
0
100
AcDbBlockReference
 62
2
  6
CONTINUOUS
  2
_FILLED
 10
78.0091699704
 20
190.2044166677
 41
3.5
 42
3.5
 43
3.5
  0
INSERT
  5
23A
100
AcDbEntity
  8
0
100
AcDbBlockReference
 62
2
  6
CONTINUOUS
  2
_FILLED
 10
82.2763699704
 20
190.2044166677
 41
3.5
 42
3.5
 43
3.5
 50
180.0
  0
ENDBLK
  5
23B
100
AcDbEntity
  8
0
  6
BYBLOCK
 62
0
100
AcDbBlockEnd
  0
BLOCK
  5
23C
100
AcDbEntity
  8
0
100
AcDbBlockBegin
 62
2
  6
CONTINUOUS
  2
*D4
 70
65
 10
0.0
 20
0.0
  3
*D4
  1

  0
TEXT
  5
23D
100
AcDbEntity
  8
0
100
AcDbText
 62
2
  6
CONTINUOUS
 10
132.1925335487
 20
110.3316939015
  7
STANDARD
 40
3.5
  1
R49,5%%p0,05
 50
36.9370656188
 41
0.8816666667
 72
0
100
AcDbText
  0
LINE
  5
23E
100
AcDbEntity
  8
0
100
AcDbLine
 62
2
  6
CONTINUOUS
 10
120.3409678764
 20
100.3265785032
 11
157.3832983309
 21
128.1762373475
  0
INSERT
  5
23F
100
AcDbEntity
  8
0
100
AcDbBlockReference
 62
2
  6
CONTINUOUS
  2
_FILLED
 10
120.3409678764
 20
100.3265785032
 41
3.5
 42
3.5
 43
3.5
 50
216.9370656188
  0
ENDBLK
  5
240
100
AcDbEntity
  8
0
  6
BYBLOCK
 62
0
100
AcDbBlockEnd
  0
BLOCK
  5
241
100
AcDbEntity
  8
0
100
AcDbBlockBegin
 62
2
  6
CONTINUOUS
  2
*D5
 70
65
 10
0.0
 20
0.0
  3
*D5
  1

  0
TEXT
  5
242
100
AcDbEntity
  8
0
100
AcDbText
 62
2
  6
CONTINUOUS
 10
13.5994263621
 20
121.3802000133
  7
STANDARD
 40
3.5
  1
R30%%p0,05
 50
-37.0197963897
 41
0.8895833333
 72
0
100
AcDbText
  0
LINE
  5
243
100
AcDbEntity
  8
0
100
AcDbLine
 62
2
  6
CONTINUOUS
 10
55.8066989182
 20
88.4559647177
 11
13.0725968022
 21
120.6815759263
  0
INSERT
  5
244
100
AcDbEntity
  8
0
100
AcDbBlockReference
 62
2
  6
CONTINUOUS
  2
_FILLED
 10
55.8066989182
 20
88.4559647177
 41
3.5
 42
3.5
 43
3.5
 50
322.9802036103
  0
ENDBLK
  5
245
100
AcDbEntity
  8
0
  6
BYBLOCK
 62
0
100
AcDbBlockEnd
  0
BLOCK
  5
246
100
AcDbEntity
  8
0
100
AcDbBlockBegin
  2
_FILLED
 70
64
 10
0.0
 20
0.0
  3
_FILLED
  1

  0
SOLID
  5
247
100
AcDbEntity
  8
0
  6
BYBLOCK
 62
0
100
AcDbTrace
 10
0.0
 20
0.0
 11
-1.0
 21
0.2142857143
 12
-1.0
 22
-0.2142857143
 13
-1.0
 23
-0.2142857143
  0
ENDBLK
  5
248
100
AcDbEntity
  8
0
  6
BYBLOCK
 62
0
100
AcDbBlockEnd
  0
ENDSEC
  0
SECTION
  2
ENTITIES
  0
DIMENSION
  5
249
100
AcDbEntity
  8
0
100
AcDbDimension
 62
2
  6
CONTINUOUS
  2
*D0
 10
176.8597479586
 20
168.9198014053
 11
174.2347479586
 21
167.3958014053
 70
160
 42
3.0
  3
DIMSTYLE_1
100
AcDbAlignedDimension
 13
131.4347699704
 23
165.8718014053
 14
131.4347699704
 24
168.9198014053
 50
90.0
100
AcDbRotatedDimension
  0
DIMENSION
  5
24A
100
AcDbEntity
  8
0
100
AcDbDimension
 62
2
  6
CONTINUOUS
  2
*D1
 10
146.98901303
 20
165.8718014053
 11
144.36401303
 21
194.5011349072
 70
160
 42
7.0
  3
DIMSTYLE_1
100
AcDbAlignedDimension
 13
111.6227699704
 23
172.9838014053
 14
131.4347699704
 24
165.8718014053
 50
270.0
100
AcDbRotatedDimension
  0
DIMENSION
  5
24B
100
AcDbEntity
  8
0
100
AcDbDimension
 62
2
  6
CONTINUOUS
  2
*D2
 10
14.5092264908
 20
168.9198014053
 11
11.8842264908
 21
167.3958014053
 70
160
 42
3.0
  3
DIMSTYLE_1
100
AcDbAlignedDimension
 13
28.8507699704
 23
165.8718014053
 14
81.2763699704
 24
168.9198014053
 50
90.0
100
AcDbRotatedDimension
  0
DIMENSION
  5
24C
100
AcDbEntity
  8
0
100
AcDbDimension
 62
2
  6
CONTINUOUS
  2
*D3
 10
82.2763699704
 20
190.2044166677
 11
103.1888996704
 21
192.8294166677
 70
160
 42
4.2
  1
%%c<>
  3
DIMSTYLE_1
100
AcDbAlignedDimension
 13
78.0091699704
 23
173.9838014053
 14
82.2763699704
 24
173.9838014053
100
AcDbRotatedDimension
  0
DIMENSION
  5
24D
100
AcDbEntity
  8
0
100
AcDbDimension
 62
2
  6
CONTINUOUS
  2
*D4
 10
80.1427699704
 20
70.1042333078
 11
143.4733653132
 21
121.0024257756
 70
164
 42
49.5
  1
<>
  3
DIMSTYLE_2
100
AcDbRadialDimension
 15
120.3409678764
 25
100.3265785032
  0
DIMENSION
  5
24E
100
AcDbEntity
  8
0
100
AcDbDimension
 62
2
  6
CONTINUOUS
  2
*D5
 10
80.1427699704
 20
70.1042333078
 11
24.5968349862
 21
115.2789074523
 70
164
 42
30.0
  1
<>
  3
DIMSTYLE_2
100
AcDbRadialDimension
 15
55.8066989182
 25
88.4559647177
  0
MTEXT
  5
24F
100
AcDbEntity
  8
0
100
AcDbMText
 62
2
  6
CONTINUOUS
  7
STANDARD
 71
1
 72
1
 10
238.3578772189
 20
11.6916363887
 30
0.0
 11
1.0
 21
0.0
 31
0.0
  1
ECHELLE 0,040
 40
3.5
 41
38.675
  0
MTEXT
  5
250
100
AcDbEntity
  8
0
100
AcDbMText
 62
2
  6
CONTINUOUS
  7
STANDARD
 71
1
 72
1
 10
30.5513048077
 20
159.4291376923
 30
0.0
 11
1.0
 21
0.0
 31
0.0
  1
COUPE A-A\PECHELLE 0,040
 40
3.5
 41
38.675
  0
LINE
  5
251
100
AcDbEntity
  8
0
100
AcDbLine
 62
7
  6
CONTINUOUS
 10
0.0
 20
0.0
 11
0.0
 21
210.0
  0
LINE
  5
252
100
AcDbEntity
  8
0
100
AcDbLine
 62
7
  6
CONTINUOUS
 10
0.0
 20
0.0
 11
297.0
 21
0.0
  0
LINE
  5
253
100
AcDbEntity
  8
0
100
AcDbLine
 62
7
  6
CONTINUOUS
 10
0.0
 20
210.0
 11
297.0
 21
210.0
  0
LINE
  5
254
100
AcDbEntity
  8
0
100
AcDbLine
 62
7
  6
CONTINUOUS
 10
297.0
 20
0.0
 11
297.0
 21
210.0
  0
LINE
  5
255
100
AcDbEntity
  8
02___PRT_ALL_AXES
100
AcDbLine
 62
8
  6
HIDDEN
 10
176.6218032818
 20
43.4181480392
 11
175.6920356723
 21
45.3128152225
  0
LINE
  5
256
100
AcDbEntity
  8
02___PRT_ALL_AXES
100
AcDbLine
 62
7
  6
CONTINUOUS
 10
193.4778951906
 20
54.0408473714
 11
192.2382050447
 21
56.5670702825
  0
LINE
  5
257
100
AcDbEntity
  8
DEFAULT_2
100
AcDbLine
 62
8
  6
HIDDEN
 10
217.6856655863
 20
69.0548701263
 11
218.9253557323
 21
66.5286472153
  0
LINE
  5
258
100
AcDbEntity
  8
02___PRT_ALL_AXES
100
AcDbLine
 62
7
  6
CENTER
 10
217.3983522976
 20
74.4834703173
 11
223.9732371422
 21
61.0852636884
  0
LINE
  5
259
100
AcDbEntity
  8
DEFAULT_2
100
AcDbLine
 62
8
  6
HIDDEN
 10
221.516466098
 20
70.9347539738
 11
222.756156244
 21
68.4085310627
  0
LINE
  5
25A
100
AcDbEntity
  8
02___PRT_ALL_AXES
100
AcDbLine
 62
7
  6
CONTINUOUS
 10
248.2036167857
 20
80.8963309066
 11
246.9639266397
 21
83.4225538176
  0
LINE
  5
25B
100
AcDbEntity
  8
02___PRT_ALL_AXES
100
AcDbLine
 62
8
  6
HIDDEN
 10
266.9192439135
 20
87.7296958722
 11
265.989476304
 21
89.6243630555
  0
LINE
  5
25C
100
AcDbEntity
  8
0
100
AcDbLine
 62
7
  6
CONTINUOUS
 10
29.8507699704
 20
165.8718014053
 11
29.8507699704
 21
168.9198014053
  0
LINE
  5
25D
100
AcDbEntity
  8
0
100
AcDbLine
 62
2
  6
CONTINUOUS
 10
29.8507699704
 20
168.8161694053
 11
29.9544019704
 21
168.9198014053
  0
LINE
  5
25E
100
AcDbEntity
  8
0
100
AcDbLine
 62
7
  6
CONTINUOUS
 10
49.6627699704
 20
168.9198014053
 11
49.6627699704
 21
172.9838014053
  0
LINE
  5
25F
100
AcDbEntity
  8
0
100
AcDbLine
 62
2
  6
CONTINUOUS
 10
34.8780942781
 20
165.8718014053
 11
37.9260942781
 21
168.9198014053
  0
LINE
  5
260
100
AcDbEntity
  8
0
100
AcDbLine
 62
2
  6
CONTINUOUS
 10
42.8497865858
 20
165.8718014053
 11
45.8977865858
 21
168.9198014053
  0
LINE
  5
261
100
AcDbEntity
  8
0
100
AcDbLine
 62
2
  6
CONTINUOUS
 10
49.6627699704
 20
172.6847847899
 11
49.9617865858
 21
172.9838014053
  0
LINE
  5
262
100
AcDbEntity
  8
0
100
AcDbLine
 62
2
  6
CONTINUOUS
 10
50.8214788935
 20
165.8718014053
 11
57.9334788935
 21
172.9838014053
  0
LINE
  5
263
100
AcDbEntity
  8
0
100
AcDbLine
 62
2
  6
CONTINUOUS
 10
58.7931712012
 20
165.8718014053
 11
65.9051712012
 21
172.9838014053
  0
LINE
  5
264
100
AcDbEntity
  8
0
100
AcDbLine
 62
2
  6
CONTINUOUS
 10
66.7648635089
 20
165.8718014053
 11
73.8768635089
 21
172.9838014053
  0
LINE
  5
265
100
AcDbEntity
  8
0
100
AcDbLine
 62
7
  6
CONTINUOUS
 10
29.8507699704
 20
165.8718014053
 11
130.4347699704
 21
165.8718014053
  0
LINE
  5
266
100
AcDbEntity
  8
0
100
AcDbLine
 62
7
  6
CONTINUOUS
 10
78.0091699704
 20
172.9838014053
 11
78.0091699704
 21
168.9198014053
  0
LINE
  5
267
100
AcDbEntity
  8
02___PRT_ALL_AXES
100
AcDbLine
 62
7
  6
CENTER
 10
80.1427699704
 20
177.9838014053
 11
80.1427699704
 21
160.8718014053
  0
LINE
  5
268
100
AcDbEntity
  8
0
100
AcDbLine
 62
2
  6
CONTINUOUS
 10
74.7365558166
 20
165.8718014053
 11
78.0091699704
 21
169.1444155592
  0
LINE
  5
269
100
AcDbEntity
  8
DEFAULT_2
100
AcDbLine
 62
8
  6
HIDDEN
 10
110.6227699704
 20
168.9198014053
 11
82.2763699704
 21
168.9198014053
  0
LINE
  5
26A
100
AcDbEntity
  8
DEFAULT_2
100
AcDbLine
 62
8
  6
HIDDEN
 10
78.0091699704
 20
168.9198014053
 11
49.6627699704
 21
168.9198014053
  0
LINE
  5
26B
100
AcDbEntity
  8
0
100
AcDbLine
 62
7
  6
CONTINUOUS
 10
29.8507699704
 20
168.9198014053
 11
49.6627699704
 21
168.9198014053
  0
LINE
  5
26C
100
AcDbEntity
  8
0
100
AcDbLine
 62
7
  6
CONTINUOUS
 10
78.0091699704
 20
168.9198014053
 11
82.2763699704
 21
168.9198014053
  0
LINE
  5
26D
100
AcDbEntity
  8
0
100
AcDbLine
 62
7
  6
CONTINUOUS
 10
110.6227699704
 20
168.9198014053
 11
130.4347699704
 21
168.9198014053
  0
LINE
  5
26E
100
AcDbEntity
  8
0
100
AcDbLine
 62
7
  6
CONTINUOUS
 10
82.2763699704
 20
172.9838014053
 11
82.2763699704
 21
168.9198014053
  0
LINE
  5
26F
100
AcDbEntity
  8
0
100
AcDbLine
 62
7
  6
CONTINUOUS
 10
49.6627699704
 20
172.9838014053
 11
110.6227699704
 21
172.9838014053
  0
LINE
  5
270
100
AcDbEntity
  8
0
100
AcDbLine
 62
2
  6
CONTINUOUS
 10
82.7082481243
 20
165.8718014053
 11
89.8202481243
 21
172.9838014053
  0
LINE
  5
271
100
AcDbEntity
  8
0
100
AcDbLine
 62
2
  6
CONTINUOUS
 10
90.679940432
 20
165.8718014053
 11
97.791940432
 21
172.9838014053
  0
LINE
  5
272
100
AcDbEntity
  8
0
100
AcDbLine
 62
2
  6
CONTINUOUS
 10
98.6516327396
 20
165.8718014053
 11
105.7636327396
 21
172.9838014053
  0
LINE
  5
273
100
AcDbEntity
  8
0
100
AcDbLine
 62
2
  6
CONTINUOUS
 10
106.6233250473
 20
165.8718014053
 11
110.6227699704
 21
169.8712463284
  0
LINE
  5
274
100
AcDbEntity
  8
0
100
AcDbLine
 62
2
  6
CONTINUOUS
 10
114.595017355
 20
165.8718014053
 11
117.643017355
 21
168.9198014053
  0
LINE
  5
275
100
AcDbEntity
  8
0
100
AcDbLine
 62
7
  6
CONTINUOUS
 10
110.6227699704
 20
168.9198014053
 11
110.6227699704
 21
172.9838014053
  0
LINE
  5
276
100
AcDbEntity
  8
0
100
AcDbLine
 62
2
  6
CONTINUOUS
 10
122.5667096627
 20
165.8718014053
 11
125.6147096627
 21
168.9198014053
  0
LINE
  5
277
100
AcDbEntity
  8
0
100
AcDbLine
 62
7
  6
CONTINUOUS
 10
130.4347699704
 20
165.8718014053
 11
130.4347699704
 21
168.9198014053
  0
LINE
  5
278
100
AcDbEntity
  8
02___PRT_ALL_AXES
100
AcDbLine
 62
7
  6
CENTER
 10
80.1427699704
 20
70.1042333078
 11
80.1427699704
 21
15.8122333078
  0
LINE
  5
279
100
AcDbEntity
  8
02___PRT_ALL_AXES
100
AcDbLine
 62
7
  6
CENTER
 10
80.1427699704
 20
70.1042333078
 11
80.1427699704
 21
124.3962333078
  0
LINE
  5
27A
100
AcDbEntity
  8
02___PRT_ALL_AXES
100
AcDbLine
 62
7
  6
CENTER
 10
80.1427699704
 20
70.1042333078
 11
25.8507699704
 21
70.1042333078
  0
LINE
  5
27B
100
AcDbEntity
  8
02___PRT_ALL_AXES
100
AcDbLine
 62
7
  6
CENTER
 10
80.1427699704
 20
70.1042333078
 11
134.4347699704
 21
70.1042333078
  0
ARC
  5
27C
100
AcDbEntity
  8
02___PRT_ALL_AXES
100
AcDbCircle
 62
7
  6
CONTINUOUS
 10
242.437226802
 20
78.0676916908
 40
26.234772992
100
AcDbArc
 50
21.5302540507
 51
26.1370353846
  0
ARC
  5
27D
100
AcDbEntity
  8
02___PRT_ALL_AXES
100
AcDbCircle
 62
7
  6
CONTINUOUS
 10
199.1933699659
 20
56.8445355567
 40
26.1780728025
100
AcDbArc
 50
206.1371000202
 51
210.7395223818
  0
CIRCLE
  5
27E
100
AcDbEntity
  8
02___PRT_ALL_AXES
100
AcDbCircle
 62
7
  6
CONTINUOUS
 10
80.1427699704
 20
70.1042333078
 40
50.292
  0
CIRCLE
  5
27F
100
AcDbEntity
  8
02___PRT_ALL_AXES
100
AcDbCircle
 62
7
  6
CONTINUOUS
 10
80.1427699704
 20
70.1042333078
 40
30.48
  0
CIRCLE
  5
280
100
AcDbEntity
  8
0
100
AcDbCircle
 62
7
  6
CONTINUOUS
 10
80.1427699704
 20
70.1042333078
 40
2.1336
  0
SPLINE
  5
281
100
AcDbEntity
  8
DEFAULT_2
100
AcDbSpline
 62
8
  6
HIDDEN
 70
0
 71
3
 72
16
 73
12
 74
10
 42
0.0000001
 43
0.0000001
 44
0.0000000001
 12
-1.4245512645
 22
-4.6098495814
 32
0.0
 13
-2.134200217
 23
4.3589567048
 33
0.0
 40
0.0
 40
0.0
 40
0.0
 40
0.0
 40
0.1194482443
 40
0.249886563
 40
0.3870731472
 40
0.5248993517
 40
0.6570911708
 40
0.7788988868
 40
0.8888572778
 40
0.990271497
 40
1.0
 40
1.0
 40
1.0
 40
1.0
 10
222.805931725
 20
67.468589139
 30
0.0
 10
222.7492116758
 20
67.2850429926
 30
0.0
 10
222.5621693627
 20
66.9209431829
 30
0.0
 10
222.1351960813
 20
66.4597990068
 30
0.0
 10
221.5884703181
 20
66.0939879856
 30
0.0
 10
220.97207748
 20
65.8569602917
 30
0.0
 10
220.3415661148
 20
65.7703616388
 30
0.0
 10
219.7528666423
 20
65.844482853
 30
0.0
 10
219.25864664
 20
66.0798504336
 30
0.0
 10
219.0151225123
 20
66.354272691
 30
0.0
 10
218.9325616599
 20
66.5140185514
 30
0.0
 10
218.9256408021
 20
66.5281539259
 30
0.0
 11
222.805931725
 21
67.468589139
 31
0.0
 11
222.5501503345
 21
66.9521270912
 31
0.0
 11
222.1270415154
 21
66.4862199471
 31
0.0
 11
221.5780221068
 21
66.116473944
 31
0.0
 11
220.9568339537
 21
65.879082397
 31
0.0
 11
220.3242832805
 21
65.7972828446
 31
0.0
 11
219.7422885545
 21
65.879082397
 31
0.0
 11
219.2678194743
 21
66.116473944
 31
0.0
 11
218.9473203794
 21
66.4862199471
 31
0.0
 11
218.9256408021
 21
66.5281539259
 31
0.0
  0
SPLINE
  5
282
100
AcDbEntity
  8
DEFAULT_2
100
AcDbSpline
 62
8
  6
HIDDEN
 70
0
 71
3
 72
9
 73
5
 74
3
 42
0.0000001
 43
0.0000001
 44
0.0000000001
 12
0.4239774611
 22
-0.8659447142
 32
0.0
 13
-0.282999516
 23
-0.9157867693
 33
0.0
 40
0.0
 40
0.0
 40
0.0
 40
0.0
 40
0.4571393929
 40
1.0
 40
1.0
 40
1.0
 40
1.0
 10
222.7558711742
 20
68.4090243521
 30
0.0
 10
222.8204767739
 20
68.2770718718
 30
0.0
 10
222.9035052523
 20
67.959342452
 30
0.0
 10
222.857141488
 20
67.6343039928
 30
0.0
 10
222.805931725
 20
67.468589139
 30
0.0
 11
222.7558711742
 21
68.4090243521
 31
0.0
 11
222.8693480221
 21
67.9850511868
 31
0.0
 11
222.805931725
 21
67.468589139
 31
0.0
  0
SPLINE
  5
283
100
AcDbEntity
  8
02___PRT_ALL_AXES
100
AcDbSpline
 62
8
  6
HIDDEN
 70
0
 71
3
 72
36
 73
32
 74
30
 42
0.0000001
 43
0.0000001
 44
0.0000000001
 12
-50.3054126264
 22
102.5159964468
 32
0.0
 13
-33.6935421913
 23
-109.0323424906
 33
0.0
 40
0.0
 40
0.0
 40
0.0
 40
0.0
 40
0.0098598279
 40
0.0384655604
 40
0.0673509523
 40
0.0967080051
 40
0.1267049555
 40
0.157479728
 40
0.1891361018
 40
0.2217423309
 40
0.2553316934
 40
0.2899043934
 40
0.325430311
 40
0.3618522189
 40
0.3990892073
 40
0.4370401614
 40
0.4755872089
 40
0.5145990984
 40
0.5539345038
 40
0.5934452619
 40
0.632979561
 40
0.6723851024
 40
0.7115122589
 40
0.7502172524
 40
0.7883653741
 40
0.8258342671
 40
0.8625172818
 40
0.898326904
 40
0.9331982298
 40
0.9670924194
 40
1.0
 40
1.0
 40
1.0
 40
1.0
 10
266.9190786456
 20
87.7299549899
 30
0.0
 10
266.753744408
 20
88.0668850184
 30
0.0
 10
266.0805051205
 20
89.3674707011
 30
0.0
 10
264.712563525
 20
91.5415161735
 30
0.0
 10
262.6179162271
 20
94.1068271379
 30
0.0
 10
260.1936870126
 20
96.4396633071
 30
0.0
 10
257.4603707642
 20
98.5213276899
 30
0.0
 10
254.4407629109
 20
100.3354691155
 30
0.0
 10
251.1596976806
 20
101.8680722491
 30
0.0
 10
247.6438482839
 20
103.1074386557
 30
0.0
 10
243.9215595138
 20
104.0441880736
 30
0.0
 10
240.0226829886
 20
104.6712839265
 30
0.0
 10
235.9783960773
 20
104.984073344
 30
0.0
 10
231.8209970327
 20
104.9803285246
 30
0.0
 10
227.5836766096
 20
104.6602784253
 30
0.0
 10
223.3002702515
 20
104.0266234907
 30
0.0
 10
219.0049961133
 20
103.0845294395
 30
0.0
 10
214.7321840615
 20
101.8415984393
 30
0.0
 10
210.5160002077
 20
100.3078174024
 30
0.0
 10
206.3901708995
 20
98.4954839193
 30
0.0
 10
202.3877095871
 20
96.4191107338
 30
0.0
 10
198.5406496452
 20
94.0953099353
 30
0.0
 10
194.8797859705
 20
91.5426579954
 30
0.0
 10
191.4344282865
 20
88.7815436214
 30
0.0
 10
188.2321683233
 20
85.8339980645
 30
0.0
 10
185.2986658626
 20
82.7235172098
 30
0.0
 10
182.657448521
 20
79.4748513469
 30
0.0
 10
180.3297567409
 20
76.1138625589
 30
0.0
 10
178.3343323775
 20
72.6671065068
 30
0.0
 10
176.6875242275
 20
69.1623940442
 30
0.0
 10
175.8181150728
 20
66.7699188233
 30
0.0
 10
175.4485240873
 20
65.5739219557
 30
0.0
 11
266.9190786456
 21
87.7299549899
 31
0.0
 11
266.4015058041
 21
88.7297671934
 31
0.0
 11
264.664045422
 21
91.4934686852
 31
0.0
 11
262.5812316231
 21
94.0484812273
 31
0.0
 11
260.1698339995
 21
96.3742333608
 31
0.0
 11
257.4492677069
 21
98.4519994973
 31
0.0
 11
254.4414371456
 21
100.2650506853
 31
0.0
 11
251.1705595986
 21
101.7987893029
 31
0.0
 11
247.6629702486
 21
103.0408665885
 31
0.0
 11
243.9469101427
 21
103.9812820661
 31
0.0
 11
240.0522988118
 21
104.6124640632
 31
0.0
 11
236.0104933765
 21
104.9293306736
 31
0.0
 11
231.8540360774
 21
104.9293306736
 31
0.0
 11
227.6163922649
 21
104.6124640632
 31
0.0
 11
223.3316809551
 21
103.9812820661
 31
0.0
 11
219.0344001243
 21
103.0408665885
 31
0.0
 11
214.7591489509
 21
101.7987893029
 31
0.0
 11
210.5403492435
 21
100.2650506853
 31
0.0
 11
206.4119682967
 21
98.4519994973
 31
0.0
 11
202.4072454066
 21
96.3742333608
 31
0.0
 11
198.558424247
 21
94.0484812273
 31
0.0
 11
194.8964932629
 21
91.4934686852
 31
0.0
 11
191.4509361694
 21
88.7297671934
 31
0.0
 11
188.2494945663
 21
85.779628451
 31
0.0
 11
185.3179445788
 21
82.6668052408
 31
0.0
 11
182.6798893239
 21
79.4163601848
 31
0.0
 11
180.3565688711
 21
76.0544639554
 31
0.0
 11
178.3666892309
 21
72.6081845643
 31
0.0
 11
176.7262717439
 21
69.1052694267
 31
0.0
 11
175.4485240873
 21
65.5739219557
 31
0.0
  0
SPLINE
  5
284
100
AcDbEntity
  8
02___PRT_ALL_AXES
100
AcDbSpline
 62
8
  6
HIDDEN
 70
0
 71
3
 72
30
 73
26
 74
24
 42
0.0000001
 43
0.0000001
 44
0.0000000001
 12
-30.497771554
 22
62.1420429332
 32
0.0
 13
-20.4171053969
 23
-66.0697772784
 33
0.0
 40
0.0
 40
0.0
 40
0.0
 40
0.0
 40
0.0241438228
 40
0.0600889697
 40
0.096698251
 40
0.134306222
 40
0.1731739066
 40
0.2134780132
 40
0.2553089725
 40
0.298675237
 40
0.3435113069
 40
0.3896875914
 40
0.4370209283
 40
0.4852851423
 40
0.5342213835
 40
0.5835481845
 40
0.6329712839
 40
0.6821933036
 40
0.7309233901
 40
0.7788869317
 40
0.8258354557
 40
0.8715567833
 40
0.9158854608
 40
0.9587133478
 40
1.0
 40
1.0
 40
1.0
 40
1.0
 10
248.2037498046
 20
80.8959500694
 30
0.0
 10
247.9583055408
 20
81.39606556
 30
0.0
 10
247.2819827981
 20
82.6086537252
 30
0.0
 10
245.9469597466
 20
84.4045656735
 30
0.0
 10
244.1356870175
 20
86.1975333311
 30
0.0
 10
242.0318734578
 20
87.7510426194
 30
0.0
 10
239.6633739649
 20
89.0463664233
 30
0.0
 10
237.0607486433
 20
90.0683636256
 30
0.0
 10
234.2569357742
 20
90.8053291601
 30
0.0
 10
231.2870079595
 20
91.2489517258
 30
0.0
 10
228.1879039343
 20
91.3943582645
 30
0.0
 10
224.9980918115
 20
91.2401898094
 30
0.0
 10
221.7571629083
 20
90.7886620951
 30
0.0
 10
218.5053731696
 20
90.0455839922
 30
0.0
 10
215.2831520907
 20
89.0203222388
 30
0.0
 10
212.1305963981
 20
87.7257099048
 30
0.0
 10
209.0869622502
 20
86.1779000275
 30
0.0
 10
206.1901673667
 20
84.3961684296
 30
0.0
 10
203.4763121059
 20
82.4026673583
 30
0.0
 10
200.9792312676
 20
80.2221435313
 30
0.0
 10
198.7300763336
 20
77.881593553
 30
0.0
 10
196.7569724014
 20
75.4099828027
 30
0.0
 10
195.0846349773
 20
72.8376137312
 30
0.0
 10
193.7343981235
 20
70.1966812007
 30
0.0
 10
193.0478015338
 20
68.3778557766
 30
0.0
 10
192.7668168909
 20
67.468589139
 30
0.0
 11
248.2037498046
 21
80.8959500694
 31
0.0
 11
247.3900663561
 21
82.3549095723
 31
0.0
 11
245.9091908963
 21
84.3513321989
 31
0.0
 11
244.1130653226
 21
86.135444536
 31
0.0
 11
242.024276956
 21
87.6848103358
 31
0.0
 11
239.6690935224
 21
88.9799454242
 31
0.0
 11
237.0771328197
 21
90.0045627262
 31
0.0
 11
234.2809902579
 21
90.7457770847
 31
0.0
 11
231.3158289519
 21
91.194267299
 31
0.0
 11
228.2189375256
 21
91.3443933444
 31
0.0
 11
225.0292611855
 21
91.194267299
 31
0.0
 11
221.7869119624
 21
90.7457770847
 31
0.0
 11
218.5326642789
 21
90.0045627262
 31
0.0
 11
215.3074421879
 21
88.9799454242
 31
0.0
 11
212.1518047283
 21
87.6848103358
 31
0.0
 11
209.1054358724
 21
86.135444536
 31
0.0
 11
206.2066454758
 21
84.3513321989
 31
0.0
 11
203.4918875099
 21
82.3549095723
 31
0.0
 11
200.9953016311
 21
80.1712828289
 31
0.0
 11
198.7482838555
 21
77.8279123421
 31
0.0
 11
196.7790917353
 21
75.3542673554
 31
0.0
 11
195.112489004
 21
72.7814553897
 31
0.0
 11
193.7694341579
 21
70.1418310484
 31
0.0
 11
192.7668168909
 21
67.468589139
 31
0.0
  0
SPLINE
  5
285
100
AcDbEntity
  8
02___PRT_ALL_AXES
100
AcDbSpline
 62
8
  6
HIDDEN
 70
0
 71
3
 72
14
 73
10
 74
8
 42
0.0000001
 43
0.0000001
 44
0.0000000001
 12
-10.015681442
 22
20.4106776887
 32
0.0
 13
6.7082997161
 23
21.7080658371
 33
0.0
 40
0.0
 40
0.0
 40
0.0
 40
0.0
 40
0.0937879793
 40
0.2377900304
 40
0.383504454
 40
0.5318631009
 40
0.6836668652
 40
0.8395570214
 40
1.0
 40
1.0
 40
1.0
 40
1.0
 10
176.6219685497
 20
43.4178889215
 30
0.0
 10
176.3088517086
 20
44.0559809934
 30
0.0
 10
175.5807792659
 20
45.7061049762
 30
0.0
 10
174.6854087193
 20
48.4769524653
 30
0.0
 10
174.0564045864
 20
51.7428089481
 30
0.0
 10
173.8139817525
 20
55.1186235004
 30
0.0
 10
173.9593953729
 20
58.5767050395
 30
0.0
 10
174.4905388322
 20
62.0885382306
 30
0.0
 10
175.089757558
 20
64.4129530414
 30
0.0
 10
175.4485240873
 20
65.5739219557
 30
0.0
 11
176.6219685497
 21
43.4178889215
 31
0.0
 11
175.7614234352
 21
45.3682154603
 31
0.0
 11
174.7537437008
 21
48.4810386706
 31
0.0
 11
174.1246154327
 21
51.7314837266
 31
0.0
 11
173.8791040018
 21
55.093379956
 31
0.0
 11
174.0191861218
 21
58.5396593471
 31
0.0
 11
174.5437339338
 21
62.0425744847
 31
0.0
 11
175.4485240873
 21
65.5739219557
 31
0.0
  0
SPLINE
  5
286
100
AcDbEntity
  8
02___PRT_ALL_AXES
100
AcDbSpline
 62
8
  6
HIDDEN
 70
0
 71
3
 72
13
 73
9
 74
7
 42
0.0000001
 43
0.0000001
 44
0.0000000001
 12
-6.0708958301
 22
12.3700142697
 32
0.0
 13
4.0642353097
 23
13.1518702822
 33
0.0
 40
0.0
 40
0.0
 40
0.0
 40
0.0
 40
0.0578937262
 40
0.2377448593
 40
0.420268693
 40
0.6072538196
 40
0.800150764
 40
1.0
 40
1.0
 40
1.0
 40
1.0
 10
193.4777621717
 20
54.0412282085
 30
0.0
 10
193.360606578
 20
54.2799436149
 30
0.0
 10
192.9041081749
 20
55.2723118698
 30
0.0
 10
192.2808443451
 20
57.1053911142
 30
0.0
 10
191.8411259245
 20
59.5971189347
 30
0.0
 10
191.7694610129
 20
62.1856143371
 30
0.0
 10
192.0651734405
 20
64.8369566013
 30
0.0
 10
192.496072117
 20
66.5924587296
 30
0.0
 10
192.7668168909
 20
67.468589139
 30
0.0
 11
193.4777621717
 21
54.0412282085
 31
0.0
 11
193.1444431426
 21
54.7658954491
 31
0.0
 11
192.3457378688
 21
57.1092659359
 31
0.0
 11
191.9053739811
 21
59.5829109226
 31
0.0
 11
191.8288893108
 21
62.1557228882
 31
0.0
 11
192.117245697
 21
64.7953472296
 31
0.0
 11
192.7668168909
 21
67.468589139
 31
0.0
  0
SPLINE
  5
287
100
AcDbEntity
  8
DEFAULT_2
100
AcDbSpline
 62
8
  6
HIDDEN
 70
0
 71
3
 72
9
 73
5
 74
3
 42
0.0000001
 43
0.0000001
 44
0.0000000001
 12
0.3220237888
 22
1.0420693626
 32
0.0
 13
0.798042187
 23
0.7472394566
 33
0.0
 40
0.0
 40
0.0
 40
0.0
 40
0.0
 40
0.5284086251
 40
1.0
 40
1.0
 40
1.0
 40
1.0
 10
218.8755802513
 20
67.468589139
 30
0.0
 10
218.9323003005
 20
67.6521352854
 30
0.0
 10
219.1015028233
 20
67.9815078497
 30
0.0
 10
219.3432127238
 20
68.2565471236
 30
0.0
 10
219.4686626612
 20
68.3740110178
 30
0.0
 11
218.8755802513
 21
67.468589139
 31
0.0
 11
219.1313616418
 21
67.9850511868
 31
0.0
 11
219.4686626612
 21
68.3740110178
 31
0.0
  0
SPLINE
  5
288
100
AcDbEntity
  8
DEFAULT_2
100
AcDbSpline
 62
8
  6
HIDDEN
 70
0
 71
3
 72
12
 73
8
 74
6
 42
0.0000001
 43
0.0000001
 44
0.0000000001
 12
2.0215923319
 22
0.3197504624
 32
0.0
 13
0.9030088171
 23
-1.8443332105
 33
0.0
 40
0.0
 40
0.0
 40
0.0
 40
0.0
 40
0.1895581929
 40
0.4774424846
 40
0.7373216989
 40
0.9770073416
 40
1.0
 40
1.0
 40
1.0
 40
1.0
 10
220.9708831813
 20
69.1089366919
 30
0.0
 10
221.0986196444
 20
69.1291404652
 30
0.0
 10
221.4240348013
 20
69.1562292774
 30
0.0
 10
221.928645334
 20
69.0926954249
 30
0.0
 10
222.4228653363
 20
68.8573278443
 30
0.0
 10
222.666389464
 20
68.582905587
 30
0.0
 10
222.7489503164
 20
68.4231597266
 30
0.0
 10
222.7558711742
 20
68.4090243521
 30
0.0
 11
220.9708831813
 21
69.1089366919
 31
0.0
 11
221.3572286958
 21
69.1398954334
 31
0.0
 11
221.9392234218
 21
69.058095881
 31
0.0
 11
222.413692502
 21
68.8207043339
 31
0.0
 11
222.7341915969
 21
68.4509583309
 31
0.0
 11
222.7558711742
 21
68.4090243521
 31
0.0
  0
SPLINE
  5
289
100
AcDbEntity
  8
DEFAULT_2
100
AcDbSpline
 62
8
  6
HIDDEN
 70
0
 71
3
 72
9
 73
5
 74
3
 42
0.0000001
 43
0.0000001
 44
0.0000000001
 12
-0.4239774611
 22
0.8659447142
 32
0.0
 13
0.282999516
 23
0.9157867693
 33
0.0
 40
0.0
 40
0.0
 40
0.0
 40
0.0
 40
0.4571393929
 40
1.0
 40
1.0
 40
1.0
 40
1.0
 10
218.9256408021
 20
66.5281539259
 30
0.0
 10
218.8610352024
 20
66.6601064062
 30
0.0
 10
218.778006724
 20
66.9778358259
 30
0.0
 10
218.8243704883
 20
67.3028742851
 30
0.0
 10
218.8755802513
 20
67.468589139
 30
0.0
 11
218.9256408021
 21
66.5281539259
 31
0.0
 11
218.8121639542
 21
66.9521270912
 31
0.0
 11
218.8755802513
 21
67.468589139
 31
0.0
  0
SPLINE
  5
28A
100
AcDbEntity
  8
02___PRT_ALL_AXES
100
AcDbSpline
 62
7
  6
CONTINUOUS
 70
0
 71
3
 72
14
 73
10
 74
8
 42
0.0000001
 43
0.0000001
 44
0.0000000001
 12
6.7082997161
 22
21.7080658371
 32
0.0
 13
-10.015681442
 23
20.4106776887
 33
0.0
 40
0.0
 40
0.0
 40
0.0
 40
0.0
 40
0.1604429786
 40
0.3163331348
 40
0.4681368991
 40
0.616495546
 40
0.7622099696
 40
0.9062120207
 40
1.0
 40
1.0
 40
1.0
 40
1.0
 10
268.092523108
 20
65.5739219557
 30
0.0
 10
268.4512896373
 20
66.73489087
 30
0.0
 10
269.0505083631
 20
69.0593056808
 30
0.0
 10
269.5816518224
 20
72.5711388719
 30
0.0
 10
269.7270654428
 20
76.029220411
 30
0.0
 10
269.4846426089
 20
79.4050349633
 30
0.0
 10
268.855638476
 20
82.6708914461
 30
0.0
 10
267.9602679294
 20
85.4417389352
 30
0.0
 10
267.2321954867
 20
87.091862918
 30
0.0
 10
266.9190786456
 20
87.7299549899
 30
0.0
 11
268.092523108
 21
65.5739219557
 31
0.0
 11
268.9973132615
 21
69.1052694267
 31
0.0
 11
269.5218610735
 21
72.6081845643
 31
0.0
 11
269.6619431935
 21
76.0544639554
 31
0.0
 11
269.4164317626
 21
79.4163601848
 31
0.0
 11
268.7873034945
 21
82.6668052408
 31
0.0
 11
267.7796237601
 21
85.779628451
 31
0.0
 11
266.9190786456
 21
87.7299549899
 31
0.0
  0
SPLINE
  5
28B
100
AcDbEntity
  8
0
100
AcDbSpline
 62
7
  6
CONTINUOUS
 70
0
 71
3
 72
16
 73
12
 74
10
 42
0.0000001
 43
0.0000001
 44
0.0000000001
 12
-1.4256832494
 22
-4.6135126858
 32
0.0
 13
-2.1424894157
 23
4.3559137684
 33
0.0
 40
0.0
 40
0.0
 40
0.0
 40
0.0
 40
0.1080823492
 40
0.2254610639
 40
0.3492238403
 40
0.4749672789
 40
0.5978632681
 40
0.7136995383
 40
0.8199556511
 40
0.9168881404
 40
1.0
 40
1.0
 40
1.0
 40
1.0
 10
221.566241579
 20
69.99481205
 30
0.0
 10
221.5148778474
 20
69.8285989537
 30
0.0
 10
221.3517918625
 20
69.4980938443
 30
0.0
 10
220.9820038392
 20
69.068589848
 30
0.0
 10
220.5054582566
 20
68.7123625776
 30
0.0
 10
219.9588239363
 20
68.456555832
 30
0.0
 10
219.3836179962
 20
68.3204711762
 30
0.0
 10
218.8230647323
 20
68.3153485857
 30
0.0
 10
218.318839011
 20
68.4442639394
 30
0.0
 10
217.9219783501
 20
68.6965306695
 30
0.0
 10
217.7448731685
 20
68.9345731364
 30
0.0
 10
217.685517742
 20
69.0552491675
 30
0.0
 11
221.566241579
 21
69.99481205
 31
0.0
 11
221.3411309771
 21
69.5239506545
 31
0.0
 11
220.9750506465
 21
69.0912356488
 31
0.0
 11
220.4976582385
 21
68.7317230294
 31
0.0
 11
219.9476292468
 21
68.4745383706
 31
0.0
 11
219.3695237492
 21
68.3405172439
 31
0.0
 11
218.8101764148
 21
68.3405172439
 31
0.0
 11
218.3149022383
 21
68.4745383706
 31
0.0
 11
217.9238253879
 21
68.7317230294
 31
0.0
 11
217.685517742
 21
69.0552491675
 31
0.0
  0
SPLINE
  5
28C
100
AcDbEntity
  8
02___PRT_ALL_AXES
100
AcDbSpline
 62
7
  6
CONTINUOUS
 70
0
 71
3
 72
36
 73
32
 74
30
 42
0.0000001
 43
0.0000001
 44
0.0000000001
 12
-33.6935421913
 22
-109.0323424906
 32
0.0
 13
-50.3054126264
 23
102.5159964468
 33
0.0
 40
0.0
 40
0.0
 40
0.0
 40
0.0
 40
0.0329075806
 40
0.0668017702
 40
0.101673096
 40
0.1374827182
 40
0.1741657329
 40
0.2116346259
 40
0.2497827476
 40
0.2884877411
 40
0.3276148976
 40
0.367020439
 40
0.4065547381
 40
0.4460654962
 40
0.4854009016
 40
0.5244127911
 40
0.5629598386
 40
0.6009107927
 40
0.6381477811
 40
0.674569689
 40
0.7100956066
 40
0.7446683066
 40
0.7782576691
 40
0.8108638982
 40
0.842520272
 40
0.8732950445
 40
0.9032919949
 40
0.9326490477
 40
0.9615344396
 40
0.9901401721
 40
1.0
 40
1.0
 40
1.0
 40
1.0
 10
268.092523108
 20
65.5739219557
 30
0.0
 10
267.7229321225
 20
64.3779250881
 30
0.0
 10
266.8535229678
 20
61.9854498672
 30
0.0
 10
265.2067148178
 20
58.4807374046
 30
0.0
 10
263.2112904544
 20
55.0339813525
 30
0.0
 10
260.8835986743
 20
51.6729925644
 30
0.0
 10
258.2423813327
 20
48.4243267016
 30
0.0
 10
255.308878872
 20
45.3138458469
 30
0.0
 10
252.1066189088
 20
42.36630029
 30
0.0
 10
248.6612612248
 20
39.6051859159
 30
0.0
 10
245.0003975501
 20
37.0525339761
 30
0.0
 10
241.1533376082
 20
34.7287331776
 30
0.0
 10
237.1508762958
 20
32.6523599921
 30
0.0
 10
233.0250469876
 20
30.840026509
 30
0.0
 10
228.8088631338
 20
29.3062454721
 30
0.0
 10
224.536051082
 20
28.0633144719
 30
0.0
 10
220.2407769438
 20
27.1212204207
 30
0.0
 10
215.9573705857
 20
26.4875654861
 30
0.0
 10
211.7200501626
 20
26.1675153868
 30
0.0
 10
207.562651118
 20
26.1637705674
 30
0.0
 10
203.5183642067
 20
26.4765599849
 30
0.0
 10
199.6194876815
 20
27.1036558378
 30
0.0
 10
195.8971989114
 20
28.0404052557
 30
0.0
 10
192.3813495147
 20
29.2797716623
 30
0.0
 10
189.1002842844
 20
30.8123747959
 30
0.0
 10
186.0806764311
 20
32.6265162215
 30
0.0
 10
183.3473601827
 20
34.7081806043
 30
0.0
 10
180.9231309682
 20
37.0410167735
 30
0.0
 10
178.8284836702
 20
39.6063277379
 30
0.0
 10
177.4605420748
 20
41.7803732103
 30
0.0
 10
176.7873027873
 20
43.080958893
 30
0.0
 10
176.6219685497
 20
43.4178889215
 30
0.0
 11
268.092523108
 21
65.5739219557
 31
0.0
 11
266.8147754514
 21
62.0425744847
 31
0.0
 11
265.1743579644
 21
58.5396593471
 31
0.0
 11
263.1844783241
 21
55.093379956
 31
0.0
 11
260.8611578714
 21
51.7314837266
 31
0.0
 11
258.2231026165
 21
48.4810386706
 31
0.0
 11
255.291552629
 21
45.3682154603
 31
0.0
 11
252.0901110259
 21
42.418076718
 31
0.0
 11
248.6445539324
 21
39.6543752262
 31
0.0
 11
244.9826229483
 21
37.0993626841
 31
0.0
 11
241.1338017887
 21
34.7736105505
 31
0.0
 11
237.1290788986
 21
32.6958444141
 31
0.0
 11
233.0006979518
 21
30.8827932261
 31
0.0
 11
228.7818982444
 21
29.3490546085
 31
0.0
 11
224.506647071
 21
28.1069773229
 31
0.0
 11
220.2093662401
 21
27.1665618453
 31
0.0
 11
215.9246549304
 21
26.5353798482
 31
0.0
 11
211.6870111179
 21
26.2185132378
 31
0.0
 11
207.5305538188
 21
26.2185132378
 31
0.0
 11
203.4887483834
 21
26.5353798482
 31
0.0
 11
199.5941370526
 21
27.1665618453
 31
0.0
 11
195.8780769467
 21
28.1069773229
 31
0.0
 11
192.3704875967
 21
29.3490546085
 31
0.0
 11
189.0996100497
 21
30.8827932261
 31
0.0
 11
186.0917794884
 21
32.6958444141
 31
0.0
 11
183.3712131958
 21
34.7736105505
 31
0.0
 11
180.9598155722
 21
37.0993626841
 31
0.0
 11
178.8770017733
 21
39.6543752262
 31
0.0
 11
177.1395413912
 21
42.418076718
 31
0.0
 11
176.6219685497
 21
43.4178889215
 31
0.0
  0
SPLINE
  5
28D
100
AcDbEntity
  8
0
100
AcDbSpline
 62
7
  6
CONTINUOUS
 70
0
 71
3
 72
10
 73
6
 74
4
 42
0.0000001
 43
0.0000001
 44
0.0000000001
 12
0.4254199623
 22
-0.8649250063
 32
0.0
 13
-0.2830884997
 23
-0.9160747207
 33
0.0
 40
0.0
 40
0.0
 40
0.0
 40
0.0
 40
0.0412497401
 40
0.5041278938
 40
1.0
 40
1.0
 40
1.0
 40
1.0
 10
221.5166139423
 20
70.9343749326
 30
0.0
 10
221.5224634299
 20
70.9224822886
 30
0.0
 10
221.5912933809
 20
70.7758571538
 30
0.0
 10
221.661398399
 20
70.4556946038
 30
0.0
 10
221.6130334758
 20
70.1462306838
 30
0.0
 10
221.566241579
 20
69.99481205
 30
0.0
 11
221.5166139423
 21
70.9343749326
 31
0.0
 11
221.5335031002
 21
70.8983884512
 31
0.0
 11
221.63214533
 21
70.4656734456
 31
0.0
 11
221.566241579
 21
69.99481205
 31
0.0
  0
SPLINE
  5
28E
100
AcDbEntity
  8
02___PRT_ALL_AXES
100
AcDbSpline
 62
7
  6
CONTINUOUS
 70
0
 71
3
 72
36
 73
32
 74
30
 42
0.0000001
 43
0.0000001
 44
0.0000000001
 12
-50.3054126264
 22
102.5159964468
 32
0.0
 13
-33.6935421913
 23
-109.0323424906
 33
0.0
 40
0.0
 40
0.0
 40
0.0
 40
0.0
 40
0.0098598279
 40
0.0384655604
 40
0.0673509523
 40
0.0967080051
 40
0.1267049555
 40
0.157479728
 40
0.1891361018
 40
0.2217423309
 40
0.2553316934
 40
0.2899043934
 40
0.325430311
 40
0.3618522189
 40
0.3990892073
 40
0.4370401614
 40
0.4755872089
 40
0.5145990984
 40
0.5539345038
 40
0.5934452619
 40
0.632979561
 40
0.6723851024
 40
0.7115122589
 40
0.7502172524
 40
0.7883653741
 40
0.8258342671
 40
0.8625172818
 40
0.898326904
 40
0.9331982298
 40
0.9670924194
 40
1.0
 40
1.0
 40
1.0
 40
1.0
 10
265.9893110361
 20
89.6246221732
 30
0.0
 10
265.8239767985
 20
89.9615522017
 30
0.0
 10
265.150737511
 20
91.2621378844
 30
0.0
 10
263.7827959156
 20
93.4361833567
 30
0.0
 10
261.6881486176
 20
96.0014943212
 30
0.0
 10
259.2639194031
 20
98.3343304904
 30
0.0
 10
256.5306031547
 20
100.4159948732
 30
0.0
 10
253.5109953014
 20
102.2301362988
 30
0.0
 10
250.2299300711
 20
103.7627394324
 30
0.0
 10
246.7140806744
 20
105.002105839
 30
0.0
 10
242.9917919043
 20
105.9388552569
 30
0.0
 10
239.0929153791
 20
106.5659511098
 30
0.0
 10
235.0486284678
 20
106.8787405273
 30
0.0
 10
230.8912294232
 20
106.8749957078
 30
0.0
 10
226.6539090001
 20
106.5549456086
 30
0.0
 10
222.370502642
 20
105.921290674
 30
0.0
 10
218.0752285038
 20
104.9791966228
 30
0.0
 10
213.802416452
 20
103.7362656225
 30
0.0
 10
209.5862325982
 20
102.2024845857
 30
0.0
 10
205.46040329
 20
100.3901511026
 30
0.0
 10
201.4579419776
 20
98.3137779171
 30
0.0
 10
197.6108820357
 20
95.9899771186
 30
0.0
 10
193.950018361
 20
93.4373251787
 30
0.0
 10
190.504660677
 20
90.6762108047
 30
0.0
 10
187.3024007138
 20
87.7286652478
 30
0.0
 10
184.3688982531
 20
84.618184393
 30
0.0
 10
181.7276809115
 20
81.3695185302
 30
0.0
 10
179.3999891314
 20
78.0085297422
 30
0.0
 10
177.404564768
 20
74.5617736901
 30
0.0
 10
175.757756618
 20
71.0570612275
 30
0.0
 10
174.8883474633
 20
68.6645860066
 30
0.0
 10
174.5187564778
 20
67.468589139
 30
0.0
 11
265.9893110361
 21
89.6246221732
 31
0.0
 11
265.4717381946
 21
90.6244343766
 31
0.0
 11
263.7342778125
 21
93.3881358685
 31
0.0
 11
261.6514640136
 21
95.9431484106
 31
0.0
 11
259.24006639
 21
98.2689005441
 31
0.0
 11
256.5195000974
 21
100.3466666806
 31
0.0
 11
253.5116695361
 21
102.1597178686
 31
0.0
 11
250.2407919891
 21
103.6934564862
 31
0.0
 11
246.7332026391
 21
104.9355337718
 31
0.0
 11
243.0171425332
 21
105.8759492493
 31
0.0
 11
239.1225312023
 21
106.5071312465
 31
0.0
 11
235.080725767
 21
106.8239978569
 31
0.0
 11
230.9242684679
 21
106.8239978569
 31
0.0
 11
226.6866246554
 21
106.5071312465
 31
0.0
 11
222.4019133456
 21
105.8759492493
 31
0.0
 11
218.1046325148
 21
104.9355337718
 31
0.0
 11
213.8293813414
 21
103.6934564862
 31
0.0
 11
209.610581634
 21
102.1597178686
 31
0.0
 11
205.4822006872
 21
100.3466666806
 31
0.0
 11
201.4774777971
 21
98.2689005441
 31
0.0
 11
197.6286566375
 21
95.9431484106
 31
0.0
 11
193.9667256534
 21
93.3881358685
 31
0.0
 11
190.5211685599
 21
90.6244343766
 31
0.0
 11
187.3197269568
 21
87.6742956343
 31
0.0
 11
184.3881769693
 21
84.5614724241
 31
0.0
 11
181.7501217144
 21
81.3110273681
 31
0.0
 11
179.4268012617
 21
77.9491311387
 31
0.0
 11
177.4369216214
 21
74.5028517476
 31
0.0
 11
175.7965041344
 21
70.99993661
 31
0.0
 11
174.5187564778
 21
67.468589139
 31
0.0
  0
SPLINE
  5
28F
100
AcDbEntity
  8
02___PRT_ALL_AXES
100
AcDbSpline
 62
7
  6
CONTINUOUS
 70
0
 71
3
 72
30
 73
26
 74
24
 42
0.0000001
 43
0.0000001
 44
0.0000000001
 12
-30.497771554
 22
62.1420429332
 32
0.0
 13
-20.4171053969
 23
-66.0697772784
 33
0.0
 40
0.0
 40
0.0
 40
0.0
 40
0.0
 40
0.0241438228
 40
0.0600889697
 40
0.096698251
 40
0.134306222
 40
0.1731739066
 40
0.2134780132
 40
0.2553089725
 40
0.298675237
 40
0.3435113069
 40
0.3896875914
 40
0.4370209283
 40
0.4852851423
 40
0.5342213835
 40
0.5835481845
 40
0.6329712839
 40
0.6821933036
 40
0.7309233901
 40
0.7788869317
 40
0.8258354557
 40
0.8715567833
 40
0.9158854608
 40
0.9587133478
 40
1.0
 40
1.0
 40
1.0
 40
1.0
 10
246.9640596587
 20
83.4221729805
 30
0.0
 10
246.7186153948
 20
83.922288471
 30
0.0
 10
246.0422926521
 20
85.1348766362
 30
0.0
 10
244.7072696006
 20
86.9307885845
 30
0.0
 10
242.8959968715
 20
88.7237562421
 30
0.0
 10
240.7921833118
 20
90.2772655304
 30
0.0
 10
238.4236838189
 20
91.5725893343
 30
0.0
 10
235.8210584973
 20
92.5945865367
 30
0.0
 10
233.0172456282
 20
93.3315520712
 30
0.0
 10
230.0473178135
 20
93.7751746369
 30
0.0
 10
226.9482137883
 20
93.9205811756
 30
0.0
 10
223.7584016655
 20
93.7664127204
 30
0.0
 10
220.5174727623
 20
93.3148850062
 30
0.0
 10
217.2656830236
 20
92.5718069032
 30
0.0
 10
214.0434619447
 20
91.5465451498
 30
0.0
 10
210.8909062521
 20
90.2519328158
 30
0.0
 10
207.8472721042
 20
88.7041229385
 30
0.0
 10
204.9504772207
 20
86.9223913407
 30
0.0
 10
202.2366219599
 20
84.9288902693
 30
0.0
 10
199.7395411216
 20
82.7483664423
 30
0.0
 10
197.4903861876
 20
80.407816464
 30
0.0
 10
195.5172822554
 20
77.9362057138
 30
0.0
 10
193.8449448313
 20
75.3638366423
 30
0.0
 10
192.4947079775
 20
72.7229041118
 30
0.0
 10
191.8081113878
 20
70.9040786876
 30
0.0
 10
191.5271267449
 20
69.99481205
 30
0.0
 11
246.9640596587
 21
83.4221729805
 31
0.0
 11
246.1503762101
 21
84.8811324833
 31
0.0
 11
244.6695007504
 21
86.87755511
 31
0.0
 11
242.8733751766
 21
88.6616674471
 31
0.0
 11
240.78458681
 21
90.2110332468
 31
0.0
 11
238.4294033764
 21
91.5061683353
 31
0.0
 11
235.8374426737
 21
92.5307856373
 31
0.0
 11
233.0413001119
 21
93.2719999957
 31
0.0
 11
230.0761388059
 21
93.72049021
 31
0.0
 11
226.9792473796
 21
93.8706162555
 31
0.0
 11
223.7895710395
 21
93.72049021
 31
0.0
 11
220.5472218164
 21
93.2719999957
 31
0.0
 11
217.2929741329
 21
92.5307856373
 31
0.0
 11
214.0677520419
 21
91.5061683353
 31
0.0
 11
210.9121145823
 21
90.2110332468
 31
0.0
 11
207.8657457264
 21
88.6616674471
 31
0.0
 11
204.9669553298
 21
86.87755511
 31
0.0
 11
202.2521973639
 21
84.8811324833
 31
0.0
 11
199.7556114852
 21
82.6975057399
 31
0.0
 11
197.5085937095
 21
80.3541352531
 31
0.0
 11
195.5394015893
 21
77.8804902664
 31
0.0
 11
193.872798858
 21
75.3076783008
 31
0.0
 11
192.5297440119
 21
72.6680539594
 31
0.0
 11
191.5271267449
 21
69.99481205
 31
0.0
  0
SPLINE
  5
290
100
AcDbEntity
  8
02___PRT_ALL_AXES
100
AcDbSpline
 62
7
  6
CONTINUOUS
 70
0
 71
3
 72
13
 73
9
 74
7
 42
0.0000001
 43
0.0000001
 44
0.0000000001
 12
-6.0708958301
 22
12.3700142697
 32
0.0
 13
4.0642353097
 23
13.1518702822
 33
0.0
 40
0.0
 40
0.0
 40
0.0
 40
0.0
 40
0.0578937262
 40
0.2377448593
 40
0.420268693
 40
0.6072538196
 40
0.800150764
 40
1.0
 40
1.0
 40
1.0
 40
1.0
 10
192.2380720257
 20
56.5674511196
 30
0.0
 10
192.120916432
 20
56.8061665259
 30
0.0
 10
191.6644180289
 20
57.7985347809
 30
0.0
 10
191.0411541991
 20
59.6316140252
 30
0.0
 10
190.6014357785
 20
62.1233418458
 30
0.0
 10
190.5297708669
 20
64.7118372481
 30
0.0
 10
190.8254832946
 20
67.3631795124
 30
0.0
 10
191.2563819711
 20
69.1186816406
 30
0.0
 10
191.5271267449
 20
69.99481205
 30
0.0
 11
192.2380720257
 21
56.5674511196
 31
0.0
 11
191.9047529966
 21
57.2921183601
 31
0.0
 11
191.1060477228
 21
59.6354888469
 31
0.0
 11
190.6656838351
 21
62.1091338336
 31
0.0
 11
190.5891991648
 21
64.6819457993
 31
0.0
 11
190.877555551
 21
67.3215701406
 31
0.0
 11
191.5271267449
 21
69.99481205
 31
0.0
  0
SPLINE
  5
291
100
AcDbEntity
  8
02___PRT_ALL_AXES
100
AcDbSpline
 62
7
  6
CONTINUOUS
 70
0
 71
3
 72
14
 73
10
 74
8
 42
0.0000001
 43
0.0000001
 44
0.0000000001
 12
-10.015681442
 22
20.4106776887
 32
0.0
 13
6.7082997161
 23
21.7080658371
 33
0.0
 40
0.0
 40
0.0
 40
0.0
 40
0.0
 40
0.0937879793
 40
0.2377900304
 40
0.383504454
 40
0.5318631009
 40
0.6836668652
 40
0.8395570214
 40
1.0
 40
1.0
 40
1.0
 40
1.0
 10
175.6922009402
 20
45.3125561048
 30
0.0
 10
175.3790840991
 20
45.9506481767
 30
0.0
 10
174.6510116564
 20
47.6007721595
 30
0.0
 10
173.7556411098
 20
50.3716196486
 30
0.0
 10
173.1266369769
 20
53.6374761314
 30
0.0
 10
172.884214143
 20
57.0132906837
 30
0.0
 10
173.0296277634
 20
60.4713722228
 30
0.0
 10
173.5607712227
 20
63.9832054139
 30
0.0
 10
174.1599899485
 20
66.3076202247
 30
0.0
 10
174.5187564778
 20
67.468589139
 30
0.0
 11
175.6922009402
 21
45.3125561048
 31
0.0
 11
174.8316558257
 21
47.2628826436
 31
0.0
 11
173.8239760913
 21
50.3757058539
 31
0.0
 11
173.1948478232
 21
53.6261509099
 31
0.0
 11
172.9493363923
 21
56.9880471393
 31
0.0
 11
173.0894185123
 21
60.4343265304
 31
0.0
 11
173.6139663243
 21
63.937241668
 31
0.0
 11
174.5187564778
 21
67.468589139
 31
0.0
  0
SPLINE
  5
292
100
AcDbEntity
  8
02___PRT_ALL_AXES
100
AcDbSpline
 62
7
  6
CONTINUOUS
 70
0
 71
3
 72
30
 73
26
 74
24
 42
0.0000001
 43
0.0000001
 44
0.0000000001
 12
-20.4171053969
 22
-66.0697772784
 32
0.0
 13
-30.497771554
 23
62.1420429332
 33
0.0
 40
0.0
 40
0.0
 40
0.0
 40
0.0
 40
0.0412866522
 40
0.0841145392
 40
0.1284432167
 40
0.1741645443
 40
0.2211130683
 40
0.2690766099
 40
0.3178066964
 40
0.3670287161
 40
0.4164518155
 40
0.4657786165
 40
0.5147148577
 40
0.5629790717
 40
0.6103124086
 40
0.6564886931
 40
0.701324763
 40
0.7446910275
 40
0.7865219868
 40
0.8268260934
 40
0.865693778
 40
0.903301749
 40
0.9399110303
 40
0.9758561772
 40
1.0
 40
1.0
 40
1.0
 40
1.0
 10
248.9146950854
 20
67.468589139
 30
0.0
 10
248.6337104425
 20
66.5593225014
 30
0.0
 10
247.9471138528
 20
64.7404970772
 30
0.0
 10
246.596876999
 20
62.0995645467
 30
0.0
 10
244.9245395749
 20
59.5271954752
 30
0.0
 10
242.9514356427
 20
57.055584725
 30
0.0
 10
240.7022807087
 20
54.7150347467
 30
0.0
 10
238.2051998704
 20
52.5345109197
 30
0.0
 10
235.4913446096
 20
50.5410098484
 30
0.0
 10
232.5945497261
 20
48.7592782505
 30
0.0
 10
229.5509155782
 20
47.2114683732
 30
0.0
 10
226.3983598856
 20
45.9168560392
 30
0.0
 10
223.1761388067
 20
44.8915942858
 30
0.0
 10
219.924349068
 20
44.1485161828
 30
0.0
 10
216.6834201648
 20
43.6969884686
 30
0.0
 10
213.493608042
 20
43.5428200134
 30
0.0
 10
210.3945040168
 20
43.6882265521
 30
0.0
 10
207.4245762021
 20
44.1318491178
 30
0.0
 10
204.620763333
 20
44.8688146523
 30
0.0
 10
202.0181380114
 20
45.8908118547
 30
0.0
 10
199.6496385185
 20
47.1861356586
 30
0.0
 10
197.5458249588
 20
48.7396449469
 30
0.0
 10
195.7345522297
 20
50.5326126045
 30
0.0
 10
194.3995291782
 20
52.3285245528
 30
0.0
 10
193.7232064355
 20
53.541112718
 30
0.0
 10
193.4777621717
 20
54.0412282085
 30
0.0
 11
248.9146950854
 21
67.468589139
 31
0.0
 11
247.9120778184
 21
64.7953472296
 31
0.0
 11
246.5690229723
 21
62.1557228882
 31
0.0
 11
244.902420241
 21
59.5829109226
 31
0.0
 11
242.9332281208
 21
57.1092659359
 31
0.0
 11
240.6862103452
 21
54.7658954491
 31
0.0
 11
238.1896244664
 21
52.5822687057
 31
0.0
 11
235.4748665005
 21
50.585846079
 31
0.0
 11
232.5760761039
 21
48.8017337419
 31
0.0
 11
229.529707248
 21
47.2523679422
 31
0.0
 11
226.3740697884
 21
45.9572328537
 31
0.0
 11
223.1488476974
 21
44.9326155518
 31
0.0
 11
219.8946000139
 21
44.1914011933
 31
0.0
 11
216.6522507908
 21
43.742910979
 31
0.0
 11
213.4625744507
 21
43.5927849335
 31
0.0
 11
210.3656830244
 21
43.742910979
 31
0.0
 11
207.4005217184
 21
44.1914011933
 31
0.0
 11
204.6043791566
 21
44.9326155518
 31
0.0
 11
202.0124184539
 21
45.9572328537
 31
0.0
 11
199.6572350203
 21
47.2523679422
 31
0.0
 11
197.5684466537
 21
48.8017337419
 31
0.0
 11
195.77232108
 21
50.585846079
 31
0.0
 11
194.2914456202
 21
52.5822687057
 31
0.0
 11
193.4777621717
 21
54.0412282085
 31
0.0
  0
SPLINE
  5
293
100
AcDbEntity
  8
02___PRT_ALL_AXES
100
AcDbSpline
 62
7
  6
CONTINUOUS
 70
0
 71
3
 72
13
 73
9
 74
7
 42
0.0000001
 43
0.0000001
 44
0.0000000001
 12
4.0642353097
 22
13.1518702822
 32
0.0
 13
-6.0708958301
 23
12.3700142697
 33
0.0
 40
0.0
 40
0.0
 40
0.0
 40
0.0
 40
0.199849236
 40
0.3927461804
 40
0.579731307
 40
0.7622551407
 40
0.9421062738
 40
1.0
 40
1.0
 40
1.0
 40
1.0
 10
248.9146950854
 20
67.468589139
 30
0.0
 10
249.1854398593
 20
68.3447195484
 30
0.0
 10
249.6163385358
 20
70.1002216766
 30
0.0
 10
249.9120509634
 20
72.7515639409
 30
0.0
 10
249.8403860518
 20
75.3400593432
 30
0.0
 10
249.4006676312
 20
77.8317871638
 30
0.0
 10
248.7774038014
 20
79.6648664081
 30
0.0
 10
248.3209053983
 20
80.6572346631
 30
0.0
 10
248.2037498046
 20
80.8959500694
 30
0.0
 11
248.9146950854
 21
67.468589139
 31
0.0
 11
249.5642662793
 21
70.1418310484
 31
0.0
 11
249.8526226655
 21
72.7814553897
 31
0.0
 11
249.7761379952
 21
75.3542673554
 31
0.0
 11
249.3357741075
 21
77.8279123421
 31
0.0
 11
248.5370688337
 21
80.1712828289
 31
0.0
 11
248.2037498046
 21
80.8959500694
 31
0.0
  0
SPLINE
  5
294
100
AcDbEntity
  8
0
100
AcDbSpline
 62
7
  6
CONTINUOUS
 70
0
 71
3
 72
11
 73
7
 74
5
 42
0.0000001
 43
0.0000001
 44
0.0000000001
 12
1.2385608669
 22
1.159715068
 32
0.0
 13
1.6762474391
 23
0.2651280801
 33
0.0
 40
0.0
 40
0.0
 40
0.0
 40
0.0
 40
0.0679346605
 40
0.4589648296
 40
0.8518181424
 40
1.0
 40
1.0
 40
1.0
 40
1.0
 10
219.4686626612
 20
68.3740110178
 30
0.0
 10
219.4967097319
 20
68.4002726343
 30
0.0
 10
219.6900655381
 20
68.5735613194
 30
0.0
 10
220.0930416582
 20
68.8431902924
 30
0.0
 10
220.5880273388
 20
69.0335320795
 30
0.0
 10
220.8880866948
 20
69.0958409681
 30
0.0
 10
220.9708831813
 20
69.1089366919
 30
0.0
 11
219.4686626612
 21
68.3740110178
 31
0.0
 11
219.5544704609
 21
68.4509583309
 31
0.0
 11
220.1034898695
 21
68.8207043339
 31
0.0
 11
220.7246780226
 21
69.058095881
 31
0.0
 11
220.9708831813
 21
69.1089366919
 31
0.0
  0
SPLINE
  5
295
100
AcDbEntity
  8
02___PRT_ALL_AXES
100
AcDbSpline
 62
7
  6
CONTINUOUS
 70
0
 71
3
 72
30
 73
26
 74
24
 42
0.0000001
 43
0.0000001
 44
0.0000000001
 12
-20.4171053969
 22
-66.0697772784
 32
0.0
 13
-30.497771554
 23
62.1420429332
 33
0.0
 40
0.0
 40
0.0
 40
0.0
 40
0.0
 40
0.0412866522
 40
0.0841145392
 40
0.1284432167
 40
0.1741645443
 40
0.2211130683
 40
0.2690766099
 40
0.3178066964
 40
0.3670287161
 40
0.4164518155
 40
0.4657786165
 40
0.5147148577
 40
0.5629790717
 40
0.6103124086
 40
0.6564886931
 40
0.701324763
 40
0.7446910275
 40
0.7865219868
 40
0.8268260934
 40
0.865693778
 40
0.903301749
 40
0.9399110303
 40
0.9758561772
 40
1.0
 40
1.0
 40
1.0
 40
1.0
 10
247.6750049394
 20
69.99481205
 30
0.0
 10
247.3940202965
 20
69.0855454124
 30
0.0
 10
246.7074237068
 20
67.2667199883
 30
0.0
 10
245.357186853
 20
64.6257874578
 30
0.0
 10
243.6848494289
 20
62.0534183863
 30
0.0
 10
241.7117454967
 20
59.581807636
 30
0.0
 10
239.4625905627
 20
57.2412576577
 30
0.0
 10
236.9655097244
 20
55.0607338307
 30
0.0
 10
234.2516544636
 20
53.0672327594
 30
0.0
 10
231.3548595802
 20
51.2855011615
 30
0.0
 10
228.3112254322
 20
49.7376912842
 30
0.0
 10
225.1586697396
 20
48.4430789502
 30
0.0
 10
221.9364486607
 20
47.4178171969
 30
0.0
 10
218.6846589221
 20
46.6747390939
 30
0.0
 10
215.4437300188
 20
46.2232113796
 30
0.0
 10
212.253917896
 20
46.0690429245
 30
0.0
 10
209.1548138708
 20
46.2144494632
 30
0.0
 10
206.1848860561
 20
46.6580720289
 30
0.0
 10
203.381073187
 20
47.3950375634
 30
0.0
 10
200.7784478654
 20
48.4170347658
 30
0.0
 10
198.4099483725
 20
49.7123585696
 30
0.0
 10
196.3061348128
 20
51.2658678579
 30
0.0
 10
194.4948620837
 20
53.0588355155
 30
0.0
 10
193.1598390322
 20
54.8547474638
 30
0.0
 10
192.4835162895
 20
56.0673356291
 30
0.0
 10
192.2380720257
 20
56.5674511196
 30
0.0
 11
247.6750049394
 21
69.99481205
 31
0.0
 11
246.6723876724
 21
67.3215701406
 31
0.0
 11
245.3293328263
 21
64.6819457993
 31
0.0
 11
243.662730095
 21
62.1091338336
 31
0.0
 11
241.6935379748
 21
59.6354888469
 31
0.0
 11
239.4465201992
 21
57.2921183601
 31
0.0
 11
236.9499343204
 21
55.1084916168
 31
0.0
 11
234.2351763545
 21
53.1120689901
 31
0.0
 11
231.3363859579
 21
51.327956653
 31
0.0
 11
228.290017102
 21
49.7785908532
 31
0.0
 11
225.1343796425
 21
48.4834557648
 31
0.0
 11
221.9091575514
 21
47.4588384628
 31
0.0
 11
218.6549098679
 21
46.7176241044
 31
0.0
 11
215.4125606448
 21
46.2691338901
 31
0.0
 11
212.2228843047
 21
46.1190078446
 31
0.0
 11
209.1259928784
 21
46.2691338901
 31
0.0
 11
206.1608315724
 21
46.7176241044
 31
0.0
 11
203.3646890106
 21
47.4588384628
 31
0.0
 11
200.7727283079
 21
48.4834557648
 31
0.0
 11
198.4175448743
 21
49.7785908532
 31
0.0
 11
196.3287565077
 21
51.327956653
 31
0.0
 11
194.532630934
 21
53.1120689901
 31
0.0
 11
193.0517554742
 21
55.1084916168
 31
0.0
 11
192.2380720257
 21
56.5674511196
 31
0.0
  0
SPLINE
  5
296
100
AcDbEntity
  8
02___PRT_ALL_AXES
100
AcDbSpline
 62
7
  6
CONTINUOUS
 70
0
 71
3
 72
13
 73
9
 74
7
 42
0.0000001
 43
0.0000001
 44
0.0000000001
 12
4.0642353097
 22
13.1518702822
 32
0.0
 13
-6.0708958301
 23
12.3700142697
 33
0.0
 40
0.0
 40
0.0
 40
0.0
 40
0.0
 40
0.199849236
 40
0.3927461804
 40
0.579731307
 40
0.7622551407
 40
0.9421062738
 40
1.0
 40
1.0
 40
1.0
 40
1.0
 10
247.6750049394
 20
69.99481205
 30
0.0
 10
247.9457497133
 20
70.8709424595
 30
0.0
 10
248.3766483898
 20
72.6264445877
 30
0.0
 10
248.6723608174
 20
75.277786852
 30
0.0
 10
248.6006959058
 20
77.8662822543
 30
0.0
 10
248.1609774852
 20
80.3580100749
 30
0.0
 10
247.5377136554
 20
82.1910893192
 30
0.0
 10
247.0812152523
 20
83.1834575741
 30
0.0
 10
246.9640596587
 20
83.4221729805
 30
0.0
 11
247.6750049394
 21
69.99481205
 31
0.0
 11
248.3245761333
 21
72.6680539594
 31
0.0
 11
248.6129325195
 21
75.3076783008
 31
0.0
 11
248.5364478492
 21
77.8804902664
 31
0.0
 11
248.0960839615
 21
80.3541352531
 31
0.0
 11
247.2973786877
 21
82.6975057399
 31
0.0
 11
246.9640596587
 21
83.4221729805
 31
0.0
  0
SPLINE
  5
297
100
AcDbEntity
  8
02___PRT_ALL_AXES
100
AcDbSpline
 62
7
  6
CONTINUOUS
 70
0
 71
3
 72
35
 73
31
 74
29
 42
0.0000001
 43
0.0000001
 44
0.0000000001
 12
-33.0730869844
 22
-107.0245487052
 32
0.0
 13
-57.2873608052
 23
96.3442910162
 33
0.0
 40
0.0
 40
0.0
 40
0.0
 40
0.0
 40
0.0335249309
 40
0.0680549797
 40
0.1035804959
 40
0.140061911
 40
0.1774331036
 40
0.2156049177
 40
0.2544687029
 40
0.2938998068
 40
0.3337609936
 40
0.3739057879
 40
0.4141817553
 40
0.4544337401
 40
0.4945070826
 40
0.53425084
 40
0.5735210349
 40
0.6121839536
 40
0.6501195124
 40
0.6872246999
 40
0.7234170881
 40
0.7586383762
 40
0.7928578793
 40
0.8260758054
 40
0.8583260567
 40
0.8896781676
 40
0.9202378646
 40
0.9501456593
 40
0.9795729447
 40
1.0
 40
1.0
 40
1.0
 40
1.0
 10
267.1627554985
 20
67.468589139
 30
0.0
 10
266.793164513
 20
66.2725922714
 30
0.0
 10
265.9237553583
 20
63.8801170505
 30
0.0
 10
264.2769472083
 20
60.3754045878
 30
0.0
 10
262.2815228449
 20
56.9286485358
 30
0.0
 10
259.9538310648
 20
53.5676597477
 30
0.0
 10
257.3126137232
 20
50.3189938849
 30
0.0
 10
254.3791112625
 20
47.2085130302
 30
0.0
 10
251.1768512993
 20
44.2609674733
 30
0.0
 10
247.7314936153
 20
41.4998530992
 30
0.0
 10
244.0706299406
 20
38.9472011594
 30
0.0
 10
240.2235699987
 20
36.6234003609
 30
0.0
 10
236.2211086863
 20
34.5470271754
 30
0.0
 10
232.0952793781
 20
32.7346936923
 30
0.0
 10
227.8790955243
 20
31.2009126554
 30
0.0
 10
223.6062834725
 20
29.9579816551
 30
0.0
 10
219.3110093343
 20
29.015887604
 30
0.0
 10
215.0276029762
 20
28.3822326694
 30
0.0
 10
210.7902825531
 20
28.0621825701
 30
0.0
 10
206.6328835085
 20
28.0584377507
 30
0.0
 10
202.5885965972
 20
28.3712271682
 30
0.0
 10
198.689720072
 20
28.9983230211
 30
0.0
 10
194.9674313019
 20
29.935072439
 30
0.0
 10
191.4515819052
 20
31.1744388456
 30
0.0
 10
188.1705166749
 20
32.7070419791
 30
0.0
 10
185.1509088216
 20
34.5211834048
 30
0.0
 10
182.4175925732
 20
36.6028477876
 30
0.0
 10
179.9933633587
 20
38.9356839568
 30
0.0
 10
178.105045792
 20
41.2483032521
 30
0.0
 10
177.0833897899
 20
42.8079722103
 30
0.0
 10
176.6933190949
 20
43.4639822626
 30
0.0
 11
267.1627554985
 21
67.468589139
 31
0.0
 11
265.8850078419
 21
63.937241668
 31
0.0
 11
264.2445903549
 21
60.4343265304
 31
0.0
 11
262.2547107147
 21
56.9880471393
 31
0.0
 11
259.9313902619
 21
53.6261509099
 31
0.0
 11
257.293335007
 21
50.3757058539
 31
0.0
 11
254.3617850195
 21
47.2628826436
 31
0.0
 11
251.1603434164
 21
44.3127439013
 31
0.0
 11
247.7147863229
 21
41.5490424094
 31
0.0
 11
244.0528553388
 21
38.9940298674
 31
0.0
 11
240.2040341792
 21
36.6682777338
 31
0.0
 11
236.1993112891
 21
34.5905115974
 31
0.0
 11
232.0709303423
 21
32.7774604094
 31
0.0
 11
227.8521306349
 21
31.2437217918
 31
0.0
 11
223.5768794615
 21
30.0016445062
 31
0.0
 11
219.2795986307
 21
29.0612290286
 31
0.0
 11
214.9948873209
 21
28.4300470315
 31
0.0
 11
210.7572435084
 21
28.1131804211
 31
0.0
 11
206.6007862093
 21
28.1131804211
 31
0.0
 11
202.558980774
 21
28.4300470315
 31
0.0
 11
198.6643694431
 21
29.0612290286
 31
0.0
 11
194.9483093372
 21
30.0016445062
 31
0.0
 11
191.4407199872
 21
31.2437217918
 31
0.0
 11
188.1698424402
 21
32.7774604094
 31
0.0
 11
185.1620118789
 21
34.5905115974
 31
0.0
 11
182.4414455863
 21
36.6682777338
 31
0.0
 11
180.0300479627
 21
38.9940298674
 31
0.0
 11
177.9472341638
 21
41.5490424094
 31
0.0
 11
176.6933190949
 21
43.4639822626
 31
0.0
  0
SPLINE
  5
298
100
AcDbEntity
  8
0
100
AcDbSpline
 62
7
  6
CONTINUOUS
 70
0
 71
3
 72
10
 73
6
 74
4
 42
0.0000001
 43
0.0000001
 44
0.0000000001
 12
-0.4254199623
 22
0.8649250063
 32
0.0
 13
0.2830884997
 23
0.9160747207
 33
0.0
 40
0.0
 40
0.0
 40
0.0
 40
0.0
 40
0.0412497401
 40
0.5041278938
 40
1.0
 40
1.0
 40
1.0
 40
1.0
 10
217.685517742
 20
69.0552491675
 30
0.0
 10
217.6796682544
 20
69.0671418114
 30
0.0
 10
217.6108383034
 20
69.2137669463
 30
0.0
 10
217.5407332853
 20
69.5339294962
 30
0.0
 10
217.5890982085
 20
69.8433934163
 30
0.0
 10
217.6358901054
 20
69.99481205
 30
0.0
 11
217.685517742
 21
69.0552491675
 31
0.0
 11
217.6686285841
 21
69.0912356488
 31
0.0
 11
217.5699863543
 21
69.5239506545
 31
0.0
 11
217.6358901054
 21
69.99481205
 31
0.0
  0
SPLINE
  5
299
100
AcDbEntity
  8
0
100
AcDbSpline
 62
7
  6
CONTINUOUS
 70
0
 71
3
 72
16
 73
12
 74
10
 42
0.0000001
 43
0.0000001
 44
0.0000000001
 12
1.4256832494
 22
4.6135126858
 32
0.0
 13
2.1424894157
 23
-4.3559137684
 33
0.0
 40
0.0
 40
0.0
 40
0.0
 40
0.0
 40
0.1080823492
 40
0.2254610639
 40
0.3492238403
 40
0.4749672789
 40
0.5978632681
 40
0.7136995383
 40
0.8199556511
 40
0.9168881404
 40
1.0
 40
1.0
 40
1.0
 40
1.0
 10
217.6358901054
 20
69.99481205
 30
0.0
 10
217.6872538369
 20
70.1610251464
 30
0.0
 10
217.8503398218
 20
70.4915302558
 30
0.0
 10
218.2201278451
 20
70.921034252
 30
0.0
 10
218.6966734277
 20
71.2772615224
 30
0.0
 10
219.243307748
 20
71.5330682681
 30
0.0
 10
219.8185136881
 20
71.6691529239
 30
0.0
 10
220.379066952
 20
71.6742755143
 30
0.0
 10
220.8832926733
 20
71.5453601606
 30
0.0
 10
221.2801533342
 20
71.2930934306
 30
0.0
 10
221.4572585158
 20
71.0550509637
 30
0.0
 10
221.5166139423
 20
70.9343749326
 30
0.0
 11
217.6358901054
 21
69.99481205
 31
0.0
 11
217.8610007072
 21
70.4656734456
 31
0.0
 11
218.2270810378
 21
70.8983884512
 31
0.0
 11
218.7044734458
 21
71.2579010706
 31
0.0
 11
219.2545024375
 21
71.5150857294
 31
0.0
 11
219.8326079351
 21
71.6491068562
 31
0.0
 11
220.3919552695
 21
71.6491068562
 31
0.0
 11
220.887229446
 21
71.5150857294
 31
0.0
 11
221.2783062964
 21
71.2579010706
 31
0.0
 11
221.5166139423
 21
70.9343749326
 31
0.0
  0
SPLINE
  5
29A
100
AcDbEntity
  8
02___PRT_ALL_AXES
100
AcDbSpline
 62
7
  6
CONTINUOUS
 70
0
 71
3
 72
13
 73
9
 74
7
 42
0.0000001
 43
0.0000001
 44
0.0000000001
 12
6.0791418414
 22
19.6721102086
 32
0.0
 13
-7.5443270705
 23
19.1720481043
 33
0.0
 40
0.0
 40
0.0
 40
0.0
 40
0.0
 40
0.1770479479
 40
0.3490718811
 40
0.5165865034
 40
0.6802994574
 40
0.8410945255
 40
1.0
 40
1.0
 40
1.0
 40
1.0
 10
267.1627554985
 20
67.468589139
 30
0.0
 10
267.5215220278
 20
68.6295580533
 30
0.0
 10
268.1207407536
 20
70.9539728641
 30
0.0
 10
268.6518842129
 20
74.4658060552
 30
0.0
 10
268.7972978333
 20
77.9238875942
 30
0.0
 10
268.5548749994
 20
81.2997021466
 30
0.0
 10
267.9258708665
 20
84.5655586294
 30
0.0
 10
267.2494677749
 20
86.6587811674
 30
0.0
 10
266.8498561506
 20
87.6742956343
 30
0.0
 11
267.1627554985
 21
67.468589139
 31
0.0
 11
268.067545652
 21
70.99993661
 31
0.0
 11
268.592093464
 21
74.5028517476
 31
0.0
 11
268.732175584
 21
77.9491311387
 31
0.0
 11
268.4866641531
 21
81.3110273681
 31
0.0
 11
267.857535885
 21
84.5614724241
 31
0.0
 11
266.8498561506
 21
87.6742956343
 31
0.0
  0
LINE
  5
29B
100
AcDbEntity
  8
02___PRT_ALL_AXES
100
AcDbLine
 62
7
  6
CONTINUOUS
 10
266.8498561506
 20
87.6742956343
 11
266.8414400074
 21
87.6956557418
  0
ENDSEC
  0
SECTION
  2
OBJECTS
  0
DICTIONARY
  5
C
100
AcDbDictionary
280
0
281
1
  3
ACAD_GROUP
350
D
  3
ACAD_MLINESTYLE
350
17
  3
ACAD_LAYOUT
350
1A
  3
ACAD_PLOTSETTINGS
350
19
  3
ACAD_PLOTSTYLENAME
350
E
  0
DICTIONARY
  5
D
102
{ACAD_REACTORS
330
C
102
}
100
AcDbDictionary
280
0
281
1
  0
ACDBDICTIONARYWDFLT
  5
E
102
{ACAD_REACTORS
330
C
102
}
100
AcDbDictionary
281
1
  3
Normal
350
F
100
AcDbDictionaryWithDefault
340
F
  0
DICTIONARY
  5
17
102
{ACAD_REACTORS
330
C
102
}
100
AcDbDictionary
280
0
281
1
  3
Standard
350
18
  0
DICTIONARY
  5
19
102
{ACAD_REACTORS
330
C
102
}
100
AcDbDictionary
281
1
  0
DICTIONARY
  5
1A
102
{ACAD_REACTORS
330
C
102
}
100
AcDbDictionary
281
1
  3
Layout1
350
1E
  3
Model
350
22
  0
ACDBPLACEHOLDER
  5
F
102
{ACAD_REACTORS
330
E
102
}
  0
MLINESTYLE
  5
18
102
{ACAD_REACTORS
330
17
102
}
100
AcDbMlineStyle
  2
STANDARD
 70
0
  3

 62
256
 51
90.0
 52
90.0
 71
2
 49
0.5
 62
256
  6
BYLAYER
 49
-0.5
 62
256
  6
BYLAYER
  0
LAYOUT
  5
1E
102
{ACAD_REACTORS
330
1A
102
}
100
AcDbPlotSettings
  1

  2

  4

  6

 40
0.0
 41
0.0
 42
0.0
 43
0.0
 44
0.0
 45
0.0
 46
0.0
 47
0.0
 48
0.0
 49
0.0
140
0.0
141
0.0
142
1.0
143
1.0
 70
0
 72
0
 73
0
 74
0
  7

 75
0
147
1.0
148
0.0
149
0.0
100
AcDbLayout
  1
Layout1
 70
0
 71
0
 10
0.0
 20
0.0
 11
0.0
 21
0.0
 12
0.0
 22
0.0
 32
0.0
 14
0.0
 24
0.0
 34
0.0
 15
0.0
 25
0.0
 35
0.0
146
0.0
 13
0.0
 23
0.0
 33
0.0
 16
0.0
 26
0.0
 36
0.0
 17
0.0
 27
0.0
 37
0.0
 76
0
330
1B
331
0
345
0
346
0
  0
LAYOUT
  5
22
102
{ACAD_REACTORS
330
1A
102
}
100
AcDbPlotSettings
  1

  2

  4

  6

 40
0.0
 41
0.0
 42
0.0
 43
0.0
 44
0.0
 45
0.0
 46
0.0
 47
0.0
 48
0.0
 49
0.0
140
0.0
141
0.0
142
1.0
143
1.0
 70
1024
 72
0
 73
0
 74
0
  7

 75
0
147
1.0
148
0.0
149
0.0
100
AcDbLayout
  1
Model
 70
0
 71
0
 10
0.0
 20
0.0
 11
0.0
 21
0.0
 12
0.0
 22
0.0
 32
0.0
 14
0.0
 24
0.0
 34
0.0
 15
0.0
 25
0.0
 35
0.0
146
0.0
 13
0.0
 23
0.0
 33
0.0
 16
0.0
 26
0.0
 36
0.0
 17
0.0
 27
0.0
 37
0.0
 76
0
330
1F
331
0
345
0
346
0
  0
ENDSEC
  0
EOF
