999
dxfrw 0.5.10
0
SECTION
2
HEADER
9
$ACADVER
1
AC1021
9
$HANDSEED
5
20000
9
$DWGCODEPAGE
3
ANSI_1252
9
$INSBASE
10
0
20
0
30
0
9
$EXTMIN
10
-23.125
20
-90
30
0
9
$EXTMAX
10
130
20
50
30
0
9
$LIMMIN
10
0
20
0
9
$LIMMAX
10
420
20
297
9
$ORTHOMODE
70
0
9
$LTSCALE
40
1
9
$TEXTSTYLE
7
STANDARD
9
$CLAYER
8
Côtation
9
$DIMASZ
40
2.5
9
$DIMLFAC
40
1
9
$DIMSCALE
40
1
9
$DIMEXO
40
0.625
9
$DIMEXE
40
1.25
9
$DIMTXT
40
2.5
9
$DIMTSZ
40
0
9
$DIMAUNIT
70
0
9
$DIMADEC
70
0
9
$DIMLUNIT
70
2
9
$DIMSTYLE
2
STANDARD
9
$DIMGAP
40
0.625
9
$DIMTIH
70
0
9
$LUNITS
70
2
9
$LUPREC
70
4
9
$AUNITS
70
0
9
$AUPREC
70
2
9
$SPLINESEGS
70
8
9
$GRIDMODE
70
1
9
$SNAPSTYLE
70
0
9
$PINSBASE
10
40.4387755102
20
126.3
30
0
9
$PLIMMIN
10
0
20
0
9
$PLIMMAX
10
210
20
297
9
$INSUNITS
70
0
9
$PSVPSCALE
40
1.20816326531
0
ENDSEC
0
SECTION
2
CLASSES
0
ENDSEC
0
SECTION
2
TABLES
0
TABLE
2
VPORT
5
8
330
0
100
AcDbSymbolTable
70
1
0
VPORT
5
31
330
2
100
AcDbSymbolTableRecord
100
AcDbViewportTableRecord
2
*ACTIVE
70
0
10
0
20
0
11
1
21
1
12
67.4424424424
22
-2.06925675676
13
0
23
0
14
10
24
10
15
10
25
10
16
0
26
0
36
1
17
0
27
0
37
0
40
94.4194194194
41
1.65422077922
42
50
43
0
44
0
50
0
51
0
71
0
72
100
73
1
74
3
75
0
76
1
77
0
78
0
281
0
65
1
110
0
120
0
130
0
111
1
121
0
131
0
112
0
122
1
132
0
79
0
146
0
348
10020
60
7
61
5
292
1
282
1
141
0
142
0
63
250
421
3358443
0
ENDTAB
0
TABLE
2
LTYPE
5
5
330
0
100
AcDbSymbolTable
70
4
0
LTYPE
5
14
330
5
100
AcDbSymbolTableRecord
100
AcDbLinetypeTableRecord
2
ByBlock
70
0
3

72
65
73
0
40
0
0
LTYPE
5
15
330
5
100
AcDbSymbolTableRecord
100
AcDbLinetypeTableRecord
2
ByLayer
70
0
3

72
65
73
0
40
0
0
LTYPE
5
16
330
5
100
AcDbSymbolTableRecord
100
AcDbLinetypeTableRecord
2
Continuous
70
0
3
Solid line
72
65
73
0
40
0
0
LTYPE
5
32
330
5
100
AcDbSymbolTableRecord
100
AcDbLinetypeTableRecord
2
DOT
70
0
3
Dot . . . . . . . . . . . . . . . . . . . . . .
72
65
73
2
40
6.35
49
0
74
0
49
-6.35
74
0
0
LTYPE
5
33
330
5
100
AcDbSymbolTableRecord
100
AcDbLinetypeTableRecord
2
DOT2
70
0
3
Dot (.5x) .....................................
72
65
73
2
40
3.175
49
0
74
0
49
-3.175
74
0
0
LTYPE
5
34
330
5
100
AcDbSymbolTableRecord
100
AcDbLinetypeTableRecord
2
DOTX2
70
0
3
Dot (2x) .  .  .  .  .  .  .  .  .  .  .  .  .
72
65
73
2
40
12.7
49
0
74
0
49
-12.7
74
0
0
LTYPE
5
35
330
5
100
AcDbSymbolTableRecord
100
AcDbLinetypeTableRecord
2
DASHED
70
0
3
Dot . . . . . . . . . . . . . . . . . . . . . .
72
65
73
2
40
19.05
49
12.7
74
0
49
-6.35
74
0
0
LTYPE
5
36
330
5
100
AcDbSymbolTableRecord
100
AcDbLinetypeTableRecord
2
DASHED2
70
0
3
Dashed (.5x) _ _ _ _ _ _ _ _ _ _ _ _ _ _ _ _ _
72
65
73
2
40
9.525
49
6.35
74
0
49
-3.175
74
0
0
LTYPE
5
37
330
5
100
AcDbSymbolTableRecord
100
AcDbLinetypeTableRecord
2
DASHEDX2
70
0
3
Dashed (2x) ____  ____  ____  ____  ____  ___
72
65
73
2
40
38.1
49
25.4
74
0
49
-12.7
74
0
0
LTYPE
5
38
330
5
100
AcDbSymbolTableRecord
100
AcDbLinetypeTableRecord
2
DASHDOT
70
0
3
Dash dot __ . __ . __ . __ . __ . __ . __ . __
72
65
73
4
40
25.4
49
12.7
74
0
49
-6.35
74
0
49
0
74
0
49
-6.35
74
0
0
LTYPE
5
39
330
5
100
AcDbSymbolTableRecord
100
AcDbLinetypeTableRecord
2
DASHDOT2
70
0
3
Dash dot (.5x) _._._._._._._._._._._._._._._.
72
65
73
4
40
12.7
49
6.35
74
0
49
-3.175
74
0
49
0
74
0
49
-3.175
74
0
0
LTYPE
5
3A
330
5
100
AcDbSymbolTableRecord
100
AcDbLinetypeTableRecord
2
DASHDOTX2
70
0
3
Dash dot (2x) ____  .  ____  .  ____  .  ___
72
65
73
4
40
50.8
49
25.4
74
0
49
-12.7
74
0
49
0
74
0
49
-12.7
74
0
0
LTYPE
5
3B
330
5
100
AcDbSymbolTableRecord
100
AcDbLinetypeTableRecord
2
DIVIDE
70
0
3
Divide ____ . . ____ . . ____ . . ____ . . ____
72
65
73
6
40
31.75
49
12.7
74
0
49
-6.35
74
0
49
0
74
0
49
-6.35
74
0
49
0
74
0
49
-6.35
74
0
0
LTYPE
5
3C
330
5
100
AcDbSymbolTableRecord
100
AcDbLinetypeTableRecord
2
DIVIDE2
70
0
3
Divide (.5x) __..__..__..__..__..__..__..__.._
72
65
73
6
40
15.875
49
6.35
74
0
49
-3.175
74
0
49
0
74
0
49
-3.175
74
0
49
0
74
0
49
-3.175
74
0
0
LTYPE
5
3D
330
5
100
AcDbSymbolTableRecord
100
AcDbLinetypeTableRecord
2
DIVIDEX2
70
0
3
Divide (2x) ________  .  .  ________  .  .  _
72
65
73
6
40
63.5
49
25.4
74
0
49
-12.7
74
0
49
0
74
0
49
-12.7
74
0
49
0
74
0
49
-12.7
74
0
0
LTYPE
5
3E
330
5
100
AcDbSymbolTableRecord
100
AcDbLinetypeTableRecord
2
BORDER
70
0
3
Border __ __ . __ __ . __ __ . __ __ . __ __ .
72
65
73
6
40
44.45
49
12.7
74
0
49
-6.35
74
0
49
12.7
74
0
49
-6.35
74
0
49
0
74
0
49
-6.35
74
0
0
LTYPE
5
3F
330
5
100
AcDbSymbolTableRecord
100
AcDbLinetypeTableRecord
2
BORDER2
70
0
3
Border (.5x) __.__.__.__.__.__.__.__.__.__.__.
72
65
73
6
40
22.225
49
6.35
74
0
49
-3.175
74
0
49
6.35
74
0
49
-3.175
74
0
49
0
74
0
49
-3.175
74
0
0
LTYPE
5
40
330
5
100
AcDbSymbolTableRecord
100
AcDbLinetypeTableRecord
2
BORDERX2
70
0
3
Border (2x) ____  ____  .  ____  ____  .  ___
72
65
73
6
40
88.9
49
25.4
74
0
49
-12.7
74
0
49
25.4
74
0
49
-12.7
74
0
49
0
74
0
49
-12.7
74
0
0
LTYPE
5
41
330
5
100
AcDbSymbolTableRecord
100
AcDbLinetypeTableRecord
2
CENTER
70
0
3
Center ____ _ ____ _ ____ _ ____ _ ____ _ ____
72
65
73
4
40
50.8
49
31.75
74
0
49
-6.35
74
0
49
6.35
74
0
49
-6.35
74
0
0
LTYPE
5
42
330
5
100
AcDbSymbolTableRecord
100
AcDbLinetypeTableRecord
2
CENTER2
70
0
3
Center (.5x) ___ _ ___ _ ___ _ ___ _ ___ _ ___
72
65
73
4
40
28.575
49
19.05
74
0
49
-3.175
74
0
49
3.175
74
0
49
-3.175
74
0
0
LTYPE
5
43
330
5
100
AcDbSymbolTableRecord
100
AcDbLinetypeTableRecord
2
CENTERX2
70
0
3
Center (2x) ________  __  ________  __  _____
72
65
73
4
40
101.6
49
63.5
74
0
49
-12.7
74
0
49
12.7
74
0
49
-12.7
74
0
0
ENDTAB
0
TABLE
2
LAYER
5
2
330
0
100
AcDbSymbolTable
70
1
0
LAYER
5
10
330
2
100
AcDbSymbolTableRecord
100
AcDbLayerTableRecord
2
0
70
0
62
7
6
CONTINUOUS
370
30
390
F
0
LAYER
5
44
330
2
100
AcDbSymbolTableRecord
100
AcDbLayerTableRecord
2
axe
70
0
62
1
6
CENTER
370
13
390
F
0
LAYER
5
45
330
2
100
AcDbSymbolTableRecord
100
AcDbLayerTableRecord
2
tiret
70
0
62
7
6
DASHED2
370
25
390
F
0
LAYER
5
46
330
2
100
AcDbSymbolTableRecord
100
AcDbLayerTableRecord
2
Côtation
70
0
62
5
6
CONTINUOUS
370
5
390
F
0
LAYER
5
47
330
2
100
AcDbSymbolTableRecord
100
AcDbLayerTableRecord
2
texte
70
0
62
7
6
CONTINUOUS
370
70
390
F
0
ENDTAB
0
TABLE
2
STYLE
5
3
330
0
100
AcDbSymbolTable
70
3
0
STYLE
5
48
330
2
100
AcDbSymbolTableRecord
100
AcDbTextStyleTableRecord
2
iso
70
0
40
0
41
1
50
0
71
0
42
1
3
iso
4

0
STYLE
5
49
330
2
100
AcDbSymbolTableRecord
100
AcDbTextStyleTableRecord
2
Standard
70
0
40
0
41
1
50
0
71
0
42
1
3
txt
4

0
ENDTAB
0
TABLE
2
VIEW
5
6
330
0
100
AcDbSymbolTable
70
0
0
ENDTAB
0
TABLE
2
UCS
5
7
330
0
100
AcDbSymbolTable
70
0
0
ENDTAB
0
TABLE
2
APPID
5
9
330
0
100
AcDbSymbolTable
70
1
0
APPID
5
12
330
9
100
AcDbSymbolTableRecord
100
AcDbRegAppTableRecord
2
ACAD
70
0
0
ENDTAB
0
TABLE
2
DIMSTYLE
5
A
330
0
100
AcDbSymbolTable
70
1
100
AcDbDimStyleTable
71
1
0
DIMSTYLE
105
4A
330
A
100
AcDbSymbolTableRecord
100
AcDbDimStyleTableRecord
2
Standard
70
0
40
1
41
2.5
42
0.625
43
0.38
44
1.25
45
0
46
0
47
0
48
0
140
2.5
141
0.09
142
0
143
25.4
144
1
145
0
146
1
147
0.625
148
0
71
0
72
0
73
0
74
1
75
0
76
0
77
0
78
0
79
0
170
0
171
2
172
0
173
0
174
0
175
0
176
0
177
0
178
0
179
0
271
4
272
4
273
2
274
2
275
0
276
0
277
2
278
46
279
0
280
0
281
0
282
0
283
1
284
0
285
0
286
0
288
0
289
3
340
Standard
341

371
-2
372
-2
0
ENDTAB
0
TABLE
2
BLOCK_RECORD
5
1
330
0
100
AcDbSymbolTable
70
2
0
BLOCK_RECORD
5
1F
330
1
100
AcDbSymbolTableRecord
100
AcDbBlockTableRecord
2
*Model_Space
70
0
280
1
281
0
0
BLOCK_RECORD
5
1E
330
1
100
AcDbSymbolTableRecord
100
AcDbBlockTableRecord
2
*Paper_Space
70
0
280
1
281
0
0
BLOCK_RECORD
5
4B
330
1
100
AcDbSymbolTableRecord
100
AcDbBlockTableRecord
2
*D7
70
0
280
1
281
0
0
BLOCK_RECORD
5
4E
330
1
100
AcDbSymbolTableRecord
100
AcDbBlockTableRecord
2
*D4
70
0
280
1
281
0
0
BLOCK_RECORD
5
51
330
1
100
AcDbSymbolTableRecord
100
AcDbBlockTableRecord
2
*D5
70
0
280
1
281
0
0
BLOCK_RECORD
5
54
330
1
100
AcDbSymbolTableRecord
100
AcDbBlockTableRecord
2
*D2
70
0
280
1
281
0
0
BLOCK_RECORD
5
57
330
1
100
AcDbSymbolTableRecord
100
AcDbBlockTableRecord
2
*D8
70
0
280
1
281
0
0
BLOCK_RECORD
5
5A
330
1
100
AcDbSymbolTableRecord
100
AcDbBlockTableRecord
2
*D3
70
0
280
1
281
0
0
BLOCK_RECORD
5
5D
330
1
100
AcDbSymbolTableRecord
100
AcDbBlockTableRecord
2
*D6
70
0
280
1
281
0
0
BLOCK_RECORD
5
60
330
1
100
AcDbSymbolTableRecord
100
AcDbBlockTableRecord
2
*D1
70
0
280
1
281
0
0
ENDTAB
0
ENDSEC
0
SECTION
2
BLOCKS
0
BLOCK
5
20
330
1F
100
AcDbEntity
8
0
100
AcDbBlockBegin
2
*Model_Space
70
0
10
0
20
0
30
0
3
*Model_Space
1

0
ENDBLK
5
21
330
1F
100
AcDbEntity
8
0
100
AcDbBlockEnd
0
BLOCK
5
1C
330
1B
100
AcDbEntity
8
0
100
AcDbBlockBegin
2
*Paper_Space
70
0
10
0
20
0
30
0
3
*Paper_Space
1

0
ENDBLK
5
1D
330
1F
100
AcDbEntity
8
0
100
AcDbBlockEnd
0
BLOCK
5
4C
330
4B
100
AcDbEntity
8
0
100
AcDbBlockBegin
2
*D7
70
1
10
0
20
0
3
*D7
1

0
SOLID
5
63
100
AcDbEntity
8
Côtation
6
CONTINUOUS
62
7
370
0
100
AcDbTrace
10
58.8388347648
20
-68.8388347648
30
0
11
56.7767101075
21
-67.3654255163
31
0
12
57.3654255163
22
-66.7767101075
32
0
13
57.3654255163
23
-66.7767101075
33
0
0
LINE
5
64
100
AcDbEntity
8
Côtation
6
CONTINUOUS
62
7
370
0
100
AcDbLine
10
50
20
-60
11
58.8388347648
21
-68.8388347648
0
MTEXT
5
65
100
AcDbEntity
8
Côtation
6
CONTINUOUS
62
7
370
0
100
AcDbMText
10
55.7452425971
20
-63.0935921677
30
0
40
2.5
41
5.27777777778
71
5
72
1
1
12.5
7
standard
210
0
220
0
230
1
50
315
73
2
44
1
0
ENDBLK
5
4D
330
4B
100
AcDbEntity
8
0
100
AcDbBlockEnd
0
BLOCK
5
4F
330
4E
100
AcDbEntity
8
0
100
AcDbBlockBegin
2
*D4
70
1
10
0
20
0
3
*D4
1

0
LINE
5
66
100
AcDbEntity
8
Côtation
6
CONTINUOUS
62
7
370
0
100
AcDbLine
10
105
20
-12
11
118
21
-12
0
SOLID
5
67
100
AcDbEntity
8
Côtation
6
CONTINUOUS
62
7
370
0
100
AcDbTrace
10
110
20
-12
30
0
11
107.5
21
-12.4162846578
31
0
12
107.5
22
-11.5837153422
32
0
13
107.5
23
-11.5837153422
33
0
0
SOLID
5
68
100
AcDbEntity
8
Côtation
6
CONTINUOUS
62
7
370
0
100
AcDbTrace
10
113
20
-12
30
0
11
115.5
21
-11.5837153422
31
0
12
115.5
22
-12.4162846578
32
0
13
115.5
23
-12.4162846578
33
0
0
MTEXT
5
69
100
AcDbEntity
8
Côtation
6
CONTINUOUS
62
7
370
0
100
AcDbMText
10
111.5
20
-10.125
30
0
40
2.5
41
1.11111111111
71
5
72
1
1
3
7
standard
210
0
220
0
230
1
50
0
73
2
44
1
0
LINE
5
6A
100
AcDbEntity
8
Côtation
6
CONTINUOUS
62
7
370
0
100
AcDbLine
10
110
20
-5.625
11
110
21
-13.25
0
LINE
5
6B
100
AcDbEntity
8
Côtation
6
CONTINUOUS
62
7
370
0
100
AcDbLine
10
113
20
-5.625
11
113
21
-13.25
0
ENDBLK
5
50
330
4E
100
AcDbEntity
8
0
100
AcDbBlockEnd
0
BLOCK
5
52
330
51
100
AcDbEntity
8
0
100
AcDbBlockBegin
2
*D5
70
1
10
0
20
0
3
*D5
1

0
LINE
5
6C
100
AcDbEntity
8
Côtation
6
CONTINUOUS
62
7
370
0
100
AcDbLine
10
0
20
-12
11
110
21
-12
0
SOLID
5
6D
100
AcDbEntity
8
Côtation
6
CONTINUOUS
62
7
370
0
100
AcDbTrace
10
0
20
-12
30
0
11
2.5
21
-11.5837153422
31
0
12
2.5
22
-12.4162846578
32
0
13
2.5
23
-12.4162846578
33
0
0
SOLID
5
6E
100
AcDbEntity
8
Côtation
6
CONTINUOUS
62
7
370
0
100
AcDbTrace
10
110
20
-12
30
0
11
107.5
21
-12.4162846578
31
0
12
107.5
22
-11.5837153422
32
0
13
107.5
23
-11.5837153422
33
0
0
MTEXT
5
6F
100
AcDbEntity
8
Côtation
6
CONTINUOUS
62
7
370
0
100
AcDbMText
10
55
20
-10.125
30
0
40
2.5
41
3.88888888889
71
5
72
1
1
110
7
standard
210
0
220
0
230
1
50
0
73
2
44
1
0
LINE
5
70
100
AcDbEntity
8
Côtation
6
CONTINUOUS
62
7
370
0
100
AcDbLine
10
-5.92994861888e-17
20
-3.125
11
-2.2962127484e-16
21
-13.25
0
LINE
5
71
100
AcDbEntity
8
Côtation
6
CONTINUOUS
62
7
370
0
100
AcDbLine
10
110
20
-3.125
11
110
21
-13.25
0
ENDBLK
5
53
330
51
100
AcDbEntity
8
0
100
AcDbBlockEnd
0
BLOCK
5
55
330
54
100
AcDbEntity
8
0
100
AcDbBlockBegin
2
*D2
70
1
10
0
20
0
3
*D2
1

0
LINE
5
72
100
AcDbEntity
8
Côtation
6
CONTINUOUS
62
7
370
0
100
AcDbLine
10
-20
20
-2.5
11
-20
21
22.5
0
SOLID
5
73
100
AcDbEntity
8
Côtation
6
CONTINUOUS
62
7
370
0
100
AcDbTrace
10
-20
20
-2.5
30
0
11
-20.4162846578
21
7.56773116395e-17
31
0
12
-19.5837153422
22
0
32
0
13
-19.5837153422
23
0
33
0
0
SOLID
5
74
100
AcDbEntity
8
Côtation
6
CONTINUOUS
62
7
370
0
100
AcDbTrace
10
-20
20
22.5
30
0
11
-19.5837153422
21
20
31
0
12
-20.4162846578
22
20
32
0
13
-20.4162846578
23
20
33
0
0
MTEXT
5
75
100
AcDbEntity
8
Côtation
6
CONTINUOUS
62
7
370
0
100
AcDbMText
10
-21.875
20
10
30
0
40
2.5
41
3.05555555556
71
5
72
1
1
25
7
standard
210
0
220
0
230
1
50
90
73
2
44
1
0
LINE
5
76
100
AcDbEntity
8
Côtation
6
CONTINUOUS
62
7
370
0
100
AcDbLine
10
-0.625
20
-2.5
11
-21.25
21
-2.5
0
LINE
5
77
100
AcDbEntity
8
Côtation
6
CONTINUOUS
62
7
370
0
100
AcDbLine
10
-0.625
20
22.5
11
-21.25
21
22.5
0
ENDBLK
5
56
330
54
100
AcDbEntity
8
0
100
AcDbBlockEnd
0
BLOCK
5
58
330
57
100
AcDbEntity
8
0
100
AcDbBlockBegin
2
*D8
70
1
10
0
20
0
3
*D8
1

0
SOLID
5
78
100
AcDbEntity
8
Côtation
6
CONTINUOUS
62
7
370
0
100
AcDbTrace
10
40
20
-60
30
0
11
42.5
21
-59.5837153422
31
0
12
42.5
22
-60.4162846578
32
0
13
42.5
23
-60.4162846578
33
0
0
LINE
5
79
100
AcDbEntity
8
Côtation
6
CONTINUOUS
62
7
370
0
100
AcDbLine
10
50
20
-60
11
40
21
-60
0
MTEXT
5
7A
100
AcDbEntity
8
Côtation
6
CONTINUOUS
62
7
370
0
100
AcDbMText
10
45
20
-58.125
30
0
40
2.5
41
2.5
71
5
72
1
1
10
7
standard
210
0
220
0
230
1
50
360
73
2
44
1
0
ENDBLK
5
59
330
57
100
AcDbEntity
8
0
100
AcDbBlockEnd
0
BLOCK
5
5B
330
5A
100
AcDbEntity
8
0
100
AcDbBlockBegin
2
*D3
70
1
10
0
20
0
3
*D3
1

0
LINE
5
7B
100
AcDbEntity
8
Côtation
6
CONTINUOUS
62
7
370
0
100
AcDbLine
10
124
20
25
11
124
21
-5
0
SOLID
5
7C
100
AcDbEntity
8
Côtation
6
CONTINUOUS
62
7
370
0
100
AcDbTrace
10
124
20
25
30
0
11
124.416284658
21
22.5
31
0
12
123.583715342
22
22.5
32
0
13
123.583715342
23
22.5
33
0
0
SOLID
5
7D
100
AcDbEntity
8
Côtation
6
CONTINUOUS
62
7
370
0
100
AcDbTrace
10
124
20
-5
30
0
11
123.583715342
21
-2.5
31
0
12
124.416284658
22
-2.5
32
0
13
124.416284658
23
-2.5
33
0
0
MTEXT
5
7E
100
AcDbEntity
8
Côtation
6
CONTINUOUS
62
7
370
0
100
AcDbMText
10
122.125
20
10
30
0
40
2.5
41
3.05555555556
71
5
72
1
1
30
7
standard
210
0
220
0
230
1
50
90
73
2
44
1
0
LINE
5
7F
100
AcDbEntity
8
Côtation
6
CONTINUOUS
62
7
370
0
100
AcDbLine
10
113.625
20
25
11
125.25
21
25
0
LINE
5
80
100
AcDbEntity
8
Côtation
6
CONTINUOUS
62
7
370
0
100
AcDbLine
10
113.625
20
-5
11
125.25
21
-5
0
ENDBLK
5
5C
330
5A
100
AcDbEntity
8
0
100
AcDbBlockEnd
0
BLOCK
5
5E
330
5D
100
AcDbEntity
8
0
100
AcDbBlockBegin
2
*D6
70
1
10
0
20
0
3
*D6
1

0
SOLID
5
81
100
AcDbEntity
8
Côtation
6
CONTINUOUS
62
7
370
0
100
AcDbTrace
10
60.6066017178
20
-49.3933982822
30
0
11
59.1331924692
21
-51.4555229396
31
0
12
58.5444770604
22
-50.8668075308
32
0
13
58.5444770604
23
-50.8668075308
33
0
0
LINE
5
82
100
AcDbEntity
8
Côtation
6
CONTINUOUS
62
7
370
0
100
AcDbLine
10
50
20
-60
11
60.6066017178
21
-49.3933982822
0
MTEXT
5
83
100
AcDbEntity
8
Côtation
6
CONTINUOUS
62
7
370
0
100
AcDbMText
10
53.9774756442
20
-53.3708739264
30
0
40
2.5
41
2.5
71
5
72
1
1
15
7
standard
210
0
220
0
230
1
50
45
73
2
44
1
0
ENDBLK
5
5F
330
5D
100
AcDbEntity
8
0
100
AcDbBlockEnd
0
BLOCK
5
61
330
60
100
AcDbEntity
8
0
100
AcDbBlockBegin
2
*D1
70
1
10
0
20
0
3
*D1
1

0
LINE
5
84
100
AcDbEntity
8
Côtation
6
CONTINUOUS
62
7
370
0
100
AcDbLine
10
-10
20
0
11
-10
21
20
0
SOLID
5
85
100
AcDbEntity
8
Côtation
6
CONTINUOUS
62
7
370
0
100
AcDbTrace
10
-10
20
0
30
0
11
-10.4162846578
21
2.5
31
0
12
-9.58371534223
22
2.5
32
0
13
-9.58371534223
23
2.5
33
0
0
SOLID
5
86
100
AcDbEntity
8
Côtation
6
CONTINUOUS
62
7
370
0
100
AcDbTrace
10
-10
20
20
30
0
11
-9.58371534223
21
17.5
31
0
12
-10.4162846578
22
17.5
32
0
13
-10.4162846578
23
17.5
33
0
0
MTEXT
5
87
100
AcDbEntity
8
Côtation
6
CONTINUOUS
62
7
370
0
100
AcDbMText
10
-11.875
20
10
30
0
40
2.5
41
3.05555555556
71
5
72
1
1
20
7
standard
210
0
220
0
230
1
50
90
73
2
44
1
0
LINE
5
88
100
AcDbEntity
8
Côtation
6
CONTINUOUS
62
7
370
0
100
AcDbLine
10
-0.625
20
7.65404249467e-17
11
-11.25
21
1.53080849893e-16
0
LINE
5
89
100
AcDbEntity
8
Côtation
6
CONTINUOUS
62
7
370
0
100
AcDbLine
10
-0.625
20
20
11
-11.25
21
20
0
ENDBLK
5
62
330
60
100
AcDbEntity
8
0
100
AcDbBlockEnd
0
ENDSEC
0
SECTION
2
ENTITIES
0
LINE
5
8A
100
AcDbEntity
8
axe
6
ByLayer
62
256
370
-1
100
AcDbLine
10
130
20
10
11
-20
21
10
0
LINE
5
8B
100
AcDbEntity
8
tiret
6
ByLayer
62
256
370
-1
100
AcDbLine
10
0
20
20
11
113
21
20
0
LINE
5
8C
100
AcDbEntity
8
tiret
6
ByLayer
62
256
370
-1
100
AcDbLine
10
113
20
0
11
0
21
0
0
LINE
5
8D
100
AcDbEntity
8
0
6
ByLayer
62
256
370
-1
100
AcDbLine
10
113
20
-5
11
110
21
-5
0
LINE
5
8E
100
AcDbEntity
8
0
6
ByLayer
62
256
370
-1
100
AcDbLine
10
110
20
-5
11
110
21
25
0
LINE
5
8F
100
AcDbEntity
8
0
6
ByLayer
62
256
370
-1
100
AcDbLine
10
110
20
25
11
113
21
25
0
LINE
5
90
100
AcDbEntity
8
0
6
ByLayer
62
256
370
-1
100
AcDbLine
10
113
20
25
11
113
21
-5
0
LINE
5
91
100
AcDbEntity
8
0
6
ByLayer
62
256
370
-1
100
AcDbLine
10
110
20
22.5
11
5.55111512313e-17
21
22.5
0
LINE
5
92
100
AcDbEntity
8
0
6
ByLayer
62
256
370
-1
100
AcDbLine
10
5.55111512313e-17
20
22.5
11
5.55111512313e-17
21
-2.5
0
LINE
5
93
100
AcDbEntity
8
0
6
ByLayer
62
256
370
-1
100
AcDbLine
10
5.55111512313e-17
20
-2.5
11
110
21
-2.5
0
DIMENSION
5
94
100
AcDbEntity
8
Côtation
6
ByLayer
62
256
370
-1
100
AcDbDimension
2
*D1
10
-10
20
20
30
0
11
-11.875
21
10
31
0
70
32
71
5
72
0
3
Standard
53
0
210
0
220
0
230
1
100
AcDbAlignedDimension
13
0
23
0
33
0
14
0
24
20
34
0
50
90
100
AcDbRotatedDimension
0
DIMENSION
5
95
100
AcDbEntity
8
Côtation
6
ByLayer
62
256
370
-1
100
AcDbDimension
2
*D2
10
-20
20
22.5
30
0
11
-21.875
21
10
31
0
70
32
71
5
72
0
3
Standard
53
0
210
0
220
0
230
1
100
AcDbAlignedDimension
13
1.11022302463e-16
23
-2.5
33
0
14
5.55111512313e-17
24
22.5
34
0
50
90
100
AcDbRotatedDimension
0
DIMENSION
5
96
100
AcDbEntity
8
Côtation
6
ByLayer
62
256
370
-1
100
AcDbDimension
2
*D3
10
124
20
-5
30
0
11
122.125
21
10
31
0
70
32
71
5
72
0
3
Standard
53
0
210
0
220
0
230
1
100
AcDbAlignedDimension
13
113
23
25
33
0
14
113
24
-5
34
0
50
90
100
AcDbRotatedDimension
0
DIMENSION
5
97
100
AcDbEntity
8
Côtation
6
ByLayer
62
256
370
-1
100
AcDbDimension
2
*D4
10
113
20
-12
30
0
11
111.5
21
-10.125
31
0
70
32
71
5
72
0
3
Standard
53
0
210
0
220
0
230
1
100
AcDbAlignedDimension
13
110
23
-5
33
0
14
113
24
-5
34
0
100
AcDbRotatedDimension
0
DIMENSION
5
98
100
AcDbEntity
8
Côtation
6
ByLayer
62
256
370
-1
100
AcDbDimension
2
*D5
10
110
20
-12
30
0
11
55
21
-10.125
31
0
70
32
71
5
72
0
3
Standard
53
0
210
0
220
0
230
1
100
AcDbAlignedDimension
13
5.55111512313e-17
23
-2.5
33
0
14
110
24
-2.5
34
0
100
AcDbRotatedDimension
0
MTEXT
5
99
100
AcDbEntity
8
texte
6
ByLayer
62
256
370
-1
100
AcDbMText
10
20
20
50
30
0
40
5
41
74.7222247937
71
1
72
1
1
Entretoise roue avant
7
iso
210
0
220
0
230
1
50
0
73
2
44
1
0
CIRCLE
5
9A
100
AcDbEntity
8
0
6
ByLayer
62
256
370
-1
100
AcDbCircle
10
50
20
-60
40
10
0
CIRCLE
5
9B
100
AcDbEntity
8
0
6
ByLayer
62
256
370
-1
100
AcDbCircle
10
50
20
-60
40
15
0
CIRCLE
5
9C
100
AcDbEntity
8
0
6
ByLayer
62
256
370
-1
100
AcDbCircle
10
50
20
-60
40
12.5
0
LINE
5
9D
100
AcDbEntity
8
axe
6
ByLayer
62
256
370
-1
100
AcDbLine
10
20
20
-60
11
80
21
-60
0
LINE
5
9E
100
AcDbEntity
8
axe
6
ByLayer
62
256
370
-1
100
AcDbLine
10
50
20
-30
11
50
21
-90
0
DIMENSION
5
9F
100
AcDbEntity
8
Côtation
6
ByLayer
62
256
370
-1
100
AcDbDimension
2
*D6
10
50
20
-60
30
0
11
53.9774756442
21
-53.3708739264
31
0
70
36
71
5
3
Standard
53
0
210
0
220
0
230
1
100
AcDbRadialDimension
15
60.6066017178
25
-49.3933982822
35
0
40
0
0
DIMENSION
5
A0
100
AcDbEntity
8
Côtation
6
ByLayer
62
256
370
-1
100
AcDbDimension
2
*D7
10
50
20
-60
30
0
11
55.7452425971
21
-63.0935921677
31
0
70
36
71
5
3
Standard
53
0
210
0
220
0
230
1
100
AcDbRadialDimension
15
58.8388347648
25
-68.8388347648
35
0
40
0
0
DIMENSION
5
A1
100
AcDbEntity
8
Côtation
6
ByLayer
62
256
370
-1
100
AcDbDimension
2
*D8
10
50
20
-60
30
0
11
45
21
-58.125
31
0
70
36
71
5
3
Standard
53
0
210
0
220
0
230
1
100
AcDbRadialDimension
15
40
25
-60
35
0
40
0
0
ENDSEC
0
SECTION
2
OBJECTS
0
DICTIONARY
5
C
330
0
100
AcDbDictionary
281
1
3
ACAD_GROUP
350
D
0
DICTIONARY
5
D
330
C
100
AcDbDictionary
281
1
0
ENDSEC
0
EOF
